找回密码

蓝光电影网

查看: 258|回复: 4

[动作] 倚天屠龍記之魔教教主 The.Kung.Fu.Cult.Master.1993.CHINESE.1080p.BluRay.x264.DTS-FGT 9.16GB

[复制链接]

 成长值: 26140

发表于 2020-5-22 23:42:21 | 显示全部楼层 |阅读模式
p1655212378.jpg

译  名 倚天屠龙记之魔教教主 / Kung Fu Cult Master
片  名 倚天屠龍記之魔教教主
年  代 1993
产  地 中国香港
类  别 动作 / 奇幻 / 武侠 / 古装
语  言 粤语
上映日期 1993-12-18(中国香港)
IMDb评分  6.4/10 from 3071 users
IMDb链接  https://www.imdb.com/title/tt0108624
豆瓣评分 7.7/10 from 114314 users
豆瓣链接 https://movie.douban.com/subject/1299059/
片  长 99分钟
导  演 王晶 Wong Jing
编  剧 王晶 Wong Jing / 金庸 Louis Cha
主  演 李连杰 Jet Li
       张敏 Sharla Cheung
       邱淑贞 Chingmy Yau
       黎姿 Gigi Lai
       洪金宝 Sammo Hung Kam-Bo
       吴镇宇 Francis Ng
       吴耀汉 Richard Ng
       曹荣 Wing Cho
       闫怀礼 Huaili Yan
       梁家仁 Ka-Yan Leung
       邹兆龙 Collin Chou
       田启文 Kai Man Tin
       张春仲 Chunzhong Zhang
       姬麒麟 Qilin Ji


标  签 武侠 | 香港 | 动作 | 1993 | 古装 | 电影 | 金庸 | 经典

简  介  

  张翠山(吴镇宇 饰)携妻及子张无忌(李连杰 饰)从孤岛出发赶去给其师父贺百岁大寿的途中,被人暗算,张无忌中寒冰掌。在武当山,张翠山和妻子被各大门派逼迫致死,张无忌也不再能练习武功,只能靠张三丰每日所输真气得以残活。张三丰的举动引来宋青书(邹兆龙 饰)的妒忌,他联合了峨眉女弟子周芷若(黎姿 饰)共同对付张无 忌。明教圣女小昭(邱淑贞 饰)令张无忌改变命运,使其先在断崖上遇到高人治好体内寒冰毒、学会九成“九阳神功”,又在明教禁地练得“乾坤大挪移心法”。得知蒙古郡主赵敏(张敏 饰)设计令江湖六大派围攻光明顶想歼灭明教时,张无忌决意为拯救明教赴汤蹈火。
  1. Video
  2. ID                                       : 1
  3. Format                                   : AVC
  4. Format/Info                              : Advanced Video Codec
  5. Format profile                           : High@L4
  6. Format settings                          : CABAC / 4 Ref Frames
  7. Format settings, CABAC                   : Yes
  8. Format settings, Reference frames        : 4 frames
  9. Codec ID                                 : V_MPEG4/ISO/AVC
  10. Duration                                 : 1 h 40 min
  11. Bit rate                                 : 11.5 Mb/s
  12. Width                                    : 1 920 pixels
  13. Height                                   : 1 080 pixels
  14. Display aspect ratio                     : 16:9
  15. Frame rate mode                          : Constant
  16. Frame rate                               : 24.000 FPS
  17. Color space                              : YUV
  18. Chroma subsampling                       : 4:2:0
  19. Bit depth                                : 8 bits
  20. Scan type                                : Progressive
  21. Bits/(Pixel*Frame)                       : 0.231
  22. Stream size                              : 8.10 GiB (88%)
  23. Title                                    : The.Kung.Fu.Cult.Master.1993.CHINESE.1080p.BluRay.x264.DTS-FGT
  24. Writing library                          : x264 core 148 r2748 97eaef2
  25. Encoding settings                        : cabac=1 / ref=4 / deblock=1:-2:-2 / analyse=0x3:0x113 / me=umh / subme=9 / psy=1 / psy_rd=1.00:0.15 / mixed_ref=1 / me_range=16 / chroma_me=1 / trellis=2 / 8x8dct=1 / cqm=0 / deadzone=21,11 / fast_pskip=1 / chroma_qp_offset=-3 / threads=24 / lookahead_threads=3 / sliced_threads=0 / nr=0 / decimate=1 / interlaced=0 / bluray_compat=0 / constrained_intra=0 / bframes=3 / b_pyramid=2 / b_adapt=1 / b_bias=0 / direct=3 / weightb=1 / open_gop=0 / weightp=2 / keyint=250 / keyint_min=25 / scenecut=40 / intra_refresh=0 / rc_lookahead=50 / rc=2pass / mbtree=1 / bitrate=11500 / ratetol=1.0 / qcomp=0.60 / qpmin=0 / qpmax=69 / qpstep=4 / cplxblur=20.0 / qblur=0.5 / vbv_maxrate=31250 / vbv_bufsize=31250 / nal_hrd=none / filler=0 / ip_ratio=1.40 / aq=1:1.00
  26. Language                                 : Chinese
  27. Default                                  : Yes
  28. Forced                                   : No

  29. Audio
  30. ID                                       : 2
  31. Format                                   : DTS
  32. Format/Info                              : Digital Theater Systems
  33. Codec ID                                 : A_DTS
  34. Duration                                 : 1 h 40 min
  35. Bit rate mode                            : Constant
  36. Bit rate                                 : 1 509 kb/s
  37. Channel(s)                               : 6 channels
  38. Channel layout                           : C L R Ls Rs LFE
  39. Sampling rate                            : 48.0 kHz
  40. Frame rate                               : 93.750 FPS (512 SPF)
  41. Bit depth                                : 16 bits
  42. Compression mode                         : Lossy
  43. Stream size                              : 1.06 GiB (12%)
  44. Title                                    : The.Kung.Fu.Cult.Master.1993.CHINESE.1080p.BluRay.x264.DTS-FGT
  45. Language                                 : Chinese
  46. Default                                  : Yes
  47. Forced                                   : No

  48. Text
  49. ID                                       : 3
  50. Format                                   : UTF-8
  51. Codec ID                                 : S_TEXT/UTF8
  52. Codec ID/Info                            : UTF-8 Plain Text
  53. Duration                                 : 1 h 38 min
  54. Bit rate                                 : 64 b/s
  55. Count of elements                        : 1389
  56. Stream size                              : 46.9 KiB (0%)
  57. Language                                 : English
  58. Default                                  : Yes
  59. Forced                                   : No

  60. Menu
  61. 00:00:00.000                             : en:Chapter 1
  62. 00:05:06.415                             : en:Chapter 2
  63. 00:09:21.416                             : en:Chapter 3
  64. 00:15:58.415                             : en:Chapter 4
  65. 00:20:02.333                             : en:Chapter 5
  66. 00:26:08.415                             : en:Chapter 6
  67. 00:31:12.833                             : en:Chapter 7
  68. 00:35:12.041                             : en:Chapter 8
  69. 00:40:24.083                             : en:Chapter 9
  70. 00:45:13.000                             : en:Chapter 10
  71. 00:50:23.416                             : en:Chapter 11
  72. 00:55:38.000                             : en:Chapter 12
  73. 01:00:11.416                             : en:Chapter 13
  74. 01:05:22.166                             : en:Chapter 14
  75. 01:10:43.082                             : en:Chapter 15
  76. 01:15:02.416                             : en:Chapter 16
  77. 01:20:28.250                             : en:Chapter 17
  78. 01:27:04.000                             : en:Chapter 18
  79. 01:31:52.000                             : en:Chapter 19
  80. 01:37:48.000                             : en:Chapter 20
复制代码

倚天屠龍記之魔教教主 The.Kung.Fu.Cult.Master.1993.CHINESE.1080p.BluRay.x264.DTS-FGT 9.16GB-1.png 倚天屠龍記之魔教教主 The.Kung.Fu.Cult.Master.1993.CHINESE.1080p.BluRay.x264.DTS-FGT 9.16GB-2.png 倚天屠龍記之魔教教主 The.Kung.Fu.Cult.Master.1993.CHINESE.1080p.BluRay.x264.DTS-FGT 9.16GB-3.png







回复

使用道具 举报

发表于 7 天前 | 显示全部楼层
楼主太厉害了!楼主,电影应该很好看我觉得蓝光电影网真是个好地方!
回复 支持 反对

使用道具 举报

发表于 6 天前 | 显示全部楼层
这个是经典,可惜没有续集了。
回复 支持 反对

使用道具 举报

发表于 5 天前 | 显示全部楼层
可惜原班人马没有续集了
回复 支持 反对

使用道具 举报

发表于 3 天前 | 显示全部楼层

感谢楼主的无私分享!要想蓝光电影网好 就靠你我他
回复 支持 反对

使用道具 举报

懒得打字嘛,点击右侧快捷回复 【右侧内容,后台自定义】
您需要登录后才可以回帖 登录 | 立即加入

本版积分规则

现在加入蓝光电影网,注册一个账号
上个主题 下个主题 快速回复 收藏帖子 返回列表 客服中心 搜索

手机版|小黑屋| 蓝光电影网 |网站地图 

Copyright © 2015-2019 Comsenz Inc.  Template by 蓝光电影论坛 All Rights Reserved.

Powered by 蓝光电影网 X3.4

特别声明:本站所有资源均由网上收集而来,版权归原影音公司所有,如果侵犯了你的权益,请通知我们,我们会及时删除侵权内容.

快速回复 返回顶部 返回列表