找回密码

蓝光电影网

查看: 142|回复: 2

[10bit.HDR] 霹雳男儿/雷声四起 Days.of.Thunder.1990.2160p.UHD.BluRay.X265.10bit.HDR.TrueHD.5.1-WhiteRhino 29.53GB

[复制链接]

 成长值: 26155

发表于 2020-5-21 20:06:40 | 显示全部楼层 |阅读模式
霹雳男儿/雷声四起 Days.of.Thunder.1990.2160p.UHD.BluRay.X265.10bit.HDR.TrueHD.5.1-WhiteRhino 29.53GB-1.png

译  名 霹雳男儿 / 雷声四起 / 雷霆壮志 / 雷鸣的日子
片  名 Days of Thunder
年  代 1990
产  地 美国
类  别 剧情 / 动作 / 爱情 / 运动
语  言 英语
上映日期 1990-06-27
IMDb评分  6.0/10 from 75445 users
IMDb链接  https://www.imdb.com/title/tt0099371
豆瓣评分 6.8/10 from 1769 users
豆瓣链接 https://movie.douban.com/subject/1292746/
片  长 107 分钟
导  演 Tony Scott
编  剧 Robert Towne
主  演 Tom Cruise
       Nicole Kidman
       Robert Duvall


标  签 TomCruise | 美国 | NicoleKidman | 励志 | 汤姆·克鲁斯 | 爱情 | 美国电影 | 1990

简  介  

  赛车版的《壮志凌云》
  杰克是一名职业赛车手,对胜利和赛车冠军充满了渴望,在走出失败的阴影之后,他在女友的鼓励及赛车设计高手哈里的帮助下,决定再次挑战对手联手向雷特那赛车冠军发起了冲击。经过惊险万分比赛,最后终于赢得了冠军!

获奖情况  

  第63届奥斯卡金像奖(1991)
  最佳音响(提名) Donald O. Mitchell / 凯文·奥康奈尔 / 里克·克莱恩 / Charles M. Wilborn

  1. Video
  2. ID                                       : 1
  3. Format                                   : HEVC
  4. Format/Info                              : High Efficiency Video Coding
  5. Format profile                           : Main 10@L5.1@High
  6. HDR format                               : SMPTE ST 2086, HDR10 compatible
  7. Codec ID                                 : V_MPEGH/ISO/HEVC
  8. Duration                                 : 1 h 47 min
  9. Bit rate                                 : 34.7 Mb/s
  10. Width                                    : 3 840 pixels
  11. Height                                   : 1 600 pixels
  12. Display aspect ratio                     : 2.40:1
  13. Frame rate mode                          : Constant
  14. Frame rate                               : 23.976 (24000/1001/45165) FPS
  15. Color space                              : YUV
  16. Chroma subsampling                       : 4:2:0 (Type 2)
  17. Bit depth                                : 10 bits
  18. Bits/(Pixel*Frame)                       : 0.235
  19. Stream size                              : 26.0 GiB (89%)
  20. Writing library                          : x265 3.3+21-6bb2d88029c2:[Windows][GCC 10.0.1][64 bit] 10bit
  21. Encoding settings                        : cpuid=1111039 / frame-threads=4 / numa-pools=20 / wpp / no-pmode / no-pme / no-psnr / no-ssim / log-level=2 / input-csp=1 / input-res=3840x1600 / interlace=0 / total-frames=154336 / level-idc=51 / high-tier=1 / uhd-bd=0 / ref=4 / no-allow-non-conformance / repeat-headers / annexb / aud / hrd / info / hash=0 / no-temporal-layers / no-open-gop / min-keyint=23 / keyint=250 / gop-lookahead=0 / bframes=4 / b-adapt=2 / b-pyramid / bframe-bias=0 / rc-lookahead=25 / lookahead-slices=4 / scenecut=40 / hist-scenecut=0 / radl=0 / no-splice / no-intra-refresh / ctu=64 / min-cu-size=8 / rect / no-amp / max-tu-size=32 / tu-inter-depth=1 / tu-intra-depth=1 / limit-tu=0 / rdoq-level=2 / dynamic-rd=0.00 / no-ssim-rd / signhide / no-tskip / nr-intra=0 / nr-inter=0 / no-constrained-intra / strong-intra-smoothing / max-merge=3 / limit-refs=3 / limit-modes / me=3 / subme=3 / merange=57 / temporal-mvp / no-frame-dup / no-hme / weightp / no-weightb / no-analyze-src-pics / deblock=-3:-3 / no-sao / no-sao-non-deblock / rd=4 / selective-sao=0 / no-early-skip / rskip / no-fast-intra / no-tskip-fast / no-cu-lossless / no-b-intra / no-splitrd-skip / rdpenalty=0 / psy-rd=2.00 / psy-rdoq=1.00 / no-rd-refine / no-lossless / cbqpoffs=0 / crqpoffs=0 / rc=crf / crf=22.5 / qcomp=0.60 / qpstep=4 / stats-write=0 / stats-read=0 / vbv-maxrate=160000 / vbv-bufsize=160000 / vbv-init=0.9 / crf-max=0.0 / crf-min=0.0 / ipratio=1.40 / pbratio=1.30 / aq-mode=2 / aq-strength=1.00 / cutree / zone-count=0 / no-strict-cbr / qg-size=32 / no-rc-grain / qpmax=69 / qpmin=0 / no-const-vbv / sar=1 / overscan=0 / videoformat=5 / range=0 / colorprim=9 / transfer=16 / colormatrix=9 / chromaloc=1 / chromaloc-top=2 / chromaloc-bottom=2 / display-window=0 / master-display=G(13250,34500)B(7500,3000)R(34000,16000)WP(15635,16450)L(10000000,1) / cll=0,0 / min-luma=0 / max-luma=1023 / log2-max-poc-lsb=8 / vui-timing-info / vui-hrd-info / slices=1 / no-opt-qp-pps / no-opt-ref-list-length-pps / no-multi-pass-opt-rps / scenecut-bias=0.05 / hist-threshold=0.01 / no-opt-cu-delta-qp / no-aq-motion / hdr10 / hdr10-opt / no-dhdr10-opt / no-idr-recovery-sei / analysis-reuse-level=0 / analysis-save-reuse-level=0 / analysis-load-reuse-level=0 / scale-factor=0 / refine-intra=0 / refine-inter=0 / refine-mv=1 / refine-ctu-distortion=0 / no-limit-sao / ctu-info=0 / no-lowpass-dct / refine-analysis-type=0 / copy-pic=1 / max-ausize-factor=1.0 / no-dynamic-refine / no-single-sei / no-hevc-aq / no-svt / no-field / qp-adaptation-range=1.00 / no-scenecut-aware-qpconformance-window-offsets / right=0 / bottom=0 / decoder-max-rate=0
  22. Default                                  : Yes
  23. Forced                                   : No
  24. Color range                              : Limited
  25. Color primaries                          : BT.2020
  26. Transfer characteristics                 : PQ
  27. Matrix coefficients                      : BT.2020 non-constant
  28. Mastering display color primaries        : Display P3
  29. Mastering display luminance              : min: 0.0001 cd/m2, max: 1000 cd/m2

  30. Audio #1
  31. ID                                       : 2
  32. Format                                   : MLP FBA
  33. Format/Info                              : Meridian Lossless Packing FBA
  34. Commercial name                          : Dolby TrueHD
  35. Codec ID                                 : A_TRUEHD
  36. Duration                                 : 1 h 47 min
  37. Bit rate mode                            : Variable
  38. Bit rate                                 : 3 334 kb/s
  39. Maximum bit rate                         : 4 758 kb/s
  40. Channel(s)                               : 6 channels
  41. Channel layout                           : L R C LFE Ls Rs
  42. Sampling rate                            : 48.0 kHz
  43. Frame rate                               : 1 200.000 FPS (40 SPF)
  44. Compression mode                         : Lossless
  45. Stream size                              : 2.50 GiB (9%)
  46. Language                                 : English
  47. Default                                  : Yes
  48. Forced                                   : No

  49. Audio #2
  50. ID                                       : 3
  51. Format                                   : AC-3
  52. Format/Info                              : Audio Coding 3
  53. Commercial name                          : Dolby Digital
  54. Codec ID                                 : A_AC3
  55. Duration                                 : 1 h 47 min
  56. Bit rate mode                            : Constant
  57. Bit rate                                 : 640 kb/s
  58. Channel(s)                               : 6 channels
  59. Channel layout                           : L R C LFE Ls Rs
  60. Sampling rate                            : 48.0 kHz
  61. Frame rate                               : 31.250 FPS (1536 SPF)
  62. Bit depth                                : 16 bits
  63. Compression mode                         : Lossy
  64. Stream size                              : 491 MiB (2%)
  65. Language                                 : English
  66. Service kind                             : Complete Main
  67. Default                                  : No
  68. Forced                                   : No

  69. Audio #3
  70. ID                                       : 4
  71. Format                                   : AC-3
  72. Format/Info                              : Audio Coding 3
  73. Commercial name                          : Dolby Digital
  74. Codec ID                                 : A_AC3
  75. Duration                                 : 1 h 47 min
  76. Bit rate mode                            : Constant
  77. Bit rate                                 : 224 kb/s
  78. Channel(s)                               : 2 channels
  79. Channel layout                           : L R
  80. Sampling rate                            : 48.0 kHz
  81. Frame rate                               : 31.250 FPS (1536 SPF)
  82. Bit depth                                : 16 bits
  83. Compression mode                         : Lossy
  84. Stream size                              : 172 MiB (1%)
  85. Title                                    : Isolated score
  86. Language                                 : English
  87. Service kind                             : Complete Main
  88. Default                                  : No
  89. Forced                                   : No

  90. Text #1
  91. ID                                       : 5
  92. Format                                   : PGS
  93. Muxing mode                              : zlib
  94. Codec ID                                 : S_HDMV/PGS
  95. Codec ID/Info                            : Picture based subtitle format used on BDs/HD-DVDs
  96. Duration                                 : 1 h 40 min
  97. Bit rate                                 : 40.2 kb/s
  98. Count of elements                        : 2442
  99. Stream size                              : 29.0 MiB (0%)
  100. Title                                    : Full
  101. Language                                 : English
  102. Default                                  : No
  103. Forced                                   : No

  104. Text #2
  105. ID                                       : 6
  106. Format                                   : PGS
  107. Muxing mode                              : zlib
  108. Codec ID                                 : S_HDMV/PGS
  109. Codec ID/Info                            : Picture based subtitle format used on BDs/HD-DVDs
  110. Duration                                 : 1 h 41 min
  111. Bit rate                                 : 41.2 kb/s
  112. Count of elements                        : 2494
  113. Stream size                              : 29.8 MiB (0%)
  114. Title                                    : SDH
  115. Language                                 : English
  116. Default                                  : No
  117. Forced                                   : No

  118. Text #3
  119. ID                                       : 7
  120. Format                                   : PGS
  121. Muxing mode                              : zlib
  122. Codec ID                                 : S_HDMV/PGS
  123. Codec ID/Info                            : Picture based subtitle format used on BDs/HD-DVDs
  124. Duration                                 : 1 h 45 min
  125. Bit rate                                 : 21.1 kb/s
  126. Count of elements                        : 2360
  127. Stream size                              : 15.9 MiB (0%)
  128. Language                                 : Arabic
  129. Default                                  : No
  130. Forced                                   : No

  131. Text #4
  132. ID                                       : 8
  133. Format                                   : PGS
  134. Muxing mode                              : zlib
  135. Codec ID                                 : S_HDMV/PGS
  136. Codec ID/Info                            : Picture based subtitle format used on BDs/HD-DVDs
  137. Duration                                 : 1 h 45 min
  138. Bit rate                                 : 28.3 kb/s
  139. Count of elements                        : 2408
  140. Stream size                              : 21.3 MiB (0%)
  141. Language                                 : Chinese
  142. Default                                  : No
  143. Forced                                   : No

  144. Text #5
  145. ID                                       : 9
  146. Format                                   : PGS
  147. Muxing mode                              : zlib
  148. Codec ID                                 : S_HDMV/PGS
  149. Codec ID/Info                            : Picture based subtitle format used on BDs/HD-DVDs
  150. Duration                                 : 1 h 45 min
  151. Bit rate                                 : 35.1 kb/s
  152. Count of elements                        : 2426
  153. Stream size                              : 26.4 MiB (0%)
  154. Language                                 : Danish
  155. Default                                  : No
  156. Forced                                   : No

  157. Text #6
  158. ID                                       : 10
  159. Format                                   : PGS
  160. Muxing mode                              : zlib
  161. Codec ID                                 : S_HDMV/PGS
  162. Codec ID/Info                            : Picture based subtitle format used on BDs/HD-DVDs
  163. Duration                                 : 1 h 45 min
  164. Bit rate                                 : 32.5 kb/s
  165. Count of elements                        : 2378
  166. Stream size                              : 24.4 MiB (0%)
  167. Language                                 : German
  168. Default                                  : No
  169. Forced                                   : No

  170. Text #7
  171. ID                                       : 11
  172. Format                                   : PGS
  173. Muxing mode                              : zlib
  174. Codec ID                                 : S_HDMV/PGS
  175. Codec ID/Info                            : Picture based subtitle format used on BDs/HD-DVDs
  176. Duration                                 : 1 h 45 min
  177. Bit rate                                 : 31.9 kb/s
  178. Count of elements                        : 2586
  179. Stream size                              : 24.0 MiB (0%)
  180. Language                                 : Greek
  181. Default                                  : No
  182. Forced                                   : No

  183. Text #8
  184. ID                                       : 12
  185. Format                                   : PGS
  186. Muxing mode                              : zlib
  187. Codec ID                                 : S_HDMV/PGS
  188. Codec ID/Info                            : Picture based subtitle format used on BDs/HD-DVDs
  189. Duration                                 : 1 h 45 min
  190. Bit rate                                 : 36.2 kb/s
  191. Count of elements                        : 2408
  192. Stream size                              : 27.2 MiB (0%)
  193. Language                                 : Spanish
  194. Default                                  : No
  195. Forced                                   : No

  196. Text #9
  197. ID                                       : 13
  198. Format                                   : PGS
  199. Muxing mode                              : zlib
  200. Codec ID                                 : S_HDMV/PGS
  201. Codec ID/Info                            : Picture based subtitle format used on BDs/HD-DVDs
  202. Duration                                 : 1 h 45 min
  203. Bit rate                                 : 25.1 kb/s
  204. Count of elements                        : 2148
  205. Stream size                              : 19.0 MiB (0%)
  206. Language                                 : Spanish
  207. Default                                  : No
  208. Forced                                   : No

  209. Text #10
  210. ID                                       : 14
  211. Format                                   : PGS
  212. Muxing mode                              : zlib
  213. Codec ID                                 : S_HDMV/PGS
  214. Codec ID/Info                            : Picture based subtitle format used on BDs/HD-DVDs
  215. Duration                                 : 1 h 45 min
  216. Bit rate                                 : 29.2 kb/s
  217. Count of elements                        : 2396
  218. Stream size                              : 22.0 MiB (0%)
  219. Language                                 : French
  220. Default                                  : No
  221. Forced                                   : No

  222. Text #11
  223. ID                                       : 15
  224. Format                                   : PGS
  225. Muxing mode                              : zlib
  226. Codec ID                                 : S_HDMV/PGS
  227. Codec ID/Info                            : Picture based subtitle format used on BDs/HD-DVDs
  228. Duration                                 : 1 h 45 min
  229. Bit rate                                 : 25.4 kb/s
  230. Count of elements                        : 1786
  231. Stream size                              : 19.1 MiB (0%)
  232. Language                                 : Icelandic
  233. Default                                  : No
  234. Forced                                   : No

  235. Text #12
  236. ID                                       : 16
  237. Format                                   : PGS
  238. Muxing mode                              : zlib
  239. Codec ID                                 : S_HDMV/PGS
  240. Codec ID/Info                            : Picture based subtitle format used on BDs/HD-DVDs
  241. Duration                                 : 1 h 45 min
  242. Bit rate                                 : 34.8 kb/s
  243. Count of elements                        : 2384
  244. Stream size                              : 26.1 MiB (0%)
  245. Language                                 : Italian
  246. Default                                  : No
  247. Forced                                   : No

  248. Text #13
  249. ID                                       : 17
  250. Format                                   : PGS
  251. Muxing mode                              : zlib
  252. Codec ID                                 : S_HDMV/PGS
  253. Codec ID/Info                            : Picture based subtitle format used on BDs/HD-DVDs
  254. Duration                                 : 1 h 40 min
  255. Bit rate                                 : 24.1 kb/s
  256. Count of elements                        : 2182
  257. Stream size                              : 17.4 MiB (0%)
  258. Language                                 : Japanese
  259. Default                                  : No
  260. Forced                                   : No

  261. Text #14
  262. ID                                       : 18
  263. Format                                   : PGS
  264. Muxing mode                              : zlib
  265. Codec ID                                 : S_HDMV/PGS
  266. Codec ID/Info                            : Picture based subtitle format used on BDs/HD-DVDs
  267. Duration                                 : 1 h 45 min
  268. Bit rate                                 : 17.2 kb/s
  269. Count of elements                        : 2292
  270. Stream size                              : 13.0 MiB (0%)
  271. Language                                 : Korean
  272. Default                                  : No
  273. Forced                                   : No

  274. Text #15
  275. ID                                       : 19
  276. Format                                   : PGS
  277. Muxing mode                              : zlib
  278. Codec ID                                 : S_HDMV/PGS
  279. Codec ID/Info                            : Picture based subtitle format used on BDs/HD-DVDs
  280. Duration                                 : 1 h 45 min
  281. Bit rate                                 : 35.4 kb/s
  282. Count of elements                        : 2402
  283. Stream size                              : 26.6 MiB (0%)
  284. Language                                 : Dutch
  285. Default                                  : No
  286. Forced                                   : No

  287. Text #16
  288. ID                                       : 20
  289. Format                                   : PGS
  290. Muxing mode                              : zlib
  291. Codec ID                                 : S_HDMV/PGS
  292. Codec ID/Info                            : Picture based subtitle format used on BDs/HD-DVDs
  293. Duration                                 : 1 h 45 min
  294. Bit rate                                 : 33.7 kb/s
  295. Count of elements                        : 2384
  296. Stream size                              : 25.3 MiB (0%)
  297. Language                                 : Norwegian
  298. Default                                  : No
  299. Forced                                   : No

  300. Text #17
  301. ID                                       : 21
  302. Format                                   : PGS
  303. Muxing mode                              : zlib
  304. Codec ID                                 : S_HDMV/PGS
  305. Codec ID/Info                            : Picture based subtitle format used on BDs/HD-DVDs
  306. Duration                                 : 1 h 45 min
  307. Bit rate                                 : 29.5 kb/s
  308. Count of elements                        : 2184
  309. Stream size                              : 22.3 MiB (0%)
  310. Language                                 : Portuguese
  311. Default                                  : No
  312. Forced                                   : No

  313. Text #18
  314. ID                                       : 22
  315. Format                                   : PGS
  316. Muxing mode                              : zlib
  317. Codec ID                                 : S_HDMV/PGS
  318. Codec ID/Info                            : Picture based subtitle format used on BDs/HD-DVDs
  319. Duration                                 : 1 h 45 min
  320. Bit rate                                 : 33.2 kb/s
  321. Count of elements                        : 2456
  322. Stream size                              : 25.1 MiB (0%)
  323. Language                                 : Romanian
  324. Default                                  : No
  325. Forced                                   : No

  326. Text #19
  327. ID                                       : 23
  328. Format                                   : PGS
  329. Muxing mode                              : zlib
  330. Codec ID                                 : S_HDMV/PGS
  331. Codec ID/Info                            : Picture based subtitle format used on BDs/HD-DVDs
  332. Duration                                 : 1 h 45 min
  333. Bit rate                                 : 35.7 kb/s
  334. Count of elements                        : 2392
  335. Stream size                              : 26.8 MiB (0%)
  336. Language                                 : Finnish
  337. Default                                  : No
  338. Forced                                   : No

  339. Text #20
  340. ID                                       : 24
  341. Format                                   : PGS
  342. Muxing mode                              : zlib
  343. Codec ID                                 : S_HDMV/PGS
  344. Codec ID/Info                            : Picture based subtitle format used on BDs/HD-DVDs
  345. Duration                                 : 1 h 45 min
  346. Bit rate                                 : 34.6 kb/s
  347. Count of elements                        : 2394
  348. Stream size                              : 26.0 MiB (0%)
  349. Language                                 : Swedish
  350. Default                                  : No
  351. Forced                                   : No

  352. Text #21
  353. ID                                       : 25
  354. Format                                   : PGS
  355. Muxing mode                              : zlib
  356. Codec ID                                 : S_HDMV/PGS
  357. Codec ID/Info                            : Picture based subtitle format used on BDs/HD-DVDs
  358. Duration                                 : 1 h 45 min
  359. Bit rate                                 : 25.0 kb/s
  360. Count of elements                        : 2352
  361. Stream size                              : 18.8 MiB (0%)
  362. Language                                 : Thai
  363. Default                                  : No
  364. Forced                                   : No

  365. Menu
  366. 00:00:00.000                             : en:Chapter 01
  367. 00:03:39.553                             : en:Chapter 02
  368. 00:05:36.878                             : en:Chapter 03
  369. 00:12:51.813                             : en:Chapter 04
  370. 00:14:36.209                             : en:Chapter 05
  371. 00:18:27.815                             : en:Chapter 06
  372. 00:24:49.780                             : en:Chapter 07
  373. 00:31:40.816                             : en:Chapter 08
  374. 00:36:25.975                             : en:Chapter 09
  375. 00:41:13.721                             : en:Chapter 10
  376. 00:45:05.369                             : en:Chapter 11
  377. 00:51:03.185                             : en:Chapter 12
  378. 00:53:32.918                             : en:Chapter 13
  379. 00:56:15.414                             : en:Chapter 14
  380. 01:01:38.778                             : en:Chapter 15
  381. 01:04:12.807                             : en:Chapter 16
  382. 01:11:32.163                             : en:Chapter 17
  383. 01:15:22.643                             : en:Chapter 18
  384. 01:20:36.957                             : en:Chapter 19
  385. 01:27:29.327                             : en:Chapter 20
  386. 01:33:12.712                             : en:Chapter 21
  387. 01:38:40.164                             : en:Chapter 22
  388. 01:43:11.018                             : en:Chapter 23
复制代码
174525u3inj07c0v4c1e9n.png 174524k8d4dd1606u1j8jj.png 174525t9y2bn2q96skpcxc.png



回复

使用道具 举报

发表于 2020-5-21 20:55:35 | 显示全部楼层

既然你诚信诚意的推荐了,那我就勉为其难的看看吧!蓝光电影网不走平凡路。
回复 支持 反对

使用道具 举报

发表于 2020-5-22 10:37:42 | 显示全部楼层
楼主发贴辛苦了,谢谢楼主分享!我觉得蓝光电影网是注册对了!
回复 支持 反对

使用道具 举报

懒得打字嘛,点击右侧快捷回复 【右侧内容,后台自定义】
您需要登录后才可以回帖 登录 | 立即加入

本版积分规则

现在加入蓝光电影网,注册一个账号
上个主题 下个主题 快速回复 收藏帖子 返回列表 客服中心 搜索

手机版|小黑屋| 蓝光电影网 |网站地图 

Copyright © 2015-2019 Comsenz Inc.  Template by 蓝光电影论坛 All Rights Reserved.

Powered by 蓝光电影网 X3.4

特别声明:本站所有资源均由网上收集而来,版权归原影音公司所有,如果侵犯了你的权益,请通知我们,我们会及时删除侵权内容.

快速回复 返回顶部 返回列表