找回密码

蓝光电影网

查看: 200|回复: 0

[10bit.HDR] 世界之战/世界大战 War.of.the.Worlds.2005.2160p.UHD.BluRay.x265.10bit.HDR.DTS-HD.MA.TrueHD.7.1.Atmos-SWTYBLZ 35.34GB

[复制链接]

 成长值: 26155

发表于 2020-5-21 13:40:35 | 显示全部楼层 |阅读模式
世界之战/世界大战 War.of.the.Worlds.2005.2160p.UHD.BluRay.x265.10bit.HDR.DTS-HD.MA.TrueHD.7.1.Atmos-SWTYBLZ 35.34GB-1.png

译  名 世界之战 / 世界大战 / 宇宙战争 / 强战世界 / 星际战争
片  名 War of the Worlds
年  代 2005
产  地 美国
类  别 科幻 / 惊悚 / 灾难
语  言 英语
上映日期 2005-06-29(美国) / 2005-08-25(中国大陆)
IMDb评分  6.5/10 from 404246 users
IMDb链接  https://www.imdb.com/title/tt0407304
豆瓣评分 6.6/10 from 67340 users
豆瓣链接 https://movie.douban.com/subject/1309044/
片  长 116分钟
导  演 史蒂文·斯皮尔伯格 Steven Spielberg
编  剧 乔什·弗莱德曼 Josh Friedman / 大卫·凯普 David Koepp / 赫伯特·乔治·威尔斯 H.G. Wells
主  演 汤姆·克鲁斯 Tom Cruise
       达科塔·范宁 Dakota Fanning
       米兰达·奥图 Miranda Otto
       贾斯汀·查特文 Justin Chatwin
       蒂姆·罗宾斯 Tim Robbins
       瑞克·冈萨雷斯 Rick Gonzalez
       尤尔·瓦斯克斯 Yul Vazquez
       莱尼·维尼托 Lenny Venito
       丽萨·安·沃尔特 Lisa Ann Walter
       安·鲁滨逊 Ann Robinson
       吉恩·巴瑞 Gene Barry
       大卫·阿伦·伯施理 David Alan Basche
       罗兹·亚布拉姆斯 Roz Abrams
       迈克尔·布朗李 Michael Brownlee
       卡米莉亚·莫内特 Camillia Monet
       艾米·莱安 Amy Ryan
       丹尼·霍奇 Danny Hoch


标  签 科幻 | 灾难 | 美国 | 斯皮尔伯格 | 汤姆·克鲁斯 | 美国电影 | TomCruise | StevenSpielberg

简  介  

  雷?费瑞尔(汤姆?克鲁斯 Tom Cruise 饰)和妻子离婚了,一儿一女都跟母亲生活——因为他的的贪玩懒散,疏忽责任,这个家庭才如此支离破碎。一场外星人入侵的灾难却让他们重新建立起亲密的的关系。
  这天妻子繁忙,只好把儿女交给雷照顾。电闪雷鸣天色灰暗,一切好像有些异样。 果然,马路上赫然一个庞大的三脚飞行器掘地而起,邪恶的火星人光顾了这个本来平静的小镇。人们四处逃亡,雷也带着女儿奔走逃命,开始了生死历险。当局想尽办法对付外星人,却屡屡失败,整个世界都陷入了恐慌当中。
  有了父爱的本能,平日吊儿郎当的父亲变得英勇顽强,保护儿女成了他支撑他的动力和信念。

获奖情况  

  第78届奥斯卡金像奖(2006)
  最佳视觉效果(提名) 巴勃罗·赫尔曼 / 丹尼斯·穆伦 / 兰迪·杜特拉 / 丹尼尔·萨迪克
  最佳混音(提名) 安迪·尼尔森 / 安娜·贝尔莫 / 朗·贾金斯
  最佳音效剪辑(提名) 理查德·金

  第15届MTV电影奖(2006)
  MTV电影奖 最佳惊恐戏表演(提名) 达科塔·范宁

  1. Video
  2. ID                                       : 1
  3. Format                                   : HEVC
  4. Format/Info                              : High Efficiency Video Coding
  5. Format profile                           : Main 10@L5.1@High
  6. HDR format                               : SMPTE ST 2086, HDR10 compatible
  7. Codec ID                                 : V_MPEGH/ISO/HEVC
  8. Duration                                 : 1 h 56 min
  9. Bit rate                                 : 33.4 Mb/s
  10. Width                                    : 3 840 pixels
  11. Height                                   : 2 160 pixels
  12. Display aspect ratio                     : 16:9
  13. Frame rate mode                          : Constant
  14. Frame rate                               : 23.976 (24000/1001/45165) FPS
  15. Color space                              : YUV
  16. Chroma subsampling                       : 4:2:0 (Type 2)
  17. Bit depth                                : 10 bits
  18. Bits/(Pixel*Frame)                       : 0.168
  19. Stream size                              : 27.2 GiB (77%)
  20. Title                                    : War.of.the.Worlds.2005.2160p.UHD.BluRay.x265.10bit.HDR.DTS-HD.MA.TrueHD.7.1.Atmos-SWTYBLZ
  21. Writing library                          : x265 3.0_Au+10-74a8672ea4f7:[Windows][GCC 8.2.1][64 bit] 10bit
  22. Encoding settings                        : cpuid=1111039 / frame-threads=6 / numa-pools=40 / wpp / no-pmode / no-pme / no-psnr / no-ssim / log-level=2 / input-csp=1 / input-res=3840x2160 / interlace=0 / total-frames=0 / level-idc=51 / high-tier=1 / uhd-bd=0 / ref=3 / no-allow-non-conformance / repeat-headers / annexb / aud / hrd / info / hash=0 / no-temporal-layers / no-open-gop / min-keyint=1 / keyint=24 / gop-lookahead=0 / bframes=4 / b-adapt=2 / b-pyramid / bframe-bias=0 / rc-lookahead=25 / lookahead-slices=4 / scenecut=40 / radl=0 / no-splice / no-intra-refresh / ctu=64 / min-cu-size=8 / no-rect / no-amp / max-tu-size=32 / tu-inter-depth=1 / tu-intra-depth=1 / limit-tu=0 / rdoq-level=0 / dynamic-rd=0.00 / no-ssim-rd / signhide / no-tskip / nr-intra=0 / nr-inter=0 / no-constrained-intra / strong-intra-smoothing / max-merge=2 / limit-refs=3 / no-limit-modes / me=1 / subme=2 / merange=57 / temporal-mvp / weightp / no-weightb / no-analyze-src-pics / deblock=0:0 / no-sao / no-sao-non-deblock / rd=3 / no-early-skip / rskip / no-fast-intra / no-tskip-fast / no-cu-lossless / no-b-intra / no-splitrd-skip / rdpenalty=0 / psy-rd=2.00 / psy-rdoq=0.00 / no-rd-refine / no-lossless / cbqpoffs=0 / crqpoffs=0 / rc=crf / crf=18.0 / qcomp=0.60 / qpstep=4 / stats-write=0 / stats-read=0 / vbv-maxrate=160000 / vbv-bufsize=160000 / vbv-init=0.9 / crf-max=0.0 / crf-min=0.0 / ipratio=1.40 / pbratio=1.30 / aq-mode=1 / aq-strength=1.00 / cutree / zone-count=0 / no-strict-cbr / qg-size=32 / no-rc-grain / qpmax=69 / qpmin=0 / no-const-vbv / sar=1 / overscan=0 / videoformat=5 / range=0 / colorprim=9 / transfer=16 / colormatrix=9 / chromaloc=1 / chromaloc-top=2 / chromaloc-bottom=2 / display-window=0 / master-display=G(13250,34500)B(7500,3000)R(34000,16000)WP(15635,16450)L(10000000,01) / max-cll=993,419 / min-luma=0 / max-luma=1023 / log2-max-poc-lsb=8 / vui-timing-info / vui-hrd-info / slices=1 / opt-qp-pps / opt-ref-list-length-pps / no-multi-pass-opt-rps / scenecut-bias=0.05 / no-opt-cu-delta-qp / no-aq-motion / hdr / hdr-opt / no-dhdr10-opt / no-idr-recovery-sei / analysis-reuse-level=5 / scale-factor=0 / refine-intra=0 / refine-inter=0 / refine-mv=0 / refine-ctu-distortion=0 / no-limit-sao / ctu-info=0 / no-lowpass-dct / refine-analysis-type=768 / copy-pic=1 / max-ausize-factor=1.0 / no-dynamic-refine / no-single-sei / no-hevc-aq / no-svt / qp-adaptation-range=1.00
  23. Default                                  : Yes
  24. Forced                                   : No
  25. Color range                              : Limited
  26. Color primaries                          : BT.2020
  27. Transfer characteristics                 : PQ
  28. Matrix coefficients                      : BT.2020 non-constant
  29. Mastering display color primaries        : Display P3
  30. Mastering display luminance              : min: 0.0001 cd/m2, max: 1000 cd/m2
  31. Maximum Content Light Level              : 993 cd/m2
  32. Maximum Frame-Average Light Level        : 419 cd/m2

  33. Audio #1
  34. ID                                       : 2
  35. Format                                   : MLP FBA 16-ch
  36. Format/Info                              : Meridian Lossless Packing FBA with 16-channel presentation
  37. Commercial name                          : Dolby TrueHD with Dolby Atmos
  38. Codec ID                                 : A_TRUEHD
  39. Duration                                 : 1 h 56 min
  40. Bit rate mode                            : Variable
  41. Bit rate                                 : 4 432 kb/s
  42. Maximum bit rate                         : 6 816 kb/s
  43. Channel(s)                               : 8 channels
  44. Channel layout                           : L R C LFE Ls Rs Lb Rb
  45. Sampling rate                            : 48.0 kHz
  46. Frame rate                               : 1 200.000 FPS (40 SPF)
  47. Compression mode                         : Lossless
  48. Stream size                              : 3.61 GiB (10%)
  49. Title                                    : War.of.the.Worlds.2005.2160p.UHD.BluRay.x265.10bit.HDR.DTS-HD.MA.TrueHD.7.1.Atmos-SWTYBLZ
  50. Language                                 : English
  51. Default                                  : Yes
  52. Forced                                   : No
  53. Number of dynamic objects                : 11
  54. Bed channel count                        : 1 channel
  55. Bed channel configuration                : LFE

  56. Audio #2
  57. ID                                       : 3
  58. Format                                   : DTS XLL
  59. Format/Info                              : Digital Theater Systems
  60. Commercial name                          : DTS-HD Master Audio
  61. Codec ID                                 : A_DTS
  62. Duration                                 : 1 h 56 min
  63. Bit rate mode                            : Variable
  64. Bit rate                                 : 4 491 kb/s
  65. Channel(s)                               : 8 channels
  66. Channel layout                           : C L R LFE Lb Rb Lss Rss
  67. Sampling rate                            : 48.0 kHz
  68. Frame rate                               : 93.750 FPS (512 SPF)
  69. Bit depth                                : 24 bits
  70. Compression mode                         : Lossless
  71. Stream size                              : 3.66 GiB (10%)
  72. Title                                    : War.of.the.Worlds.2005.2160p.UHD.BluRay.x265.10bit.HDR.DTS-HD.MA.TrueHD.7.1.Atmos-SWTYBLZ
  73. Language                                 : English
  74. Default                                  : No
  75. Forced                                   : No

  76. Audio #3
  77. ID                                       : 4
  78. Format                                   : AC-3
  79. Format/Info                              : Audio Coding 3
  80. Commercial name                          : Dolby Digital
  81. Codec ID                                 : A_AC3
  82. Duration                                 : 1 h 56 min
  83. Bit rate mode                            : Constant
  84. Bit rate                                 : 640 kb/s
  85. Channel(s)                               : 6 channels
  86. Channel layout                           : L R C LFE Ls Rs
  87. Sampling rate                            : 48.0 kHz
  88. Frame rate                               : 31.250 FPS (1536 SPF)
  89. Bit depth                                : 16 bits
  90. Compression mode                         : Lossy
  91. Stream size                              : 533 MiB (1%)
  92. Title                                    : War.of.the.Worlds.2005.2160p.UHD.BluRay.x265.10bit.HDR.DTS-HD.MA.TrueHD.7.1.Atmos-SWTYBLZ
  93. Language                                 : English
  94. Service kind                             : Complete Main
  95. Default                                  : No
  96. Forced                                   : No

  97. Text #1
  98. ID                                       : 5
  99. Format                                   : UTF-8
  100. Codec ID                                 : S_TEXT/UTF8
  101. Codec ID/Info                            : UTF-8 Plain Text
  102. Duration                                 : 1 h 48 min
  103. Bit rate                                 : 46 b/s
  104. Count of elements                        : 1117
  105. Stream size                              : 37.1 KiB (0%)
  106. Title                                    : English-SRT
  107. Language                                 : English
  108. Default                                  : Yes
  109. Forced                                   : No

  110. Text #2
  111. ID                                       : 6
  112. Format                                   : PGS
  113. Muxing mode                              : zlib
  114. Codec ID                                 : S_HDMV/PGS
  115. Codec ID/Info                            : Picture based subtitle format used on BDs/HD-DVDs
  116. Duration                                 : 1 h 48 min
  117. Bit rate                                 : 29.4 kb/s
  118. Count of elements                        : 2238
  119. Stream size                              : 22.8 MiB (0%)
  120. Title                                    : English-PGS
  121. Language                                 : English
  122. Default                                  : No
  123. Forced                                   : No

  124. Text #3
  125. ID                                       : 7
  126. Format                                   : PGS
  127. Muxing mode                              : zlib
  128. Codec ID                                 : S_HDMV/PGS
  129. Codec ID/Info                            : Picture based subtitle format used on BDs/HD-DVDs
  130. Duration                                 : 1 h 48 min
  131. Bit rate                                 : 32.2 kb/s
  132. Count of elements                        : 2448
  133. Stream size                              : 24.9 MiB (0%)
  134. Title                                    : English-SDH-PGS
  135. Language                                 : English
  136. Default                                  : No
  137. Forced                                   : No

  138. Text #4
  139. ID                                       : 8
  140. Format                                   : PGS
  141. Muxing mode                              : zlib
  142. Codec ID                                 : S_HDMV/PGS
  143. Codec ID/Info                            : Picture based subtitle format used on BDs/HD-DVDs
  144. Duration                                 : 1 h 55 min
  145. Bit rate                                 : 17.6 kb/s
  146. Count of elements                        : 2250
  147. Stream size                              : 14.5 MiB (0%)
  148. Title                                    : Chinese-PGS
  149. Language                                 : Chinese
  150. Default                                  : No
  151. Forced                                   : No

  152. Text #5
  153. ID                                       : 9
  154. Format                                   : PGS
  155. Muxing mode                              : zlib
  156. Codec ID                                 : S_HDMV/PGS
  157. Codec ID/Info                            : Picture based subtitle format used on BDs/HD-DVDs
  158. Duration                                 : 1 h 55 min
  159. Bit rate                                 : 22.0 kb/s
  160. Count of elements                        : 2208
  161. Stream size                              : 18.1 MiB (0%)
  162. Title                                    : Chinese-PGS
  163. Language                                 : Chinese
  164. Default                                  : No
  165. Forced                                   : No

  166. Text #6
  167. ID                                       : 10
  168. Format                                   : PGS
  169. Muxing mode                              : zlib
  170. Codec ID                                 : S_HDMV/PGS
  171. Codec ID/Info                            : Picture based subtitle format used on BDs/HD-DVDs
  172. Duration                                 : 1 h 55 min
  173. Bit rate                                 : 18.8 kb/s
  174. Count of elements                        : 2246
  175. Stream size                              : 15.4 MiB (0%)
  176. Title                                    : Chinese-PGS
  177. Language                                 : Chinese
  178. Default                                  : No
  179. Forced                                   : No

  180. Text #7
  181. ID                                       : 11
  182. Format                                   : PGS
  183. Muxing mode                              : zlib
  184. Codec ID                                 : S_HDMV/PGS
  185. Codec ID/Info                            : Picture based subtitle format used on BDs/HD-DVDs
  186. Duration                                 : 1 h 55 min
  187. Bit rate                                 : 22.3 kb/s
  188. Count of elements                        : 2134
  189. Stream size                              : 18.3 MiB (0%)
  190. Title                                    : Czech-PGS
  191. Language                                 : Czech
  192. Default                                  : No
  193. Forced                                   : No

  194. Text #8
  195. ID                                       : 12
  196. Format                                   : PGS
  197. Muxing mode                              : zlib
  198. Codec ID                                 : S_HDMV/PGS
  199. Codec ID/Info                            : Picture based subtitle format used on BDs/HD-DVDs
  200. Duration                                 : 1 h 55 min
  201. Bit rate                                 : 19.1 kb/s
  202. Count of elements                        : 1476
  203. Stream size                              : 15.7 MiB (0%)
  204. Title                                    : Danish-PGS
  205. Language                                 : Danish
  206. Default                                  : No
  207. Forced                                   : No

  208. Text #9
  209. ID                                       : 13
  210. Format                                   : PGS
  211. Muxing mode                              : zlib
  212. Codec ID                                 : S_HDMV/PGS
  213. Codec ID/Info                            : Picture based subtitle format used on BDs/HD-DVDs
  214. Duration                                 : 1 h 55 min
  215. Bit rate                                 : 15.9 kb/s
  216. Count of elements                        : 1444
  217. Stream size                              : 13.1 MiB (0%)
  218. Title                                    : Dutch-PGS
  219. Language                                 : Dutch
  220. Default                                  : No
  221. Forced                                   : No

  222. Text #10
  223. ID                                       : 14
  224. Format                                   : PGS
  225. Muxing mode                              : zlib
  226. Codec ID                                 : S_HDMV/PGS
  227. Codec ID/Info                            : Picture based subtitle format used on BDs/HD-DVDs
  228. Duration                                 : 1 h 55 min
  229. Bit rate                                 : 20.0 kb/s
  230. Count of elements                        : 1756
  231. Stream size                              : 16.5 MiB (0%)
  232. Title                                    : Finnish-PGS
  233. Language                                 : Finnish
  234. Default                                  : No
  235. Forced                                   : No

  236. Text #11
  237. ID                                       : 15
  238. Format                                   : PGS
  239. Muxing mode                              : zlib
  240. Codec ID                                 : S_HDMV/PGS
  241. Codec ID/Info                            : Picture based subtitle format used on BDs/HD-DVDs
  242. Duration                                 : 1 h 48 min
  243. Bit rate                                 : 18.8 kb/s
  244. Count of elements                        : 1690
  245. Stream size                              : 14.6 MiB (0%)
  246. Title                                    : French-PGS
  247. Language                                 : French
  248. Default                                  : No
  249. Forced                                   : No

  250. Text #12
  251. ID                                       : 16
  252. Format                                   : PGS
  253. Muxing mode                              : zlib
  254. Codec ID                                 : S_HDMV/PGS
  255. Codec ID/Info                            : Picture based subtitle format used on BDs/HD-DVDs
  256. Duration                                 : 1 h 55 min
  257. Bit rate                                 : 26.7 kb/s
  258. Count of elements                        : 2258
  259. Stream size                              : 22.0 MiB (0%)
  260. Title                                    : German-PGS
  261. Language                                 : German
  262. Default                                  : No
  263. Forced                                   : No

  264. Text #13
  265. ID                                       : 17
  266. Format                                   : PGS
  267. Muxing mode                              : zlib
  268. Codec ID                                 : S_HDMV/PGS
  269. Codec ID/Info                            : Picture based subtitle format used on BDs/HD-DVDs
  270. Duration                                 : 1 h 55 min
  271. Bit rate                                 : 26.7 kb/s
  272. Count of elements                        : 2032
  273. Stream size                              : 21.9 MiB (0%)
  274. Title                                    : Greek-PGS
  275. Language                                 : Greek
  276. Default                                  : No
  277. Forced                                   : No

  278. Text #14
  279. ID                                       : 18
  280. Format                                   : PGS
  281. Muxing mode                              : zlib
  282. Codec ID                                 : S_HDMV/PGS
  283. Codec ID/Info                            : Picture based subtitle format used on BDs/HD-DVDs
  284. Duration                                 : 1 h 55 min
  285. Bit rate                                 : 19.6 kb/s
  286. Count of elements                        : 2232
  287. Stream size                              : 16.1 MiB (0%)
  288. Title                                    : Hindi-PGS
  289. Language                                 : Hindi
  290. Default                                  : No
  291. Forced                                   : No

  292. Text #15
  293. ID                                       : 19
  294. Format                                   : PGS
  295. Muxing mode                              : zlib
  296. Codec ID                                 : S_HDMV/PGS
  297. Codec ID/Info                            : Picture based subtitle format used on BDs/HD-DVDs
  298. Duration                                 : 1 h 55 min
  299. Bit rate                                 : 26.5 kb/s
  300. Count of elements                        : 2204
  301. Stream size                              : 21.8 MiB (0%)
  302. Title                                    : Hungarian-PGS
  303. Language                                 : Hungarian
  304. Default                                  : No
  305. Forced                                   : No

  306. Text #16
  307. ID                                       : 20
  308. Format                                   : PGS
  309. Muxing mode                              : zlib
  310. Codec ID                                 : S_HDMV/PGS
  311. Codec ID/Info                            : Picture based subtitle format used on BDs/HD-DVDs
  312. Duration                                 : 1 h 55 min
  313. Bit rate                                 : 25.7 kb/s
  314. Count of elements                        : 2220
  315. Stream size                              : 21.1 MiB (0%)
  316. Title                                    : Indonesian-PGS
  317. Language                                 : Indonesian
  318. Default                                  : No
  319. Forced                                   : No

  320. Text #17
  321. ID                                       : 21
  322. Format                                   : PGS
  323. Muxing mode                              : zlib
  324. Codec ID                                 : S_HDMV/PGS
  325. Codec ID/Info                            : Picture based subtitle format used on BDs/HD-DVDs
  326. Duration                                 : 1 h 55 min
  327. Bit rate                                 : 25.7 kb/s
  328. Count of elements                        : 2206
  329. Stream size                              : 21.1 MiB (0%)
  330. Title                                    : Italian-PGS
  331. Language                                 : Italian
  332. Default                                  : No
  333. Forced                                   : No

  334. Text #18
  335. ID                                       : 22
  336. Format                                   : PGS
  337. Muxing mode                              : zlib
  338. Codec ID                                 : S_HDMV/PGS
  339. Codec ID/Info                            : Picture based subtitle format used on BDs/HD-DVDs
  340. Duration                                 : 1 h 48 min
  341. Bit rate                                 : 16.3 kb/s
  342. Count of elements                        : 1740
  343. Stream size                              : 12.6 MiB (0%)
  344. Title                                    : Japanese-PGS
  345. Language                                 : Japanese
  346. Default                                  : No
  347. Forced                                   : No

  348. Text #19
  349. ID                                       : 23
  350. Format                                   : PGS
  351. Muxing mode                              : zlib
  352. Codec ID                                 : S_HDMV/PGS
  353. Codec ID/Info                            : Picture based subtitle format used on BDs/HD-DVDs
  354. Duration                                 : 1 h 55 min
  355. Bit rate                                 : 11.3 kb/s
  356. Count of elements                        : 2100
  357. Stream size                              : 9.27 MiB (0%)
  358. Title                                    : Korean-PGS
  359. Language                                 : Korean
  360. Default                                  : No
  361. Forced                                   : No

  362. Text #20
  363. ID                                       : 24
  364. Format                                   : PGS
  365. Muxing mode                              : zlib
  366. Codec ID                                 : S_HDMV/PGS
  367. Codec ID/Info                            : Picture based subtitle format used on BDs/HD-DVDs
  368. Duration                                 : 1 h 55 min
  369. Bit rate                                 : 27.4 kb/s
  370. Count of elements                        : 2230
  371. Stream size                              : 22.5 MiB (0%)
  372. Title                                    : Malay-PGS
  373. Language                                 : Malay
  374. Default                                  : No
  375. Forced                                   : No

  376. Text #21
  377. ID                                       : 25
  378. Format                                   : PGS
  379. Muxing mode                              : zlib
  380. Codec ID                                 : S_HDMV/PGS
  381. Codec ID/Info                            : Picture based subtitle format used on BDs/HD-DVDs
  382. Duration                                 : 1 h 55 min
  383. Bit rate                                 : 17.3 kb/s
  384. Count of elements                        : 1786
  385. Stream size                              : 14.3 MiB (0%)
  386. Title                                    : Norwegian-PGS
  387. Language                                 : Norwegian
  388. Default                                  : No
  389. Forced                                   : No

  390. Text #22
  391. ID                                       : 26
  392. Format                                   : PGS
  393. Muxing mode                              : zlib
  394. Codec ID                                 : S_HDMV/PGS
  395. Codec ID/Info                            : Picture based subtitle format used on BDs/HD-DVDs
  396. Duration                                 : 1 h 55 min
  397. Bit rate                                 : 23.7 kb/s
  398. Count of elements                        : 2190
  399. Stream size                              : 19.5 MiB (0%)
  400. Title                                    : Polish-PGS
  401. Language                                 : Polish
  402. Default                                  : No
  403. Forced                                   : No

  404. Text #23
  405. ID                                       : 27
  406. Format                                   : PGS
  407. Muxing mode                              : zlib
  408. Codec ID                                 : S_HDMV/PGS
  409. Codec ID/Info                            : Picture based subtitle format used on BDs/HD-DVDs
  410. Duration                                 : 1 h 49 min
  411. Bit rate                                 : 22.7 kb/s
  412. Count of elements                        : 2026
  413. Stream size                              : 17.7 MiB (0%)
  414. Title                                    : Portuguese-PGS
  415. Language                                 : Portuguese
  416. Default                                  : No
  417. Forced                                   : No

  418. Text #24
  419. ID                                       : 28
  420. Format                                   : PGS
  421. Muxing mode                              : zlib
  422. Codec ID                                 : S_HDMV/PGS
  423. Codec ID/Info                            : Picture based subtitle format used on BDs/HD-DVDs
  424. Duration                                 : 1 h 55 min
  425. Bit rate                                 : 25.0 kb/s
  426. Count of elements                        : 2212
  427. Stream size                              : 20.6 MiB (0%)
  428. Title                                    : Romanian-PGS
  429. Language                                 : Romanian
  430. Default                                  : No
  431. Forced                                   : No

  432. Text #25
  433. ID                                       : 29
  434. Format                                   : PGS
  435. Muxing mode                              : zlib
  436. Codec ID                                 : S_HDMV/PGS
  437. Codec ID/Info                            : Picture based subtitle format used on BDs/HD-DVDs
  438. Duration                                 : 1 h 55 min
  439. Bit rate                                 : 28.4 kb/s
  440. Count of elements                        : 2218
  441. Stream size                              : 23.4 MiB (0%)
  442. Title                                    : Russian-PGS
  443. Language                                 : Russian
  444. Default                                  : No
  445. Forced                                   : No

  446. Text #26
  447. ID                                       : 30
  448. Format                                   : PGS
  449. Muxing mode                              : zlib
  450. Codec ID                                 : S_HDMV/PGS
  451. Codec ID/Info                            : Picture based subtitle format used on BDs/HD-DVDs
  452. Duration                                 : 1 h 55 min
  453. Bit rate                                 : 24.2 kb/s
  454. Count of elements                        : 2250
  455. Stream size                              : 19.9 MiB (0%)
  456. Title                                    : Spanish-PGS
  457. Language                                 : Spanish
  458. Default                                  : No
  459. Forced                                   : No

  460. Text #27
  461. ID                                       : 31
  462. Format                                   : PGS
  463. Muxing mode                              : zlib
  464. Codec ID                                 : S_HDMV/PGS
  465. Codec ID/Info                            : Picture based subtitle format used on BDs/HD-DVDs
  466. Duration                                 : 1 h 49 min
  467. Bit rate                                 : 24.4 kb/s
  468. Count of elements                        : 2144
  469. Stream size                              : 19.0 MiB (0%)
  470. Title                                    : Spanish-PGS
  471. Language                                 : Spanish
  472. Default                                  : No
  473. Forced                                   : No

  474. Text #28
  475. ID                                       : 32
  476. Format                                   : PGS
  477. Muxing mode                              : zlib
  478. Codec ID                                 : S_HDMV/PGS
  479. Codec ID/Info                            : Picture based subtitle format used on BDs/HD-DVDs
  480. Duration                                 : 1 h 55 min
  481. Bit rate                                 : 20.4 kb/s
  482. Count of elements                        : 1638
  483. Stream size                              : 16.8 MiB (0%)
  484. Title                                    : Swedish-PGS
  485. Language                                 : Swedish
  486. Default                                  : No
  487. Forced                                   : No

  488. Text #29
  489. ID                                       : 33
  490. Format                                   : PGS
  491. Muxing mode                              : zlib
  492. Codec ID                                 : S_HDMV/PGS
  493. Codec ID/Info                            : Picture based subtitle format used on BDs/HD-DVDs
  494. Duration                                 : 1 h 55 min
  495. Bit rate                                 : 16.3 kb/s
  496. Count of elements                        : 2162
  497. Stream size                              : 13.4 MiB (0%)
  498. Title                                    : Thai-PGS
  499. Language                                 : Thai
  500. Default                                  : No
  501. Forced                                   : No

  502. Menu
  503. 00:00:00.000                             : en:Earth Under Man
  504. 00:04:16.006                             : en:Eve Of The War
  505. 00:08:18.248                             : en:Coming Of The Invaders
  506. 00:13:17.380                             : en:In The Storm
  507. 00:19:19.867                             : en:The Machine Emerges
  508. 00:25:29.319                             : en:Heat-Ray
  509. 00:29:45.242                             : en:Escape
  510. 00:34:32.570                             : en:How We Reached Home
  511. 00:38:47.033                             : en:At The Window
  512. 00:43:53.256                             : en:Human Toll
  513. 00:49:03.732                             : en:Worst Of Man
  514. 00:55:17.105                             : en:Exodus
  515. 00:59:21.016                             : en:Hudson Ferry
  516. 01:04:44.172                             : en:The Fighting Begins
  517. 01:10:37.233                             : en:Harlan Ogilvy
  518. 01:15:53.299                             : en:Disturbing Revelations
  519. 01:20:28.991                             : en:Stillness
  520. 01:24:48.000                             : en:Days Of Imprisonment
  521. 01:29:03.964                             : en:Alone With Harlan
  522. 01:33:59.884                             : en:Under Foot
  523. 01:36:59.605                             : en:Earth Under Them
  524. 01:41:07.561                             : en:In Boston
  525. 01:45:27.404                             : en:Wreckage
  526. 01:49:42.034                             : en:End Credits
复制代码
061446iroct5mkt55f8wno.png 061445z6tdt86ec829g6my.png 061446mkk1020suhm217bx.png 061446qzgwiuu1gegrag3x.png 061447joajcsr26x6qjc2r.png 061447n750dod8d7fljr7x.png




回复

使用道具 举报

懒得打字嘛,点击右侧快捷回复 【右侧内容,后台自定义】
您需要登录后才可以回帖 登录 | 立即加入

本版积分规则

现在加入蓝光电影网,注册一个账号
上个主题 下个主题 快速回复 收藏帖子 返回列表 客服中心 搜索

手机版|小黑屋| 蓝光电影网 |网站地图 

Copyright © 2015-2019 Comsenz Inc.  Template by 蓝光电影论坛 All Rights Reserved.

Powered by 蓝光电影网 X3.4

特别声明:本站所有资源均由网上收集而来,版权归原影音公司所有,如果侵犯了你的权益,请通知我们,我们会及时删除侵权内容.

快速回复 返回顶部 返回列表