找回密码

蓝光电影网

查看: 191|回复: 2

[10bit.SDR] 爆裂老兵 VFW.2019.2160p.BluRay.x265.10bit.SDR.DTS-HD.MA.5.1-WhiteRhino 21.64GB

[复制链接]

 成长值: 26155

发表于 2020-5-21 13:36:59 | 显示全部楼层 |阅读模式
爆裂老兵 VFW.2019.2160p.BluRay.x265.10bit.SDR.DTS-HD.MA.5.1-WhiteRhino 21.64GB-1.png

译  名 爆裂老兵 / Veterans of Foreign Wars / 海外作战退伍军人 / 美国国外战争退伍军人 / 老兵
片  名 V.F.W.
年  代 2019
产  地 美国
类  别 动作 / 恐怖
语  言 英语
上映日期 2019-09-21(美国)
IMDb评分  6.1/10 from 2542 users
IMDb链接  https://www.imdb.com/title/tt9894470
豆瓣评分 4.7/10 from 536 users
豆瓣链接 https://movie.douban.com/subject/30478334/
片  长 92分钟
导  演 乔·比格斯 Joe Begos
编  剧 马克斯·布莱利尔 Max Brallier / 马修·迈克阿德尔 Matthew McArdle
主  演 史蒂芬·朗 Stephen Lang
       威廉姆·赛德勒 William Sadler
       弗雷德·威廉森 Fred Williamson
       马丁·科夫 Martin Kove
       大卫·帕特里克·凯利 David Patrick Kelly
       乔治·温迪特 George Wendt
       汤姆·威廉姆森 Tom Williamson
       谢拉·麦克康米克 Sierra McCormick
       崔维斯·汉默 Travis Hammer
       多拉·马迪森·布鲁格 Dora Madison Burge
       Josh Ethier
       Graham Skipper
       Linnea Wilson
       杰西·科夫 Jesse Kove
       Brandon Potter
       雷利·库西克 Riley Cusick
       Leon Slaughter


标  签 血腥 | 动作 | 美国 | 犯罪 | 2019 | 美国电影 | cult | 恐怖

简  介  

  史蒂芬·朗将主演动作恐怖新片[V.F.W.]。影片被描述为[日落黄沙]和[活死人之夜]的结合体。故事讲述弗雷德和他的战友们必须保护他们当地的VFW基地。一个无辜的青少年将对抗疯狂的毒贩和无情的朋克变种人军队。这将是这些越战老兵们一生中最漫长的夜晚。本片由乔·毕高斯执导,马克斯·布拉利尔、马修·麦卡德尔撰写剧本,将于本月在达拉斯开机。

  1. Video
  2. ID                                       : 1
  3. Format                                   : HEVC
  4. Format/Info                              : High Efficiency Video Coding
  5. Format profile                           : Main 10@L5.1@High
  6. Codec ID                                 : V_MPEGH/ISO/HEVC
  7. Duration                                 : 1 h 31 min
  8. Bit rate                                 : 29.0 Mb/s
  9. Width                                    : 3 840 pixels
  10. Height                                   : 1 608 pixels
  11. Display aspect ratio                     : 2.40:1
  12. Frame rate mode                          : Constant
  13. Frame rate                               : 24.000 FPS
  14. Color space                              : YUV
  15. Chroma subsampling                       : 4:2:0
  16. Bit depth                                : 10 bits
  17. Bits/(Pixel*Frame)                       : 0.196
  18. Stream size                              : 18.6 GiB (87%)
  19. Writing library                          : x265 3.3+21-6bb2d88029c2:[Windows][GCC 10.0.1][64 bit] 10bit
  20. Encoding settings                        : cpuid=1111039 / frame-threads=5 / numa-pools=36 / wpp / no-pmode / no-pme / no-psnr / no-ssim / log-level=2 / input-csp=1 / input-res=3840x1608 / interlace=0 / total-frames=131927 / level-idc=51 / high-tier=1 / uhd-bd=0 / ref=4 / no-allow-non-conformance / repeat-headers / annexb / aud / hrd / info / hash=0 / no-temporal-layers / no-open-gop / min-keyint=24 / keyint=250 / gop-lookahead=0 / bframes=4 / b-adapt=2 / b-pyramid / bframe-bias=0 / rc-lookahead=25 / lookahead-slices=4 / scenecut=40 / hist-scenecut=0 / radl=0 / no-splice / no-intra-refresh / ctu=64 / min-cu-size=8 / rect / no-amp / max-tu-size=32 / tu-inter-depth=1 / tu-intra-depth=1 / limit-tu=0 / rdoq-level=2 / dynamic-rd=0.00 / no-ssim-rd / signhide / no-tskip / nr-intra=0 / nr-inter=0 / no-constrained-intra / strong-intra-smoothing / max-merge=3 / limit-refs=3 / limit-modes / me=3 / subme=3 / merange=57 / temporal-mvp / no-frame-dup / no-hme / weightp / no-weightb / no-analyze-src-pics / deblock=-3:-3 / no-sao / no-sao-non-deblock / rd=4 / selective-sao=0 / no-early-skip / rskip / no-fast-intra / no-tskip-fast / no-cu-lossless / no-b-intra / no-splitrd-skip / rdpenalty=0 / psy-rd=2.00 / psy-rdoq=1.00 / no-rd-refine / no-lossless / cbqpoffs=0 / crqpoffs=0 / rc=crf / crf=21.0 / qcomp=0.60 / qpstep=4 / stats-write=0 / stats-read=0 / vbv-maxrate=160000 / vbv-bufsize=160000 / vbv-init=0.9 / crf-max=0.0 / crf-min=0.0 / ipratio=1.40 / pbratio=1.30 / aq-mode=2 / aq-strength=1.00 / cutree / zone-count=0 / no-strict-cbr / qg-size=32 / no-rc-grain / qpmax=69 / qpmin=0 / no-const-vbv / sar=1 / overscan=0 / videoformat=5 / range=0 / colorprim=1 / transfer=1 / colormatrix=1 / chromaloc=0 / display-window=0 / cll=0,0 / min-luma=0 / max-luma=1023 / log2-max-poc-lsb=8 / vui-timing-info / vui-hrd-info / slices=1 / no-opt-qp-pps / no-opt-ref-list-length-pps / no-multi-pass-opt-rps / scenecut-bias=0.05 / hist-threshold=0.01 / no-opt-cu-delta-qp / no-aq-motion / no-hdr10 / no-hdr10-opt / no-dhdr10-opt / no-idr-recovery-sei / analysis-reuse-level=0 / analysis-save-reuse-level=0 / analysis-load-reuse-level=0 / scale-factor=0 / refine-intra=0 / refine-inter=0 / refine-mv=1 / refine-ctu-distortion=0 / no-limit-sao / ctu-info=0 / no-lowpass-dct / refine-analysis-type=0 / copy-pic=1 / max-ausize-factor=1.0 / no-dynamic-refine / no-single-sei / no-hevc-aq / no-svt / no-field / qp-adaptation-range=1.00 / no-scenecut-aware-qpconformance-window-offsets / right=0 / bottom=0 / decoder-max-rate=0
  21. Default                                  : Yes
  22. Forced                                   : No
  23. Color range                              : Limited
  24. Color primaries                          : BT.709
  25. Transfer characteristics                 : BT.709
  26. Matrix coefficients                      : BT.709

  27. Audio #1
  28. ID                                       : 2
  29. Format                                   : DTS XLL
  30. Format/Info                              : Digital Theater Systems
  31. Commercial name                          : DTS-HD Master Audio
  32. Codec ID                                 : A_DTS
  33. Duration                                 : 1 h 31 min
  34. Bit rate mode                            : Variable
  35. Bit rate                                 : 4 191 kb/s
  36. Channel(s)                               : 6 channels
  37. Channel layout                           : C L R Ls Rs LFE
  38. Sampling rate                            : 48.0 kHz
  39. Frame rate                               : 93.750 FPS (512 SPF)
  40. Bit depth                                : 24 bits
  41. Compression mode                         : Lossless
  42. Stream size                              : 2.68 GiB (13%)
  43. Language                                 : English
  44. Default                                  : Yes
  45. Forced                                   : No

  46. Audio #2
  47. ID                                       : 3
  48. Format                                   : AAC LC
  49. Format/Info                              : Advanced Audio Codec Low Complexity
  50. Codec ID                                 : A_AAC-2
  51. Duration                                 : 1 h 31 min
  52. Bit rate                                 : 84.8 kb/s
  53. Channel(s)                               : 2 channels
  54. Channel layout                           : L R
  55. Sampling rate                            : 48.0 kHz
  56. Frame rate                               : 46.875 FPS (1024 SPF)
  57. Compression mode                         : Lossy
  58. Delay relative to video                  : 9 ms
  59. Stream size                              : 55.6 MiB (0%)
  60. Title                                    : Commentary with Joe Begos, Brian Dutton, and Josh Ethier
  61. Language                                 : English
  62. Default                                  : No
  63. Forced                                   : No

  64. Audio #3
  65. ID                                       : 4
  66. Format                                   : AAC LC
  67. Format/Info                              : Advanced Audio Codec Low Complexity
  68. Codec ID                                 : A_AAC-2
  69. Duration                                 : 1 h 31 min
  70. Bit rate                                 : 85.2 kb/s
  71. Channel(s)                               : 2 channels
  72. Channel layout                           : L R
  73. Sampling rate                            : 48.0 kHz
  74. Frame rate                               : 46.875 FPS (1024 SPF)
  75. Compression mode                         : Lossy
  76. Delay relative to video                  : 9 ms
  77. Stream size                              : 55.8 MiB (0%)
  78. Title                                    : Commentary with Joe Begos, Brian Dutton, Josh Ethier, Josh and Sierra Russell, Matt Mercer, and others
  79. Language                                 : English
  80. Default                                  : No
  81. Forced                                   : No

  82. Text #1
  83. ID                                       : 5
  84. Format                                   : PGS
  85. Muxing mode                              : zlib
  86. Codec ID                                 : S_HDMV/PGS
  87. Codec ID/Info                            : Picture based subtitle format used on BDs/HD-DVDs
  88. Duration                                 : 1 h 28 min
  89. Bit rate                                 : 26.6 kb/s
  90. Count of elements                        : 2950
  91. Stream size                              : 16.8 MiB (0%)
  92. Title                                    : SDH
  93. Language                                 : English
  94. Default                                  : No
  95. Forced                                   : No

  96. Text #2
  97. ID                                       : 6
  98. Format                                   : PGS
  99. Muxing mode                              : zlib
  100. Codec ID                                 : S_HDMV/PGS
  101. Codec ID/Info                            : Picture based subtitle format used on BDs/HD-DVDs
  102. Duration                                 : 1 h 26 min
  103. Bit rate                                 : 20.9 kb/s
  104. Count of elements                        : 2426
  105. Stream size                              : 13.0 MiB (0%)
  106. Language                                 : Spanish
  107. Default                                  : No
  108. Forced                                   : No

  109. Text #3
  110. ID                                       : 7
  111. Format                                   : PGS
  112. Muxing mode                              : zlib
  113. Codec ID                                 : S_HDMV/PGS
  114. Codec ID/Info                            : Picture based subtitle format used on BDs/HD-DVDs
  115. Duration                                 : 1 h 26 min
  116. Bit rate                                 : 21.4 kb/s
  117. Count of elements                        : 2482
  118. Stream size                              : 13.3 MiB (0%)
  119. Language                                 : French
  120. Default                                  : No
  121. Forced                                   : No

  122. Menu #1
  123. 00:00:00.000                             : en:Chapter 01
  124. 00:12:05.292                             : en:Chapter 02
  125. 00:22:05.125                             : en:Chapter 03
  126. 00:31:57.417                             : en:Chapter 04
  127. 00:42:59.208                             : en:Chapter 05
  128. 00:53:47.542                             : en:Chapter 06
  129. 01:07:19.625                             : en:Chapter 07
  130. 01:27:39.042                             : en:Chapter 08

  131. Menu #2
  132. 00:00:00.054                             : en:Chapter 01 / en:Chapter 01
复制代码



061230wz6oe6mh2mef3tr7.png 061230qakkgnmela6a1eoe.png 061231j6br2a8yadaedbya.png



回复

使用道具 举报

发表于 2020-5-21 18:54:49 | 显示全部楼层

楼主太厉害了!楼主,电影应该很好看我觉得蓝光电影网真是个好地方!
回复 支持 反对

使用道具 举报

发表于 2020-5-21 18:56:17 | 显示全部楼层
我来呢我来尼我来怪
回复 支持 反对

使用道具 举报

懒得打字嘛,点击右侧快捷回复 【右侧内容,后台自定义】
您需要登录后才可以回帖 登录 | 立即加入

本版积分规则

现在加入蓝光电影网,注册一个账号
上个主题 下个主题 快速回复 收藏帖子 返回列表 客服中心 搜索

手机版|小黑屋| 蓝光电影网 |网站地图 

Copyright © 2015-2019 Comsenz Inc.  Template by 蓝光电影论坛 All Rights Reserved.

Powered by 蓝光电影网 X3.4

特别声明:本站所有资源均由网上收集而来,版权归原影音公司所有,如果侵犯了你的权益,请通知我们,我们会及时删除侵权内容.

快速回复 返回顶部 返回列表