找回密码

蓝光电影网

查看: 172|回复: 2

[8bit.SDR] 壮志凌云/壮志凌云 3D Top.Gun.1986.2160p.BluRay.x264.8bit.SDR.DTS-HD.MA.TrueHD.7.1.Atmos-SWTYBLZ 57.47GB

[复制链接]

 成长值: 26155

发表于 2020-5-21 13:00:23 | 显示全部楼层 |阅读模式
壮志凌云/壮志凌云 3D Top.Gun.1986.2160p.BluRay.x264.8bit.SDR.DTS-HD.MA.TrueHD.7.1.Atmos-SWTYBLZ 57.47GB-1.png

译  名 壮志凌云 / 壮志凌云 3D / 捍卫战士(台)
片  名 Top Gun
年  代 1986
产  地 美国
类  别 剧情 / 动作 / 爱情
语  言 英语
上映日期 1986-05-16(美国) / 2013-02-08(美国)
IMDb评分  6.9/10 from 279716 users
IMDb链接  https://www.imdb.com/title/tt0092099
豆瓣评分 7.7/10 from 55099 users
豆瓣链接 https://movie.douban.com/subject/1293799/
片  长 110分钟
导  演 托尼·斯科特 Tony Scott
编  剧 吉姆·卡什 Jim Cash / 小杰克·埃普斯 Jack Epps Jr. / 埃胡德·约纳 Ehud Yonay
主  演 汤姆·克鲁斯 Tom Cruise
       凯莉·麦吉利斯 Kelly McGillis
       方·基默 Val Kilmer
       安东尼·爱德华兹 Anthony Edwards
       汤姆·斯凯里特 Tom Skerritt
       迈克尔·艾恩塞德 Michael Ironside
       约翰·斯托克韦尔 John Stockwell
       里克·罗索维奇 Rick Rossovich
       蒂姆·罗宾斯 Tim Robbins
       小克拉伦斯·吉尔亚德 Clarence Gilyard Jr.
       维普哈布莱 Whip Hubley
       詹姆斯·托根 James Tolkan
       梅格·瑞恩 Meg Ryan
       亚德里安·帕斯达 Adrian Pasdar
       Barry Tubb


标  签 美国 | 汤姆·克鲁斯 | TomCruise | 战争 | 爱情 | 经典 | 动作 | 美国电影

简  介  

  “独行侠”皮特·米切尔(汤姆?克鲁斯 Tom Cruise 饰)的父亲是个战功显赫的老飞行员,他决心也要成为父亲那样的英雄。终于机会来了,他与军官“笨鹅”尼克·布拉德肖(安东尼?爱德华兹 Anthony Edwards 饰)一起被派到了Top Gun训练基地接受最严格的飞行训练。可是,“独行侠”的训练并不像预想中顺利,他的成绩一直不令人满意,一起训练的”冰人”汤姆·卡赞斯基(方·基默 Val Kilmer 饰)也对他也颇有微词。与此同时,“独行侠”遇到了美丽的女教官查莉(凯莉?麦吉利斯 Kelly McGillis 饰),两人对彼此暗生情愫,这令本来有些心灰意冷的“独行侠”重拾信心。在毕业前的一次训练中,“独行侠”搭档“笨鹅”再次同驾一机,但由于马达发生故障,“独行侠”与“笨鹅”被迫跳海,结果“笨鹅”不幸身亡。这次事件给“独行侠”带来了沉重的打击,本来因学业不顺就郁郁寡欢的他更加消沉了,甚至想要彻底放弃成为飞行员的梦想。“独行侠”最终能否克服心障重回蓝天?

获奖情况  

  第59届奥斯卡金像奖(1987)
  最佳剪辑(提名) 克里斯·莱本森 / 比利·韦伯
  最佳音效剪辑(提名) George Watters II / Cecelia Hall
  最佳音响(提名) 威廉·B·卡普兰 / 凯文·奥康奈尔 / 里克·克莱恩 / Donald O. Mitchell
  最佳原创歌曲 乔治·莫罗德 / Tom Whitlock
  1. Video
  2. ID                                       : 1
  3. Format                                   : AVC
  4. Format/Info                              : Advanced Video Codec
  5. Format profile                           : High@L4
  6. Format settings                          : CABAC / 5 Ref Frames
  7. Format settings, CABAC                   : Yes
  8. Format settings, Reference frames        : 5 frames
  9. Codec ID                                 : V_MPEG4/ISO/AVC
  10. Duration                                 : 1 h 49 min
  11. Bit rate                                 : 64.9 Mb/s
  12. Width                                    : 3 840 pixels
  13. Height                                   : 1 600 pixels
  14. Display aspect ratio                     : 2.40:1
  15. Frame rate mode                          : Constant
  16. Frame rate                               : 23.976 (24000/1001/189150) FPS
  17. Color space                              : YUV
  18. Chroma subsampling                       : 4:2:0
  19. Bit depth                                : 8 bits
  20. Scan type                                : Progressive
  21. Bits/(Pixel*Frame)                       : 0.440
  22. Stream size                              : 49.6 GiB (87%)
  23. Title                                    : Top.Gun.1986.2160p.BluRay.x264.8bit.SDR.DTS-HD.MA.TrueHD.7.1.Atmos-SWTYBLZ
  24. Writing library                          : x264 core 157 r2935 545de2f
  25. Encoding settings                        : cabac=1 / ref=5 / deblock=1:-1:-1 / analyse=0x3:0x113 / me=umh / subme=10 / psy=1 / psy_rd=1.00:0.15 / mixed_ref=1 / me_range=48 / chroma_me=1 / trellis=2 / 8x8dct=1 / cqm=0 / deadzone=21,11 / fast_pskip=1 / chroma_qp_offset=-3 / threads=48 / lookahead_threads=4 / sliced_threads=0 / nr=0 / decimate=0 / interlaced=0 / bluray_compat=0 / constrained_intra=0 / bframes=3 / b_pyramid=2 / b_adapt=2 / b_bias=0 / direct=3 / weightb=1 / open_gop=0 / weightp=2 / keyint=250 / keyint_min=23 / scenecut=40 / intra_refresh=0 / rc_lookahead=50 / rc=crf / mbtree=1 / crf=20.0 / qcomp=0.60 / qpmin=0 / qpmax=69 / qpstep=4 / ip_ratio=1.40 / aq=1:1.00
  26. Default                                  : Yes
  27. Forced                                   : No

  28. Audio #1
  29. ID                                       : 2
  30. ID in the original source medium         : 4352 (0x1100)
  31. Format                                   : MLP FBA 16-ch
  32. Format/Info                              : Meridian Lossless Packing FBA with 16-channel presentation
  33. Commercial name                          : Dolby TrueHD with Dolby Atmos
  34. Codec ID                                 : A_TRUEHD
  35. Duration                                 : 1 h 49 min
  36. Bit rate mode                            : Variable
  37. Bit rate                                 : 4 476 kb/s
  38. Maximum bit rate                         : 8 049 kb/s
  39. Channel(s)                               : 8 channels
  40. Channel layout                           : L R C LFE Ls Rs Lb Rb
  41. Sampling rate                            : 48.0 kHz
  42. Frame rate                               : 1 200.000 FPS (40 SPF)
  43. Compression mode                         : Lossless
  44. Stream size                              : 3.42 GiB (6%)
  45. Title                                    : Top.Gun.1986.2160p.BluRay.x264.8bit.SDR.DTS-HD.MA.TrueHD.7.1.Atmos-SWTYBLZ
  46. Language                                 : English
  47. Default                                  : Yes
  48. Forced                                   : No
  49. Original source medium                   : Blu-ray
  50. Number of dynamic objects                : 11
  51. Bed channel count                        : 1 channel
  52. Bed channel configuration                : LFE

  53. Audio #2
  54. ID                                       : 3
  55. Format                                   : DTS XLL
  56. Format/Info                              : Digital Theater Systems
  57. Commercial name                          : DTS-HD Master Audio
  58. Codec ID                                 : A_DTS
  59. Duration                                 : 1 h 49 min
  60. Bit rate mode                            : Variable
  61. Bit rate                                 : 4 350 kb/s
  62. Channel(s)                               : 8 channels
  63. Channel layout                           : C L R LFE Lb Rb Lss Rss
  64. Sampling rate                            : 48.0 kHz
  65. Frame rate                               : 93.750 FPS (512 SPF)
  66. Bit depth                                : 24 bits
  67. Compression mode                         : Lossless
  68. Stream size                              : 3.33 GiB (6%)
  69. Title                                    : Top.Gun.1986.2160p.BluRay.x264.8bit.SDR.DTS-HD.MA.TrueHD.7.1.Atmos-SWTYBLZ
  70. Language                                 : English
  71. Default                                  : No
  72. Forced                                   : No

  73. Audio #3
  74. ID                                       : 4
  75. ID in the original source medium         : 4352 (0x1100)
  76. Format                                   : AC-3
  77. Format/Info                              : Audio Coding 3
  78. Commercial name                          : Dolby Digital
  79. Codec ID                                 : A_AC3
  80. Duration                                 : 1 h 49 min
  81. Bit rate mode                            : Constant
  82. Bit rate                                 : 640 kb/s
  83. Channel(s)                               : 6 channels
  84. Channel layout                           : L R C LFE Ls Rs
  85. Sampling rate                            : 48.0 kHz
  86. Frame rate                               : 31.250 FPS (1536 SPF)
  87. Compression mode                         : Lossy
  88. Stream size                              : 501 MiB (1%)
  89. Title                                    : Top.Gun.1986.2160p.BluRay.x264.8bit.SDR.DTS-HD.MA.TrueHD.7.1.Atmos-SWTYBLZ
  90. Language                                 : English
  91. Service kind                             : Complete Main
  92. Default                                  : No
  93. Forced                                   : No
  94. Original source medium                   : Blu-ray

  95. Text #1
  96. ID                                       : 5
  97. Format                                   : UTF-8
  98. Codec ID                                 : S_TEXT/UTF8
  99. Codec ID/Info                            : UTF-8 Plain Text
  100. Duration                                 : 1 h 40 min
  101. Bit rate                                 : 59 b/s
  102. Count of elements                        : 1384
  103. Stream size                              : 43.4 KiB (0%)
  104. Title                                    : English-SRT
  105. Language                                 : English
  106. Default                                  : Yes
  107. Forced                                   : No

  108. Text #2
  109. ID                                       : 6
  110. ID in the original source medium         : 4768 (0x12A0)
  111. Format                                   : PGS
  112. Muxing mode                              : zlib
  113. Codec ID                                 : S_HDMV/PGS
  114. Codec ID/Info                            : Picture based subtitle format used on BDs/HD-DVDs
  115. Duration                                 : 1 h 40 min
  116. Bit rate                                 : 38.7 kb/s
  117. Count of elements                        : 2782
  118. Stream size                              : 27.8 MiB (0%)
  119. Title                                    : English-PGS
  120. Language                                 : English
  121. Default                                  : No
  122. Forced                                   : No
  123. Original source medium                   : Blu-ray

  124. Text #3
  125. ID                                       : 7
  126. ID in the original source medium         : 4769 (0x12A1)
  127. Format                                   : PGS
  128. Muxing mode                              : zlib
  129. Codec ID                                 : S_HDMV/PGS
  130. Codec ID/Info                            : Picture based subtitle format used on BDs/HD-DVDs
  131. Duration                                 : 1 h 42 min
  132. Bit rate                                 : 40.5 kb/s
  133. Count of elements                        : 2998
  134. Stream size                              : 29.8 MiB (0%)
  135. Title                                    : English-SDH-PGS
  136. Language                                 : English
  137. Default                                  : No
  138. Forced                                   : No
  139. Original source medium                   : Blu-ray

  140. Text #4
  141. ID                                       : 8
  142. ID in the original source medium         : 4770 (0x12A2)
  143. Format                                   : PGS
  144. Muxing mode                              : zlib
  145. Codec ID                                 : S_HDMV/PGS
  146. Codec ID/Info                            : Picture based subtitle format used on BDs/HD-DVDs
  147. Duration                                 : 1 h 48 min
  148. Bit rate                                 : 25.6 kb/s
  149. Count of elements                        : 2612
  150. Stream size                              : 19.9 MiB (0%)
  151. Title                                    : Chinese-PGS
  152. Language                                 : Chinese
  153. Default                                  : No
  154. Forced                                   : No
  155. Original source medium                   : Blu-ray

  156. Text #5
  157. ID                                       : 9
  158. ID in the original source medium         : 4771 (0x12A3)
  159. Format                                   : PGS
  160. Muxing mode                              : zlib
  161. Codec ID                                 : S_HDMV/PGS
  162. Codec ID/Info                            : Picture based subtitle format used on BDs/HD-DVDs
  163. Duration                                 : 1 h 48 min
  164. Bit rate                                 : 30.2 kb/s
  165. Count of elements                        : 2822
  166. Stream size                              : 23.4 MiB (0%)
  167. Title                                    : Czech-PGS
  168. Language                                 : Czech
  169. Default                                  : No
  170. Forced                                   : No
  171. Original source medium                   : Blu-ray

  172. Text #6
  173. ID                                       : 10
  174. ID in the original source medium         : 4772 (0x12A4)
  175. Format                                   : PGS
  176. Muxing mode                              : zlib
  177. Codec ID                                 : S_HDMV/PGS
  178. Codec ID/Info                            : Picture based subtitle format used on BDs/HD-DVDs
  179. Duration                                 : 1 h 48 min
  180. Bit rate                                 : 24.0 kb/s
  181. Count of elements                        : 2426
  182. Stream size                              : 18.7 MiB (0%)
  183. Title                                    : Danish-PGS
  184. Language                                 : Danish
  185. Default                                  : No
  186. Forced                                   : No
  187. Original source medium                   : Blu-ray

  188. Text #7
  189. ID                                       : 11
  190. ID in the original source medium         : 4773 (0x12A5)
  191. Format                                   : PGS
  192. Muxing mode                              : zlib
  193. Codec ID                                 : S_HDMV/PGS
  194. Codec ID/Info                            : Picture based subtitle format used on BDs/HD-DVDs
  195. Duration                                 : 1 h 48 min
  196. Bit rate                                 : 28.6 kb/s
  197. Count of elements                        : 2502
  198. Stream size                              : 22.3 MiB (0%)
  199. Title                                    : German-PGS
  200. Language                                 : German
  201. Default                                  : No
  202. Forced                                   : No
  203. Original source medium                   : Blu-ray

  204. Text #8
  205. ID                                       : 12
  206. ID in the original source medium         : 4774 (0x12A6)
  207. Format                                   : PGS
  208. Muxing mode                              : zlib
  209. Codec ID                                 : S_HDMV/PGS
  210. Codec ID/Info                            : Picture based subtitle format used on BDs/HD-DVDs
  211. Duration                                 : 1 h 48 min
  212. Bit rate                                 : 27.2 kb/s
  213. Count of elements                        : 2474
  214. Stream size                              : 21.1 MiB (0%)
  215. Title                                    : Spanish-PGS
  216. Language                                 : Spanish
  217. Default                                  : No
  218. Forced                                   : No
  219. Original source medium                   : Blu-ray

  220. Text #9
  221. ID                                       : 13
  222. ID in the original source medium         : 4774 (0x12A6)
  223. Format                                   : PGS
  224. Muxing mode                              : zlib
  225. Codec ID                                 : S_HDMV/PGS
  226. Codec ID/Info                            : Picture based subtitle format used on BDs/HD-DVDs
  227. Duration                                 : 18 s 185 ms
  228. Bit rate                                 : 77.4 kb/s
  229. Count of elements                        : 16
  230. Stream size                              : 172 KiB (0%)
  231. Title                                    : Spanish-PGS
  232. Language                                 : Spanish
  233. Default                                  : No
  234. Forced                                   : No
  235. Original source medium                   : Blu-ray

  236. Text #10
  237. ID                                       : 14
  238. ID in the original source medium         : 4776 (0x12A8)
  239. Format                                   : PGS
  240. Muxing mode                              : zlib
  241. Codec ID                                 : S_HDMV/PGS
  242. Codec ID/Info                            : Picture based subtitle format used on BDs/HD-DVDs
  243. Duration                                 : 1 h 48 min
  244. Bit rate                                 : 27.3 kb/s
  245. Count of elements                        : 2490
  246. Stream size                              : 21.2 MiB (0%)
  247. Title                                    : French-PGS
  248. Language                                 : French
  249. Default                                  : No
  250. Forced                                   : No
  251. Original source medium                   : Blu-ray

  252. Text #11
  253. ID                                       : 15
  254. ID in the original source medium         : 4777 (0x12A9)
  255. Format                                   : PGS
  256. Muxing mode                              : zlib
  257. Codec ID                                 : S_HDMV/PGS
  258. Codec ID/Info                            : Picture based subtitle format used on BDs/HD-DVDs
  259. Duration                                 : 1 h 48 min
  260. Bit rate                                 : 25.0 kb/s
  261. Count of elements                        : 2472
  262. Stream size                              : 19.4 MiB (0%)
  263. Title                                    : Italian-PGS
  264. Language                                 : Italian
  265. Default                                  : No
  266. Forced                                   : No
  267. Original source medium                   : Blu-ray

  268. Text #12
  269. ID                                       : 16
  270. ID in the original source medium         : 4778 (0x12AA)
  271. Format                                   : PGS
  272. Muxing mode                              : zlib
  273. Codec ID                                 : S_HDMV/PGS
  274. Codec ID/Info                            : Picture based subtitle format used on BDs/HD-DVDs
  275. Duration                                 : 1 h 43 min
  276. Bit rate                                 : 18.9 kb/s
  277. Count of elements                        : 1898
  278. Stream size                              : 14.0 MiB (0%)
  279. Title                                    : Japanese-PGS
  280. Language                                 : Japanese
  281. Default                                  : No
  282. Forced                                   : No
  283. Original source medium                   : Blu-ray

  284. Text #13
  285. ID                                       : 17
  286. ID in the original source medium         : 4779 (0x12AB)
  287. Format                                   : PGS
  288. Muxing mode                              : zlib
  289. Codec ID                                 : S_HDMV/PGS
  290. Codec ID/Info                            : Picture based subtitle format used on BDs/HD-DVDs
  291. Duration                                 : 1 h 48 min
  292. Bit rate                                 : 26.2 kb/s
  293. Count of elements                        : 2596
  294. Stream size                              : 20.4 MiB (0%)
  295. Title                                    : Korean-PGS
  296. Language                                 : Korean
  297. Default                                  : No
  298. Forced                                   : No
  299. Original source medium                   : Blu-ray

  300. Text #14
  301. ID                                       : 18
  302. ID in the original source medium         : 4780 (0x12AC)
  303. Format                                   : PGS
  304. Muxing mode                              : zlib
  305. Codec ID                                 : S_HDMV/PGS
  306. Codec ID/Info                            : Picture based subtitle format used on BDs/HD-DVDs
  307. Duration                                 : 1 h 48 min
  308. Bit rate                                 : 22.1 kb/s
  309. Count of elements                        : 2690
  310. Stream size                              : 17.2 MiB (0%)
  311. Title                                    : Chinese-PGS
  312. Language                                 : Chinese
  313. Default                                  : No
  314. Forced                                   : No
  315. Original source medium                   : Blu-ray

  316. Text #15
  317. ID                                       : 19
  318. ID in the original source medium         : 4781 (0x12AD)
  319. Format                                   : PGS
  320. Muxing mode                              : zlib
  321. Codec ID                                 : S_HDMV/PGS
  322. Codec ID/Info                            : Picture based subtitle format used on BDs/HD-DVDs
  323. Duration                                 : 1 h 48 min
  324. Bit rate                                 : 26.1 kb/s
  325. Count of elements                        : 2178
  326. Stream size                              : 20.3 MiB (0%)
  327. Title                                    : Dutch-PGS
  328. Language                                 : Dutch
  329. Default                                  : No
  330. Forced                                   : No
  331. Original source medium                   : Blu-ray

  332. Text #16
  333. ID                                       : 20
  334. ID in the original source medium         : 4782 (0x12AE)
  335. Format                                   : PGS
  336. Muxing mode                              : zlib
  337. Codec ID                                 : S_HDMV/PGS
  338. Codec ID/Info                            : Picture based subtitle format used on BDs/HD-DVDs
  339. Duration                                 : 1 h 48 min
  340. Bit rate                                 : 27.8 kb/s
  341. Count of elements                        : 2508
  342. Stream size                              : 21.6 MiB (0%)
  343. Title                                    : Norwegian-PGS
  344. Language                                 : Norwegian
  345. Default                                  : No
  346. Forced                                   : No
  347. Original source medium                   : Blu-ray

  348. Text #17
  349. ID                                       : 21
  350. ID in the original source medium         : 4783 (0x12AF)
  351. Format                                   : PGS
  352. Muxing mode                              : zlib
  353. Codec ID                                 : S_HDMV/PGS
  354. Codec ID/Info                            : Picture based subtitle format used on BDs/HD-DVDs
  355. Duration                                 : 1 h 48 min
  356. Bit rate                                 : 31.1 kb/s
  357. Count of elements                        : 2422
  358. Stream size                              : 24.2 MiB (0%)
  359. Title                                    : Portuguese-PGS
  360. Language                                 : Portuguese
  361. Default                                  : No
  362. Forced                                   : No
  363. Original source medium                   : Blu-ray

  364. Text #18
  365. ID                                       : 22
  366. ID in the original source medium         : 4783 (0x12AF)
  367. Format                                   : PGS
  368. Muxing mode                              : zlib
  369. Codec ID                                 : S_HDMV/PGS
  370. Codec ID/Info                            : Picture based subtitle format used on BDs/HD-DVDs
  371. Duration                                 : 41 min 3 s
  372. Bit rate                                 : 288 b/s
  373. Count of elements                        : 10
  374. Stream size                              : 86.7 KiB (0%)
  375. Title                                    : Portuguese-PGS
  376. Language                                 : Portuguese
  377. Default                                  : No
  378. Forced                                   : No
  379. Original source medium                   : Blu-ray

  380. Text #19
  381. ID                                       : 23
  382. ID in the original source medium         : 4785 (0x12B1)
  383. Format                                   : PGS
  384. Muxing mode                              : zlib
  385. Codec ID                                 : S_HDMV/PGS
  386. Codec ID/Info                            : Picture based subtitle format used on BDs/HD-DVDs
  387. Duration                                 : 1 h 48 min
  388. Bit rate                                 : 36.4 kb/s
  389. Count of elements                        : 2592
  390. Stream size                              : 28.3 MiB (0%)
  391. Title                                    : Russian-PGS
  392. Language                                 : Russian
  393. Default                                  : No
  394. Forced                                   : No
  395. Original source medium                   : Blu-ray

  396. Text #20
  397. ID                                       : 24
  398. ID in the original source medium         : 4786 (0x12B2)
  399. Format                                   : PGS
  400. Muxing mode                              : zlib
  401. Codec ID                                 : S_HDMV/PGS
  402. Codec ID/Info                            : Picture based subtitle format used on BDs/HD-DVDs
  403. Duration                                 : 1 h 48 min
  404. Bit rate                                 : 26.4 kb/s
  405. Count of elements                        : 2480
  406. Stream size                              : 20.5 MiB (0%)
  407. Title                                    : Romanian-PGS
  408. Language                                 : Romanian
  409. Default                                  : No
  410. Forced                                   : No
  411. Original source medium                   : Blu-ray

  412. Text #21
  413. ID                                       : 25
  414. ID in the original source medium         : 4787 (0x12B3)
  415. Format                                   : PGS
  416. Muxing mode                              : zlib
  417. Codec ID                                 : S_HDMV/PGS
  418. Codec ID/Info                            : Picture based subtitle format used on BDs/HD-DVDs
  419. Duration                                 : 1 h 48 min
  420. Bit rate                                 : 27.5 kb/s
  421. Count of elements                        : 2596
  422. Stream size                              : 21.4 MiB (0%)
  423. Title                                    : Chinese-PGS
  424. Language                                 : Chinese
  425. Default                                  : No
  426. Forced                                   : No
  427. Original source medium                   : Blu-ray

  428. Text #22
  429. ID                                       : 26
  430. ID in the original source medium         : 4788 (0x12B4)
  431. Format                                   : PGS
  432. Muxing mode                              : zlib
  433. Codec ID                                 : S_HDMV/PGS
  434. Codec ID/Info                            : Picture based subtitle format used on BDs/HD-DVDs
  435. Duration                                 : 1 h 48 min
  436. Bit rate                                 : 26.8 kb/s
  437. Count of elements                        : 2230
  438. Stream size                              : 20.8 MiB (0%)
  439. Title                                    : Finnish-PGS
  440. Language                                 : Finnish
  441. Default                                  : No
  442. Forced                                   : No
  443. Original source medium                   : Blu-ray

  444. Text #23
  445. ID                                       : 27
  446. ID in the original source medium         : 4789 (0x12B5)
  447. Format                                   : PGS
  448. Muxing mode                              : zlib
  449. Codec ID                                 : S_HDMV/PGS
  450. Codec ID/Info                            : Picture based subtitle format used on BDs/HD-DVDs
  451. Duration                                 : 1 h 48 min
  452. Bit rate                                 : 23.8 kb/s
  453. Count of elements                        : 2404
  454. Stream size                              : 18.5 MiB (0%)
  455. Title                                    : Swedish-PGS
  456. Language                                 : Swedish
  457. Default                                  : No
  458. Forced                                   : No
  459. Original source medium                   : Blu-ray

  460. Text #24
  461. ID                                       : 28
  462. ID in the original source medium         : 4790 (0x12B6)
  463. Format                                   : PGS
  464. Muxing mode                              : zlib
  465. Codec ID                                 : S_HDMV/PGS
  466. Codec ID/Info                            : Picture based subtitle format used on BDs/HD-DVDs
  467. Duration                                 : 1 h 48 min
  468. Bit rate                                 : 28.3 kb/s
  469. Count of elements                        : 2834
  470. Stream size                              : 22.0 MiB (0%)
  471. Title                                    : Thai-PGS
  472. Language                                 : Thai
  473. Default                                  : No
  474. Forced                                   : No
  475. Original source medium                   : Blu-ray

  476. Menu
  477. 00:00:00.000                             : en:Chapter 01
  478. 00:02:45.165                             : en:Chapter 02
  479. 00:12:50.060                             : en:Chapter 03
  480. 00:19:08.689                             : en:Chapter 04
  481. 00:25:45.418                             : en:Chapter 05
  482. 00:29:31.186                             : en:Chapter 06
  483. 00:39:12.224                             : en:Chapter 07
  484. 00:48:04.464                             : en:Chapter 08
  485. 00:55:27.657                             : en:Chapter 09
  486. 01:01:32.563                             : en:Chapter 10
  487. 01:04:04.507                             : en:Chapter 11
  488. 01:13:42.835                             : en:Chapter 12
  489. 01:21:14.536                             : en:Chapter 13
  490. 01:27:09.891                             : en:Chapter 14
  491. 01:34:23.866                             : en:Chapter 15
  492. 01:42:03.784                             : en:Chapter 16
复制代码

壮志凌云/壮志凌云 3D Top.Gun.1986.2160p.BluRay.x264.8bit.SDR.DTS-HD.MA.TrueHD.7.1.Atmos-SWTYBLZ 57.47GB-2.png 壮志凌云/壮志凌云 3D Top.Gun.1986.2160p.BluRay.x264.8bit.SDR.DTS-HD.MA.TrueHD.7.1.Atmos-SWTYBLZ 57.47GB-3.png 壮志凌云/壮志凌云 3D Top.Gun.1986.2160p.BluRay.x264.8bit.SDR.DTS-HD.MA.TrueHD.7.1.Atmos-SWTYBLZ 57.47GB-4.png 壮志凌云/壮志凌云 3D Top.Gun.1986.2160p.BluRay.x264.8bit.SDR.DTS-HD.MA.TrueHD.7.1.Atmos-SWTYBLZ 57.47GB-5.png 壮志凌云/壮志凌云 3D Top.Gun.1986.2160p.BluRay.x264.8bit.SDR.DTS-HD.MA.TrueHD.7.1.Atmos-SWTYBLZ 57.47GB-6.png 壮志凌云/壮志凌云 3D Top.Gun.1986.2160p.BluRay.x264.8bit.SDR.DTS-HD.MA.TrueHD.7.1.Atmos-SWTYBLZ 57.47GB-7.png 壮志凌云/壮志凌云 3D Top.Gun.1986.2160p.BluRay.x264.8bit.SDR.DTS-HD.MA.TrueHD.7.1.Atmos-SWTYBLZ 57.47GB-8.png







回复

使用道具 举报

发表于 2020-5-21 16:25:54 | 显示全部楼层
哦多次哈佛i【额我i划分为
回复 支持 反对

使用道具 举报

 成长值: 160

发表于 2020-5-23 13:51:41 | 显示全部楼层
谢谢楼主的分享!!!
回复 支持 反对

使用道具 举报

懒得打字嘛,点击右侧快捷回复 【右侧内容,后台自定义】
您需要登录后才可以回帖 登录 | 立即加入

本版积分规则

现在加入蓝光电影网,注册一个账号
上个主题 下个主题 快速回复 收藏帖子 返回列表 客服中心 搜索

手机版|小黑屋| 蓝光电影网 |网站地图 

Copyright © 2015-2019 Comsenz Inc.  Template by 蓝光电影论坛 All Rights Reserved.

Powered by 蓝光电影网 X3.4

特别声明:本站所有资源均由网上收集而来,版权归原影音公司所有,如果侵犯了你的权益,请通知我们,我们会及时删除侵权内容.

快速回复 返回顶部 返回列表