找回密码

蓝光电影网

查看: 118|回复: 5

[10bit.SDR] 壮志凌云/壮志凌云 3D Top.Gun.1986.2160p.BluRay.x265.10bit.SDR.DTS-HD.MA.TrueHD.7.1.Atmos-SWTYBLZ 51.44GB

[复制链接]

 成长值: 26155

发表于 2020-5-20 23:05:54 | 显示全部楼层 |阅读模式
1f3867914812e.png

译  名 壮志凌云 / 壮志凌云 3D / 捍卫战士(台)
片  名 Top Gun
年  代 1986
产  地 美国
类  别 剧情 / 动作 / 爱情
语  言 英语
上映日期 1986-05-16(美国) / 2013-02-08(美国)
IMDb评分  6.9/10 from 279716 users
IMDb链接  https://www.imdb.com/title/tt0092099
豆瓣评分 7.7/10 from 55099 users
豆瓣链接 https://movie.douban.com/subject/1293799/
片  长 110分钟
导  演 托尼·斯科特 Tony Scott
编  剧 吉姆·卡什 Jim Cash / 小杰克·埃普斯 Jack Epps Jr. / 埃胡德·约纳 Ehud Yonay
主  演 汤姆·克鲁斯 Tom Cruise
       凯莉·麦吉利斯 Kelly McGillis
       方·基默 Val Kilmer
       安东尼·爱德华兹 Anthony Edwards
       汤姆·斯凯里特 Tom Skerritt
       迈克尔·艾恩塞德 Michael Ironside
       约翰·斯托克韦尔 John Stockwell
       里克·罗索维奇 Rick Rossovich
       蒂姆·罗宾斯 Tim Robbins
       小克拉伦斯·吉尔亚德 Clarence Gilyard Jr.
       维普哈布莱 Whip Hubley
       詹姆斯·托根 James Tolkan
       梅格·瑞恩 Meg Ryan
       亚德里安·帕斯达 Adrian Pasdar
       Barry Tubb


标  签 美国 | 汤姆·克鲁斯 | TomCruise | 战争 | 爱情 | 经典 | 动作 | 美国电影

简  介  

  “独行侠”皮特·米切尔(汤姆?克鲁斯 Tom Cruise 饰)的父亲是个战功显赫的老飞行员,他决心也要成为父亲那样的英雄。终于机会来了,他与军官“笨鹅”尼克·布拉德肖(安东尼?爱德华兹 Anthony Edwards 饰)一起被派到了Top Gun训练基地接受最严格的飞行训练。可是,“独行侠”的训练并不像预想中顺利,他的成绩一直不令人满意,一起训练的”冰人”汤姆·卡赞斯基(方·基默 Val Kilmer 饰)也对他也颇有微词。与此同时,“独行侠”遇到了美丽的女教官查莉(凯莉?麦吉利斯 Kelly McGillis 饰),两人对彼此暗生情愫,这令本来有些心灰意冷的“独行侠”重拾信心。在毕业前的一次训练中,“独行侠”搭档“笨鹅”再次同驾一机,但由于马达发生故障,“独行侠”与“笨鹅”被迫跳海,结果“笨鹅”不幸身亡。这次事件给“独行侠”带来了沉重的打击,本来因学业不顺就郁郁寡欢的他更加消沉了,甚至想要彻底放弃成为飞行员的梦想。“独行侠”最终能否克服心障重回蓝天?

获奖情况  

  第59届奥斯卡金像奖(1987)
  最佳剪辑(提名) 克里斯·莱本森 / 比利·韦伯
  最佳音效剪辑(提名) George Watters II / Cecelia Hall
  最佳音响(提名) 威廉·B·卡普兰 / 凯文·奥康奈尔 / 里克·克莱恩 / Donald O. Mitchell
  最佳原创歌曲 乔治·莫罗德 / Tom Whitlock
  1. Video
  2. ID                                       : 1
  3. Format                                   : HEVC
  4. Format/Info                              : High Efficiency Video Coding
  5. Format profile                           : Main High@L4@High
  6. Codec ID                                 : V_MPEGH/ISO/HEVC
  7. Duration                                 : 1 h 49 min
  8. Bit rate                                 : 57.1 Mb/s
  9. Width                                    : 3 840 pixels
  10. Height                                   : 1 600 pixels
  11. Display aspect ratio                     : 2.40:1
  12. Frame rate mode                          : Constant
  13. Frame rate                               : 23.976 (24000/1001/189150) FPS
  14. Color space                              : YUV
  15. Chroma subsampling                       : 4:2:0
  16. Bit depth                                : 10 bits
  17. Bits/(Pixel*Frame)                       : 0.387
  18. Stream size                              : 43.6 GiB (85%)
  19. Title                                    : Top.Gun.1986.2160p.BluRay.x265.10bit.SDR.DTS-HD.MA.TrueHD.7.1.Atmos-SWTYBLZ
  20. Writing library                          : x265 3.0ed72af837053:[Windows][GCC 8.2.0][64 bit] 10bit
  21. Encoding settings                        : cpuid=1111039 / frame-threads=6 / numa-pools=40 / wpp / no-pmode / no-pme / no-psnr / no-ssim / log-level=2 / input-csp=1 / input-res=3840x1600 / interlace=0 / total-frames=157446 / level-idc=51 / high-tier=1 / uhd-bd=0 / ref=3 / no-allow-non-conformance / repeat-headers / annexb / aud / hrd / info / hash=0 / no-temporal-layers / no-open-gop / min-keyint=1 / keyint=24 / gop-lookahead=0 / bframes=4 / b-adapt=2 / b-pyramid / bframe-bias=0 / rc-lookahead=25 / lookahead-slices=4 / scenecut=40 / radl=0 / no-splice / no-intra-refresh / ctu=64 / min-cu-size=8 / no-rect / no-amp / max-tu-size=32 / tu-inter-depth=1 / tu-intra-depth=1 / limit-tu=0 / rdoq-level=0 / dynamic-rd=0.00 / no-ssim-rd / signhide / no-tskip / nr-intra=0 / nr-inter=0 / no-constrained-intra / strong-intra-smoothing / max-merge=2 / limit-refs=3 / no-limit-modes / me=1 / subme=2 / merange=57 / temporal-mvp / weightp / no-weightb / no-analyze-src-pics / deblock=0:0 / no-sao / no-sao-non-deblock / rd=3 / no-early-skip / rskip / no-fast-intra / no-tskip-fast / no-cu-lossless / no-b-intra / no-splitrd-skip / rdpenalty=0 / psy-rd=2.00 / psy-rdoq=0.00 / no-rd-refine / no-lossless / cbqpoffs=0 / crqpoffs=0 / rc=crf / crf=18.0 / qcomp=0.60 / qpstep=4 / stats-write=0 / stats-read=0 / vbv-maxrate=160000 / vbv-bufsize=160000 / vbv-init=0.9 / crf-max=0.0 / crf-min=0.0 / ipratio=1.40 / pbratio=1.30 / aq-mode=1 / aq-strength=1.00 / cutree / zone-count=0 / no-strict-cbr / qg-size=32 / no-rc-grain / qpmax=69 / qpmin=0 / no-const-vbv / sar=1 / overscan=0 / videoformat=5 / range=0 / colorprim=2 / transfer=2 / colormatrix=2 / chromaloc=0 / display-window=0 / max-cll=0,0 / min-luma=0 / max-luma=1023 / log2-max-poc-lsb=8 / vui-timing-info / vui-hrd-info / slices=1 / opt-qp-pps / opt-ref-list-length-pps / no-multi-pass-opt-rps / scenecut-bias=0.05 / no-opt-cu-delta-qp / no-aq-motion / no-hdr / no-hdr-opt / no-dhdr10-opt / no-idr-recovery-sei / analysis-reuse-level=5 / scale-factor=0 / refine-intra=0 / refine-inter=0 / refine-mv=0 / refine-ctu-distortion=0 / no-limit-sao / ctu-info=0 / no-lowpass-dct / refine-analysis-type=0 / copy-pic=1 / max-ausize-factor=1.0 / no-dynamic-refine / no-single-sei / no-hevc-aq / qp-adaptation-range=1.00
  22. Default                                  : Yes
  23. Forced                                   : No

  24. Audio #1
  25. ID                                       : 2
  26. ID in the original source medium         : 4352 (0x1100)
  27. Format                                   : MLP FBA 16-ch
  28. Format/Info                              : Meridian Lossless Packing FBA with 16-channel presentation
  29. Commercial name                          : Dolby TrueHD with Dolby Atmos
  30. Codec ID                                 : A_TRUEHD
  31. Duration                                 : 1 h 49 min
  32. Bit rate mode                            : Variable
  33. Bit rate                                 : 4 476 kb/s
  34. Maximum bit rate                         : 8 049 kb/s
  35. Channel(s)                               : 8 channels
  36. Channel layout                           : L R C LFE Ls Rs Lb Rb
  37. Sampling rate                            : 48.0 kHz
  38. Frame rate                               : 1 200.000 FPS (40 SPF)
  39. Compression mode                         : Lossless
  40. Stream size                              : 3.42 GiB (7%)
  41. Title                                    : Top.Gun.1986.2160p.BluRay.x265.10bit.SDR.DTS-HD.MA.TrueHD.7.1.Atmos-SWTYBLZ
  42. Language                                 : English
  43. Default                                  : Yes
  44. Forced                                   : No
  45. Original source medium                   : Blu-ray
  46. Number of dynamic objects                : 11
  47. Bed channel count                        : 1 channel
  48. Bed channel configuration                : LFE

  49. Audio #2
  50. ID                                       : 3
  51. Format                                   : DTS XLL
  52. Format/Info                              : Digital Theater Systems
  53. Commercial name                          : DTS-HD Master Audio
  54. Codec ID                                 : A_DTS
  55. Duration                                 : 1 h 49 min
  56. Bit rate mode                            : Variable
  57. Bit rate                                 : 4 350 kb/s
  58. Channel(s)                               : 8 channels
  59. Channel layout                           : C L R LFE Lb Rb Lss Rss
  60. Sampling rate                            : 48.0 kHz
  61. Frame rate                               : 93.750 FPS (512 SPF)
  62. Bit depth                                : 24 bits
  63. Compression mode                         : Lossless
  64. Stream size                              : 3.33 GiB (7%)
  65. Title                                    : Top.Gun.1986.2160p.BluRay.x265.10bit.SDR.DTS-HD.MA.TrueHD.7.1.Atmos-SWTYBLZ
  66. Language                                 : English
  67. Default                                  : No
  68. Forced                                   : No

  69. Audio #3
  70. ID                                       : 4
  71. ID in the original source medium         : 4352 (0x1100)
  72. Format                                   : AC-3
  73. Format/Info                              : Audio Coding 3
  74. Commercial name                          : Dolby Digital
  75. Codec ID                                 : A_AC3
  76. Duration                                 : 1 h 49 min
  77. Bit rate mode                            : Constant
  78. Bit rate                                 : 640 kb/s
  79. Channel(s)                               : 6 channels
  80. Channel layout                           : L R C LFE Ls Rs
  81. Sampling rate                            : 48.0 kHz
  82. Frame rate                               : 31.250 FPS (1536 SPF)
  83. Compression mode                         : Lossy
  84. Stream size                              : 501 MiB (1%)
  85. Title                                    : Top.Gun.1986.2160p.BluRay.x265.10bit.SDR.DTS-HD.MA.TrueHD.7.1.Atmos-SWTYBLZ
  86. Language                                 : English
  87. Service kind                             : Complete Main
  88. Default                                  : No
  89. Forced                                   : No
  90. Original source medium                   : Blu-ray

  91. Text #1
  92. ID                                       : 5
  93. Format                                   : UTF-8
  94. Codec ID                                 : S_TEXT/UTF8
  95. Codec ID/Info                            : UTF-8 Plain Text
  96. Duration                                 : 1 h 40 min
  97. Bit rate                                 : 59 b/s
  98. Count of elements                        : 1384
  99. Stream size                              : 43.4 KiB (0%)
  100. Title                                    : English-SRT
  101. Language                                 : English
  102. Default                                  : Yes
  103. Forced                                   : No

  104. Text #2
  105. ID                                       : 6
  106. ID in the original source medium         : 4768 (0x12A0)
  107. Format                                   : PGS
  108. Muxing mode                              : zlib
  109. Codec ID                                 : S_HDMV/PGS
  110. Codec ID/Info                            : Picture based subtitle format used on BDs/HD-DVDs
  111. Duration                                 : 1 h 40 min
  112. Bit rate                                 : 38.7 kb/s
  113. Count of elements                        : 2782
  114. Stream size                              : 27.8 MiB (0%)
  115. Title                                    : English-PGS
  116. Language                                 : English
  117. Default                                  : No
  118. Forced                                   : No
  119. Original source medium                   : Blu-ray

  120. Text #3
  121. ID                                       : 7
  122. ID in the original source medium         : 4769 (0x12A1)
  123. Format                                   : PGS
  124. Muxing mode                              : zlib
  125. Codec ID                                 : S_HDMV/PGS
  126. Codec ID/Info                            : Picture based subtitle format used on BDs/HD-DVDs
  127. Duration                                 : 1 h 42 min
  128. Bit rate                                 : 40.5 kb/s
  129. Count of elements                        : 2998
  130. Stream size                              : 29.8 MiB (0%)
  131. Title                                    : English-SDH-PGS
  132. Language                                 : English
  133. Default                                  : No
  134. Forced                                   : No
  135. Original source medium                   : Blu-ray

  136. Text #4
  137. ID                                       : 8
  138. ID in the original source medium         : 4770 (0x12A2)
  139. Format                                   : PGS
  140. Muxing mode                              : zlib
  141. Codec ID                                 : S_HDMV/PGS
  142. Codec ID/Info                            : Picture based subtitle format used on BDs/HD-DVDs
  143. Duration                                 : 1 h 48 min
  144. Bit rate                                 : 25.6 kb/s
  145. Count of elements                        : 2612
  146. Stream size                              : 19.9 MiB (0%)
  147. Title                                    : Chinese-PGS
  148. Language                                 : Chinese
  149. Default                                  : No
  150. Forced                                   : No
  151. Original source medium                   : Blu-ray

  152. Text #5
  153. ID                                       : 9
  154. ID in the original source medium         : 4771 (0x12A3)
  155. Format                                   : PGS
  156. Muxing mode                              : zlib
  157. Codec ID                                 : S_HDMV/PGS
  158. Codec ID/Info                            : Picture based subtitle format used on BDs/HD-DVDs
  159. Duration                                 : 1 h 48 min
  160. Bit rate                                 : 30.2 kb/s
  161. Count of elements                        : 2822
  162. Stream size                              : 23.4 MiB (0%)
  163. Title                                    : Czech-PGS
  164. Language                                 : Czech
  165. Default                                  : No
  166. Forced                                   : No
  167. Original source medium                   : Blu-ray

  168. Text #6
  169. ID                                       : 10
  170. ID in the original source medium         : 4772 (0x12A4)
  171. Format                                   : PGS
  172. Muxing mode                              : zlib
  173. Codec ID                                 : S_HDMV/PGS
  174. Codec ID/Info                            : Picture based subtitle format used on BDs/HD-DVDs
  175. Duration                                 : 1 h 48 min
  176. Bit rate                                 : 24.0 kb/s
  177. Count of elements                        : 2426
  178. Stream size                              : 18.7 MiB (0%)
  179. Title                                    : Danish-PGS
  180. Language                                 : Danish
  181. Default                                  : No
  182. Forced                                   : No
  183. Original source medium                   : Blu-ray

  184. Text #7
  185. ID                                       : 11
  186. ID in the original source medium         : 4773 (0x12A5)
  187. Format                                   : PGS
  188. Muxing mode                              : zlib
  189. Codec ID                                 : S_HDMV/PGS
  190. Codec ID/Info                            : Picture based subtitle format used on BDs/HD-DVDs
  191. Duration                                 : 1 h 48 min
  192. Bit rate                                 : 28.6 kb/s
  193. Count of elements                        : 2502
  194. Stream size                              : 22.3 MiB (0%)
  195. Title                                    : German-PGS
  196. Language                                 : German
  197. Default                                  : No
  198. Forced                                   : No
  199. Original source medium                   : Blu-ray

  200. Text #8
  201. ID                                       : 12
  202. ID in the original source medium         : 4774 (0x12A6)
  203. Format                                   : PGS
  204. Muxing mode                              : zlib
  205. Codec ID                                 : S_HDMV/PGS
  206. Codec ID/Info                            : Picture based subtitle format used on BDs/HD-DVDs
  207. Duration                                 : 1 h 48 min
  208. Bit rate                                 : 27.2 kb/s
  209. Count of elements                        : 2474
  210. Stream size                              : 21.1 MiB (0%)
  211. Title                                    : Spanish-PGS
  212. Language                                 : Spanish
  213. Default                                  : No
  214. Forced                                   : No
  215. Original source medium                   : Blu-ray

  216. Text #9
  217. ID                                       : 13
  218. ID in the original source medium         : 4774 (0x12A6)
  219. Format                                   : PGS
  220. Muxing mode                              : zlib
  221. Codec ID                                 : S_HDMV/PGS
  222. Codec ID/Info                            : Picture based subtitle format used on BDs/HD-DVDs
  223. Duration                                 : 18 s 185 ms
  224. Bit rate                                 : 77.4 kb/s
  225. Count of elements                        : 16
  226. Stream size                              : 172 KiB (0%)
  227. Title                                    : Spanish-PGS
  228. Language                                 : Spanish
  229. Default                                  : No
  230. Forced                                   : No
  231. Original source medium                   : Blu-ray

  232. Text #10
  233. ID                                       : 14
  234. ID in the original source medium         : 4776 (0x12A8)
  235. Format                                   : PGS
  236. Muxing mode                              : zlib
  237. Codec ID                                 : S_HDMV/PGS
  238. Codec ID/Info                            : Picture based subtitle format used on BDs/HD-DVDs
  239. Duration                                 : 1 h 48 min
  240. Bit rate                                 : 27.3 kb/s
  241. Count of elements                        : 2490
  242. Stream size                              : 21.2 MiB (0%)
  243. Title                                    : French-PGS
  244. Language                                 : French
  245. Default                                  : No
  246. Forced                                   : No
  247. Original source medium                   : Blu-ray

  248. Text #11
  249. ID                                       : 15
  250. ID in the original source medium         : 4777 (0x12A9)
  251. Format                                   : PGS
  252. Muxing mode                              : zlib
  253. Codec ID                                 : S_HDMV/PGS
  254. Codec ID/Info                            : Picture based subtitle format used on BDs/HD-DVDs
  255. Duration                                 : 1 h 48 min
  256. Bit rate                                 : 25.0 kb/s
  257. Count of elements                        : 2472
  258. Stream size                              : 19.4 MiB (0%)
  259. Title                                    : Italian-PGS
  260. Language                                 : Italian
  261. Default                                  : No
  262. Forced                                   : No
  263. Original source medium                   : Blu-ray

  264. Text #12
  265. ID                                       : 16
  266. ID in the original source medium         : 4778 (0x12AA)
  267. Format                                   : PGS
  268. Muxing mode                              : zlib
  269. Codec ID                                 : S_HDMV/PGS
  270. Codec ID/Info                            : Picture based subtitle format used on BDs/HD-DVDs
  271. Duration                                 : 1 h 43 min
  272. Bit rate                                 : 18.9 kb/s
  273. Count of elements                        : 1898
  274. Stream size                              : 14.0 MiB (0%)
  275. Title                                    : Japanese-PGS
  276. Language                                 : Japanese
  277. Default                                  : No
  278. Forced                                   : No
  279. Original source medium                   : Blu-ray

  280. Text #13
  281. ID                                       : 17
  282. ID in the original source medium         : 4779 (0x12AB)
  283. Format                                   : PGS
  284. Muxing mode                              : zlib
  285. Codec ID                                 : S_HDMV/PGS
  286. Codec ID/Info                            : Picture based subtitle format used on BDs/HD-DVDs
  287. Duration                                 : 1 h 48 min
  288. Bit rate                                 : 26.2 kb/s
  289. Count of elements                        : 2596
  290. Stream size                              : 20.4 MiB (0%)
  291. Title                                    : Korean-PGS
  292. Language                                 : Korean
  293. Default                                  : No
  294. Forced                                   : No
  295. Original source medium                   : Blu-ray

  296. Text #14
  297. ID                                       : 18
  298. ID in the original source medium         : 4780 (0x12AC)
  299. Format                                   : PGS
  300. Muxing mode                              : zlib
  301. Codec ID                                 : S_HDMV/PGS
  302. Codec ID/Info                            : Picture based subtitle format used on BDs/HD-DVDs
  303. Duration                                 : 1 h 48 min
  304. Bit rate                                 : 22.1 kb/s
  305. Count of elements                        : 2690
  306. Stream size                              : 17.2 MiB (0%)
  307. Title                                    : Chinese-PGS
  308. Language                                 : Chinese
  309. Default                                  : No
  310. Forced                                   : No
  311. Original source medium                   : Blu-ray

  312. Text #15
  313. ID                                       : 19
  314. ID in the original source medium         : 4781 (0x12AD)
  315. Format                                   : PGS
  316. Muxing mode                              : zlib
  317. Codec ID                                 : S_HDMV/PGS
  318. Codec ID/Info                            : Picture based subtitle format used on BDs/HD-DVDs
  319. Duration                                 : 1 h 48 min
  320. Bit rate                                 : 26.1 kb/s
  321. Count of elements                        : 2178
  322. Stream size                              : 20.3 MiB (0%)
  323. Title                                    : Dutch-PGS
  324. Language                                 : Dutch
  325. Default                                  : No
  326. Forced                                   : No
  327. Original source medium                   : Blu-ray

  328. Text #16
  329. ID                                       : 20
  330. ID in the original source medium         : 4782 (0x12AE)
  331. Format                                   : PGS
  332. Muxing mode                              : zlib
  333. Codec ID                                 : S_HDMV/PGS
  334. Codec ID/Info                            : Picture based subtitle format used on BDs/HD-DVDs
  335. Duration                                 : 1 h 48 min
  336. Bit rate                                 : 27.8 kb/s
  337. Count of elements                        : 2508
  338. Stream size                              : 21.6 MiB (0%)
  339. Title                                    : Norwegian-PGS
  340. Language                                 : Norwegian
  341. Default                                  : No
  342. Forced                                   : No
  343. Original source medium                   : Blu-ray

  344. Text #17
  345. ID                                       : 21
  346. ID in the original source medium         : 4783 (0x12AF)
  347. Format                                   : PGS
  348. Muxing mode                              : zlib
  349. Codec ID                                 : S_HDMV/PGS
  350. Codec ID/Info                            : Picture based subtitle format used on BDs/HD-DVDs
  351. Duration                                 : 1 h 48 min
  352. Bit rate                                 : 31.1 kb/s
  353. Count of elements                        : 2422
  354. Stream size                              : 24.2 MiB (0%)
  355. Title                                    : Portuguese-PGS
  356. Language                                 : Portuguese
  357. Default                                  : No
  358. Forced                                   : No
  359. Original source medium                   : Blu-ray

  360. Text #18
  361. ID                                       : 22
  362. ID in the original source medium         : 4783 (0x12AF)
  363. Format                                   : PGS
  364. Muxing mode                              : zlib
  365. Codec ID                                 : S_HDMV/PGS
  366. Codec ID/Info                            : Picture based subtitle format used on BDs/HD-DVDs
  367. Duration                                 : 41 min 3 s
  368. Bit rate                                 : 288 b/s
  369. Count of elements                        : 10
  370. Stream size                              : 86.7 KiB (0%)
  371. Title                                    : Portuguese-PGS
  372. Language                                 : Portuguese
  373. Default                                  : No
  374. Forced                                   : No
  375. Original source medium                   : Blu-ray

  376. Text #19
  377. ID                                       : 23
  378. ID in the original source medium         : 4785 (0x12B1)
  379. Format                                   : PGS
  380. Muxing mode                              : zlib
  381. Codec ID                                 : S_HDMV/PGS
  382. Codec ID/Info                            : Picture based subtitle format used on BDs/HD-DVDs
  383. Duration                                 : 1 h 48 min
  384. Bit rate                                 : 36.4 kb/s
  385. Count of elements                        : 2592
  386. Stream size                              : 28.3 MiB (0%)
  387. Title                                    : Russian-PGS
  388. Language                                 : Russian
  389. Default                                  : No
  390. Forced                                   : No
  391. Original source medium                   : Blu-ray

  392. Text #20
  393. ID                                       : 24
  394. ID in the original source medium         : 4786 (0x12B2)
  395. Format                                   : PGS
  396. Muxing mode                              : zlib
  397. Codec ID                                 : S_HDMV/PGS
  398. Codec ID/Info                            : Picture based subtitle format used on BDs/HD-DVDs
  399. Duration                                 : 1 h 48 min
  400. Bit rate                                 : 26.4 kb/s
  401. Count of elements                        : 2480
  402. Stream size                              : 20.5 MiB (0%)
  403. Title                                    : Romanian-PGS
  404. Language                                 : Romanian
  405. Default                                  : No
  406. Forced                                   : No
  407. Original source medium                   : Blu-ray

  408. Text #21
  409. ID                                       : 25
  410. ID in the original source medium         : 4787 (0x12B3)
  411. Format                                   : PGS
  412. Muxing mode                              : zlib
  413. Codec ID                                 : S_HDMV/PGS
  414. Codec ID/Info                            : Picture based subtitle format used on BDs/HD-DVDs
  415. Duration                                 : 1 h 48 min
  416. Bit rate                                 : 27.5 kb/s
  417. Count of elements                        : 2596
  418. Stream size                              : 21.4 MiB (0%)
  419. Title                                    : Chinese-PGS
  420. Language                                 : Chinese
  421. Default                                  : No
  422. Forced                                   : No
  423. Original source medium                   : Blu-ray

  424. Text #22
  425. ID                                       : 26
  426. ID in the original source medium         : 4788 (0x12B4)
  427. Format                                   : PGS
  428. Muxing mode                              : zlib
  429. Codec ID                                 : S_HDMV/PGS
  430. Codec ID/Info                            : Picture based subtitle format used on BDs/HD-DVDs
  431. Duration                                 : 1 h 48 min
  432. Bit rate                                 : 26.8 kb/s
  433. Count of elements                        : 2230
  434. Stream size                              : 20.8 MiB (0%)
  435. Title                                    : Finnish-PGS
  436. Language                                 : Finnish
  437. Default                                  : No
  438. Forced                                   : No
  439. Original source medium                   : Blu-ray

  440. Text #23
  441. ID                                       : 27
  442. ID in the original source medium         : 4789 (0x12B5)
  443. Format                                   : PGS
  444. Muxing mode                              : zlib
  445. Codec ID                                 : S_HDMV/PGS
  446. Codec ID/Info                            : Picture based subtitle format used on BDs/HD-DVDs
  447. Duration                                 : 1 h 48 min
  448. Bit rate                                 : 23.8 kb/s
  449. Count of elements                        : 2404
  450. Stream size                              : 18.5 MiB (0%)
  451. Title                                    : Swedish-PGS
  452. Language                                 : Swedish
  453. Default                                  : No
  454. Forced                                   : No
  455. Original source medium                   : Blu-ray

  456. Text #24
  457. ID                                       : 28
  458. ID in the original source medium         : 4790 (0x12B6)
  459. Format                                   : PGS
  460. Muxing mode                              : zlib
  461. Codec ID                                 : S_HDMV/PGS
  462. Codec ID/Info                            : Picture based subtitle format used on BDs/HD-DVDs
  463. Duration                                 : 1 h 48 min
  464. Bit rate                                 : 28.3 kb/s
  465. Count of elements                        : 2834
  466. Stream size                              : 22.0 MiB (0%)
  467. Title                                    : Thai-PGS
  468. Language                                 : Thai
  469. Default                                  : No
  470. Forced                                   : No
  471. Original source medium                   : Blu-ray

  472. Menu
  473. 00:00:00.000                             : en:Chapter 01
  474. 00:02:45.165                             : en:Chapter 02
  475. 00:12:50.060                             : en:Chapter 03
  476. 00:19:08.689                             : en:Chapter 04
  477. 00:25:45.418                             : en:Chapter 05
  478. 00:29:31.186                             : en:Chapter 06
  479. 00:39:12.224                             : en:Chapter 07
  480. 00:48:04.464                             : en:Chapter 08
  481. 00:55:27.657                             : en:Chapter 09
  482. 01:01:32.563                             : en:Chapter 10
  483. 01:04:04.507                             : en:Chapter 11
  484. 01:13:42.835                             : en:Chapter 12
  485. 01:21:14.536                             : en:Chapter 13
  486. 01:27:09.891                             : en:Chapter 14
  487. 01:34:23.866                             : en:Chapter 15
  488. 01:42:03.784                             : en:Chapter 16
复制代码

壮志凌云/壮志凌云 3D Top.Gun.1986.2160p.BluRay.x265.10bit.SDR.DTS-HD.MA.TrueHD.7.1.Atmos-SWTYBLZ 51.44GB-2.png 壮志凌云/壮志凌云 3D Top.Gun.1986.2160p.BluRay.x265.10bit.SDR.DTS-HD.MA.TrueHD.7.1.Atmos-SWTYBLZ 51.44GB-3.png 壮志凌云/壮志凌云 3D Top.Gun.1986.2160p.BluRay.x265.10bit.SDR.DTS-HD.MA.TrueHD.7.1.Atmos-SWTYBLZ 51.44GB-4.png 壮志凌云/壮志凌云 3D Top.Gun.1986.2160p.BluRay.x265.10bit.SDR.DTS-HD.MA.TrueHD.7.1.Atmos-SWTYBLZ 51.44GB-5.png 壮志凌云/壮志凌云 3D Top.Gun.1986.2160p.BluRay.x265.10bit.SDR.DTS-HD.MA.TrueHD.7.1.Atmos-SWTYBLZ 51.44GB-6.png 壮志凌云/壮志凌云 3D Top.Gun.1986.2160p.BluRay.x265.10bit.SDR.DTS-HD.MA.TrueHD.7.1.Atmos-SWTYBLZ 51.44GB-7.png 壮志凌云/壮志凌云 3D Top.Gun.1986.2160p.BluRay.x265.10bit.SDR.DTS-HD.MA.TrueHD.7.1.Atmos-SWTYBLZ 51.44GB-8.png






回复

使用道具 举报

发表于 2020-5-21 16:02:44 | 显示全部楼层
楼主发贴辛苦了,谢谢楼主分享!我觉得蓝光电影网是注册对了!
回复 支持 反对

使用道具 举报

发表于 2020-5-21 16:27:04 | 显示全部楼层
看到色破解非常热破i就缺乏
回复 支持 反对

使用道具 举报

 成长值: 3580

发表于 2020-5-21 16:41:29 | 显示全部楼层
太好啦&萬分感謝版主的無私發佈分享%
回复 支持 反对

使用道具 举报

发表于 2020-5-22 13:49:59 | 显示全部楼层
楼主发贴辛苦了,谢谢楼主分享!我觉得蓝光电影网是注册对了!
回复 支持 反对

使用道具 举报

发表于 2020-5-24 07:05:34 | 显示全部楼层
经典中的经典啊
回复 支持 反对

使用道具 举报

懒得打字嘛,点击右侧快捷回复 【右侧内容,后台自定义】
您需要登录后才可以回帖 登录 | 立即加入

本版积分规则

现在加入蓝光电影网,注册一个账号
上个主题 下个主题 快速回复 收藏帖子 返回列表 客服中心 搜索

手机版|小黑屋| 蓝光电影网 |网站地图 

Copyright © 2015-2019 Comsenz Inc.  Template by 蓝光电影论坛 All Rights Reserved.

Powered by 蓝光电影网 X3.4

特别声明:本站所有资源均由网上收集而来,版权归原影音公司所有,如果侵犯了你的权益,请通知我们,我们会及时删除侵权内容.

快速回复 返回顶部 返回列表