找回密码

蓝光电影网

查看: 238|回复: 15

[10bit.HDR] 壮志凌云/壮志凌云 3D Top.Gun.1986.2160p.UHD.BluRay.x265.10bit.HDR.DTS-HD.MA.TrueHD.7.1.Atmos-SWTYBLZ 30.97GB

[复制链接]

 成长值: 26155

发表于 2020-5-20 22:48:31 | 显示全部楼层 |阅读模式
壮志凌云/壮志凌云 3D Top.Gun.1986.2160p.UHD.BluRay.x265.10bit.HDR.DTS-HD.MA.TrueHD.7.1.Atmos-SWTYBLZ 30.97GB-1.png

译  名 壮志凌云 / 壮志凌云 3D / 捍卫战士(台)
片  名 Top Gun
年  代 1986
产  地 美国
类  别 剧情 / 动作 / 爱情
语  言 英语
上映日期 1986-05-16(美国) / 2013-02-08(美国)
IMDb评分  6.9/10 from 279716 users
IMDb链接  https://www.imdb.com/title/tt0092099
豆瓣评分 7.7/10 from 55099 users
豆瓣链接 https://movie.douban.com/subject/1293799/
片  长 110分钟
导  演 托尼·斯科特 Tony Scott
编  剧 吉姆·卡什 Jim Cash / 小杰克·埃普斯 Jack Epps Jr. / 埃胡德·约纳 Ehud Yonay
主  演 汤姆·克鲁斯 Tom Cruise
       凯莉·麦吉利斯 Kelly McGillis
       方·基默 Val Kilmer
       安东尼·爱德华兹 Anthony Edwards
       汤姆·斯凯里特 Tom Skerritt
       迈克尔·艾恩塞德 Michael Ironside
       约翰·斯托克韦尔 John Stockwell
       里克·罗索维奇 Rick Rossovich
       蒂姆·罗宾斯 Tim Robbins
       小克拉伦斯·吉尔亚德 Clarence Gilyard Jr.
       维普哈布莱 Whip Hubley
       詹姆斯·托根 James Tolkan
       梅格·瑞恩 Meg Ryan
       亚德里安·帕斯达 Adrian Pasdar
       Barry Tubb


标  签 美国 | 汤姆·克鲁斯 | TomCruise | 战争 | 爱情 | 经典 | 动作 | 美国电影

简  介  

  “独行侠”皮特·米切尔(汤姆?克鲁斯 Tom Cruise 饰)的父亲是个战功显赫的老飞行员,他决心也要成为父亲那样的英雄。终于机会来了,他与军官“笨鹅”尼克·布拉德肖(安东尼?爱德华兹 Anthony Edwards 饰)一起被派到了Top Gun训练基地接受最严格的飞行训练。可是,“独行侠”的训练并不像预想中顺利,他的成绩一直不令人满意,一起训练的”冰人”汤姆·卡赞斯基(方·基默 Val Kilmer 饰)也对他也颇有微词。与此同时,“独行侠”遇到了美丽的女教官查莉(凯莉?麦吉利斯 Kelly McGillis 饰),两人对彼此暗生情愫,这令本来有些心灰意冷的“独行侠”重拾信心。在毕业前的一次训练中,“独行侠”搭档“笨鹅”再次同驾一机,但由于马达发生故障,“独行侠”与“笨鹅”被迫跳海,结果“笨鹅”不幸身亡。这次事件给“独行侠”带来了沉重的打击,本来因学业不顺就郁郁寡欢的他更加消沉了,甚至想要彻底放弃成为飞行员的梦想。“独行侠”最终能否克服心障重回蓝天?

获奖情况  

  第59届奥斯卡金像奖(1987)
  最佳剪辑(提名) 克里斯·莱本森 / 比利·韦伯
  最佳音效剪辑(提名) George Watters II / Cecelia Hall
  最佳音响(提名) 威廉·B·卡普兰 / 凯文·奥康奈尔 / 里克·克莱恩 / Donald O. Mitchell
  最佳原创歌曲 乔治·莫罗德 / Tom Whitlock

  1. Video
  2. ID                                       : 1
  3. Format                                   : HEVC
  4. Format/Info                              : High Efficiency Video Coding
  5. Format profile                           : Main 10@L5.1@High
  6. HDR format                               : SMPTE ST 2086, HDR10 compatible
  7. Codec ID                                 : V_MPEGH/ISO/HEVC
  8. Duration                                 : 1 h 49 min
  9. Bit rate                                 : 30.5 Mb/s
  10. Width                                    : 3 840 pixels
  11. Height                                   : 1 600 pixels
  12. Display aspect ratio                     : 2.40:1
  13. Frame rate mode                          : Constant
  14. Frame rate                               : 23.976 (24000/1001/45165) FPS
  15. Color space                              : YUV
  16. Chroma subsampling                       : 4:2:0 (Type 2)
  17. Bit depth                                : 10 bits
  18. Bits/(Pixel*Frame)                       : 0.207
  19. Stream size                              : 23.3 GiB (76%)
  20. Title                                    : Top.Gun.1986.2160p.UHD.BluRay.x265.10bit.HDR.DTS-HD.MA.TrueHD.7.1.Atmos-SWTYBLZ
  21. Writing library                          : x265 3.0_Au+10-74a8672ea4f7:[Windows][GCC 8.2.1][64 bit] 10bit
  22. Encoding settings                        : cpuid=1111039 / frame-threads=6 / numa-pools=40 / wpp / no-pmode / no-pme / no-psnr / no-ssim / log-level=2 / input-csp=1 / input-res=3840x1600 / interlace=0 / total-frames=0 / level-idc=51 / high-tier=1 / uhd-bd=0 / ref=3 / no-allow-non-conformance / repeat-headers / annexb / aud / hrd / info / hash=0 / no-temporal-layers / no-open-gop / min-keyint=1 / keyint=24 / gop-lookahead=0 / bframes=4 / b-adapt=2 / b-pyramid / bframe-bias=0 / rc-lookahead=25 / lookahead-slices=4 / scenecut=40 / radl=0 / no-splice / no-intra-refresh / ctu=64 / min-cu-size=8 / no-rect / no-amp / max-tu-size=32 / tu-inter-depth=1 / tu-intra-depth=1 / limit-tu=0 / rdoq-level=0 / dynamic-rd=0.00 / no-ssim-rd / signhide / no-tskip / nr-intra=0 / nr-inter=0 / no-constrained-intra / strong-intra-smoothing / max-merge=2 / limit-refs=3 / no-limit-modes / me=1 / subme=2 / merange=57 / temporal-mvp / weightp / no-weightb / no-analyze-src-pics / deblock=0:0 / no-sao / no-sao-non-deblock / rd=3 / no-early-skip / rskip / no-fast-intra / no-tskip-fast / no-cu-lossless / no-b-intra / no-splitrd-skip / rdpenalty=0 / psy-rd=2.00 / psy-rdoq=0.00 / no-rd-refine / no-lossless / cbqpoffs=0 / crqpoffs=0 / rc=crf / crf=17.0 / qcomp=0.60 / qpstep=4 / stats-write=0 / stats-read=0 / vbv-maxrate=160000 / vbv-bufsize=160000 / vbv-init=0.9 / crf-max=0.0 / crf-min=0.0 / ipratio=1.40 / pbratio=1.30 / aq-mode=1 / aq-strength=1.00 / cutree / zone-count=0 / no-strict-cbr / qg-size=32 / no-rc-grain / qpmax=69 / qpmin=0 / no-const-vbv / sar=1 / overscan=0 / videoformat=5 / range=0 / colorprim=9 / transfer=16 / colormatrix=9 / chromaloc=1 / chromaloc-top=2 / chromaloc-bottom=2 / display-window=0 / master-display=G(13250,34500)B(7500,3000)R(34000,16000)WP(15635,16450)L(40000000,50) / max-cll=1000,401 / min-luma=0 / max-luma=1023 / log2-max-poc-lsb=8 / vui-timing-info / vui-hrd-info / slices=1 / opt-qp-pps / opt-ref-list-length-pps / no-multi-pass-opt-rps / scenecut-bias=0.05 / no-opt-cu-delta-qp / no-aq-motion / hdr / hdr-opt / no-dhdr10-opt / no-idr-recovery-sei / analysis-reuse-level=5 / scale-factor=0 / refine-intra=0 / refine-inter=0 / refine-mv=0 / refine-ctu-distortion=0 / no-limit-sao / ctu-info=0 / no-lowpass-dct / refine-analysis-type=918536 / copy-pic=1 / max-ausize-factor=1.0 / no-dynamic-refine / no-single-sei / no-hevc-aq / no-svt / qp-adaptation-range=1.00
  23. Default                                  : Yes
  24. Forced                                   : No
  25. Color range                              : Limited
  26. Color primaries                          : BT.2020
  27. Transfer characteristics                 : PQ
  28. Matrix coefficients                      : BT.2020 non-constant
  29. Mastering display color primaries        : Display P3
  30. Mastering display luminance              : min: 0.0050 cd/m2, max: 4000 cd/m2
  31. Maximum Content Light Level              : 1000 cd/m2
  32. Maximum Frame-Average Light Level        : 401 cd/m2

  33. Audio #1
  34. ID                                       : 2
  35. ID in the original source medium         : 4352 (0x1100)
  36. Format                                   : MLP FBA 16-ch
  37. Format/Info                              : Meridian Lossless Packing FBA with 16-channel presentation
  38. Commercial name                          : Dolby TrueHD with Dolby Atmos
  39. Codec ID                                 : A_TRUEHD
  40. Duration                                 : 1 h 49 min
  41. Bit rate mode                            : Variable
  42. Bit rate                                 : 4 476 kb/s
  43. Maximum bit rate                         : 8 049 kb/s
  44. Channel(s)                               : 8 channels
  45. Channel layout                           : L R C LFE Ls Rs Lb Rb
  46. Sampling rate                            : 48.0 kHz
  47. Frame rate                               : 1 200.000 FPS (40 SPF)
  48. Compression mode                         : Lossless
  49. Stream size                              : 3.42 GiB (11%)
  50. Title                                    : Top.Gun.1986.2160p.UHD.BluRay.x265.10bit.HDR.DTS-HD.MA.TrueHD.7.1.Atmos-SWTYBLZ
  51. Language                                 : English
  52. Default                                  : Yes
  53. Forced                                   : No
  54. Original source medium                   : Blu-ray
  55. Number of dynamic objects                : 11
  56. Bed channel count                        : 1 channel
  57. Bed channel configuration                : LFE

  58. Audio #2
  59. ID                                       : 3
  60. Format                                   : DTS XLL
  61. Format/Info                              : Digital Theater Systems
  62. Commercial name                          : DTS-HD Master Audio
  63. Codec ID                                 : A_DTS
  64. Duration                                 : 1 h 49 min
  65. Bit rate mode                            : Variable
  66. Bit rate                                 : 4 350 kb/s
  67. Channel(s)                               : 8 channels
  68. Channel layout                           : C L R LFE Lb Rb Lss Rss
  69. Sampling rate                            : 48.0 kHz
  70. Frame rate                               : 93.750 FPS (512 SPF)
  71. Bit depth                                : 24 bits
  72. Compression mode                         : Lossless
  73. Stream size                              : 3.33 GiB (11%)
  74. Title                                    : Top.Gun.1986.2160p.UHD.BluRay.x265.10bit.HDR.DTS-HD.MA.TrueHD.7.1.Atmos-SWTYBLZ
  75. Language                                 : English
  76. Default                                  : No
  77. Forced                                   : No

  78. Audio #3
  79. ID                                       : 4
  80. ID in the original source medium         : 4352 (0x1100)
  81. Format                                   : AC-3
  82. Format/Info                              : Audio Coding 3
  83. Commercial name                          : Dolby Digital
  84. Codec ID                                 : A_AC3
  85. Duration                                 : 1 h 49 min
  86. Bit rate mode                            : Constant
  87. Bit rate                                 : 640 kb/s
  88. Channel(s)                               : 6 channels
  89. Channel layout                           : L R C LFE Ls Rs
  90. Sampling rate                            : 48.0 kHz
  91. Frame rate                               : 31.250 FPS (1536 SPF)
  92. Bit depth                                : 16 bits
  93. Compression mode                         : Lossy
  94. Stream size                              : 501 MiB (2%)
  95. Title                                    : Top.Gun.1986.2160p.UHD.BluRay.x265.10bit.HDR.DTS-HD.MA.TrueHD.7.1.Atmos-SWTYBLZ
  96. Language                                 : English
  97. Service kind                             : Complete Main
  98. Default                                  : No
  99. Forced                                   : No
  100. Original source medium                   : Blu-ray

  101. Text #1
  102. ID                                       : 5
  103. Format                                   : UTF-8
  104. Codec ID                                 : S_TEXT/UTF8
  105. Codec ID/Info                            : UTF-8 Plain Text
  106. Duration                                 : 1 h 40 min
  107. Bit rate                                 : 59 b/s
  108. Count of elements                        : 1384
  109. Stream size                              : 43.4 KiB (0%)
  110. Title                                    : English-SRT
  111. Language                                 : English
  112. Default                                  : Yes
  113. Forced                                   : No

  114. Text #2
  115. ID                                       : 6
  116. ID in the original source medium         : 4768 (0x12A0)
  117. Format                                   : PGS
  118. Muxing mode                              : zlib
  119. Codec ID                                 : S_HDMV/PGS
  120. Codec ID/Info                            : Picture based subtitle format used on BDs/HD-DVDs
  121. Duration                                 : 1 h 40 min
  122. Bit rate                                 : 38.7 kb/s
  123. Count of elements                        : 2782
  124. Stream size                              : 27.8 MiB (0%)
  125. Title                                    : English-PGS
  126. Language                                 : English
  127. Default                                  : No
  128. Forced                                   : No
  129. Original source medium                   : Blu-ray

  130. Text #3
  131. ID                                       : 7
  132. ID in the original source medium         : 4769 (0x12A1)
  133. Format                                   : PGS
  134. Muxing mode                              : zlib
  135. Codec ID                                 : S_HDMV/PGS
  136. Codec ID/Info                            : Picture based subtitle format used on BDs/HD-DVDs
  137. Duration                                 : 1 h 42 min
  138. Bit rate                                 : 40.5 kb/s
  139. Count of elements                        : 2998
  140. Stream size                              : 29.8 MiB (0%)
  141. Title                                    : English-SDH-PGS
  142. Language                                 : English
  143. Default                                  : No
  144. Forced                                   : No
  145. Original source medium                   : Blu-ray

  146. Text #4
  147. ID                                       : 8
  148. ID in the original source medium         : 4770 (0x12A2)
  149. Format                                   : PGS
  150. Muxing mode                              : zlib
  151. Codec ID                                 : S_HDMV/PGS
  152. Codec ID/Info                            : Picture based subtitle format used on BDs/HD-DVDs
  153. Duration                                 : 1 h 48 min
  154. Bit rate                                 : 25.6 kb/s
  155. Count of elements                        : 2612
  156. Stream size                              : 19.9 MiB (0%)
  157. Title                                    : Chinese-PGS
  158. Language                                 : Chinese
  159. Default                                  : No
  160. Forced                                   : No
  161. Original source medium                   : Blu-ray

  162. Text #5
  163. ID                                       : 9
  164. ID in the original source medium         : 4771 (0x12A3)
  165. Format                                   : PGS
  166. Muxing mode                              : zlib
  167. Codec ID                                 : S_HDMV/PGS
  168. Codec ID/Info                            : Picture based subtitle format used on BDs/HD-DVDs
  169. Duration                                 : 1 h 48 min
  170. Bit rate                                 : 30.2 kb/s
  171. Count of elements                        : 2822
  172. Stream size                              : 23.4 MiB (0%)
  173. Title                                    : Czech-PGS
  174. Language                                 : Czech
  175. Default                                  : No
  176. Forced                                   : No
  177. Original source medium                   : Blu-ray

  178. Text #6
  179. ID                                       : 10
  180. ID in the original source medium         : 4772 (0x12A4)
  181. Format                                   : PGS
  182. Muxing mode                              : zlib
  183. Codec ID                                 : S_HDMV/PGS
  184. Codec ID/Info                            : Picture based subtitle format used on BDs/HD-DVDs
  185. Duration                                 : 1 h 48 min
  186. Bit rate                                 : 24.0 kb/s
  187. Count of elements                        : 2426
  188. Stream size                              : 18.7 MiB (0%)
  189. Title                                    : Danish-PGS
  190. Language                                 : Danish
  191. Default                                  : No
  192. Forced                                   : No
  193. Original source medium                   : Blu-ray

  194. Text #7
  195. ID                                       : 11
  196. ID in the original source medium         : 4773 (0x12A5)
  197. Format                                   : PGS
  198. Muxing mode                              : zlib
  199. Codec ID                                 : S_HDMV/PGS
  200. Codec ID/Info                            : Picture based subtitle format used on BDs/HD-DVDs
  201. Duration                                 : 1 h 48 min
  202. Bit rate                                 : 28.6 kb/s
  203. Count of elements                        : 2502
  204. Stream size                              : 22.3 MiB (0%)
  205. Title                                    : German-PGS
  206. Language                                 : German
  207. Default                                  : No
  208. Forced                                   : No
  209. Original source medium                   : Blu-ray

  210. Text #8
  211. ID                                       : 12
  212. ID in the original source medium         : 4774 (0x12A6)
  213. Format                                   : PGS
  214. Muxing mode                              : zlib
  215. Codec ID                                 : S_HDMV/PGS
  216. Codec ID/Info                            : Picture based subtitle format used on BDs/HD-DVDs
  217. Duration                                 : 1 h 48 min
  218. Bit rate                                 : 27.2 kb/s
  219. Count of elements                        : 2474
  220. Stream size                              : 21.1 MiB (0%)
  221. Title                                    : Spanish-PGS
  222. Language                                 : Spanish
  223. Default                                  : No
  224. Forced                                   : No
  225. Original source medium                   : Blu-ray

  226. Text #9
  227. ID                                       : 13
  228. ID in the original source medium         : 4774 (0x12A6)
  229. Format                                   : PGS
  230. Muxing mode                              : zlib
  231. Codec ID                                 : S_HDMV/PGS
  232. Codec ID/Info                            : Picture based subtitle format used on BDs/HD-DVDs
  233. Duration                                 : 18 s 185 ms
  234. Bit rate                                 : 77.4 kb/s
  235. Count of elements                        : 16
  236. Stream size                              : 172 KiB (0%)
  237. Title                                    : Spanish-PGS
  238. Language                                 : Spanish
  239. Default                                  : No
  240. Forced                                   : No
  241. Original source medium                   : Blu-ray

  242. Text #10
  243. ID                                       : 14
  244. ID in the original source medium         : 4776 (0x12A8)
  245. Format                                   : PGS
  246. Muxing mode                              : zlib
  247. Codec ID                                 : S_HDMV/PGS
  248. Codec ID/Info                            : Picture based subtitle format used on BDs/HD-DVDs
  249. Duration                                 : 1 h 48 min
  250. Bit rate                                 : 27.3 kb/s
  251. Count of elements                        : 2490
  252. Stream size                              : 21.2 MiB (0%)
  253. Title                                    : French-PGS
  254. Language                                 : French
  255. Default                                  : No
  256. Forced                                   : No
  257. Original source medium                   : Blu-ray

  258. Text #11
  259. ID                                       : 15
  260. ID in the original source medium         : 4777 (0x12A9)
  261. Format                                   : PGS
  262. Muxing mode                              : zlib
  263. Codec ID                                 : S_HDMV/PGS
  264. Codec ID/Info                            : Picture based subtitle format used on BDs/HD-DVDs
  265. Duration                                 : 1 h 48 min
  266. Bit rate                                 : 25.0 kb/s
  267. Count of elements                        : 2472
  268. Stream size                              : 19.4 MiB (0%)
  269. Title                                    : Italian-PGS
  270. Language                                 : Italian
  271. Default                                  : No
  272. Forced                                   : No
  273. Original source medium                   : Blu-ray

  274. Text #12
  275. ID                                       : 16
  276. ID in the original source medium         : 4778 (0x12AA)
  277. Format                                   : PGS
  278. Muxing mode                              : zlib
  279. Codec ID                                 : S_HDMV/PGS
  280. Codec ID/Info                            : Picture based subtitle format used on BDs/HD-DVDs
  281. Duration                                 : 1 h 43 min
  282. Bit rate                                 : 18.9 kb/s
  283. Count of elements                        : 1898
  284. Stream size                              : 14.0 MiB (0%)
  285. Title                                    : Japanese-PGS
  286. Language                                 : Japanese
  287. Default                                  : No
  288. Forced                                   : No
  289. Original source medium                   : Blu-ray

  290. Text #13
  291. ID                                       : 17
  292. ID in the original source medium         : 4779 (0x12AB)
  293. Format                                   : PGS
  294. Muxing mode                              : zlib
  295. Codec ID                                 : S_HDMV/PGS
  296. Codec ID/Info                            : Picture based subtitle format used on BDs/HD-DVDs
  297. Duration                                 : 1 h 48 min
  298. Bit rate                                 : 26.2 kb/s
  299. Count of elements                        : 2596
  300. Stream size                              : 20.4 MiB (0%)
  301. Title                                    : Korean-PGS
  302. Language                                 : Korean
  303. Default                                  : No
  304. Forced                                   : No
  305. Original source medium                   : Blu-ray

  306. Text #14
  307. ID                                       : 18
  308. ID in the original source medium         : 4780 (0x12AC)
  309. Format                                   : PGS
  310. Muxing mode                              : zlib
  311. Codec ID                                 : S_HDMV/PGS
  312. Codec ID/Info                            : Picture based subtitle format used on BDs/HD-DVDs
  313. Duration                                 : 1 h 48 min
  314. Bit rate                                 : 22.1 kb/s
  315. Count of elements                        : 2690
  316. Stream size                              : 17.2 MiB (0%)
  317. Title                                    : Chinese-PGS
  318. Language                                 : Chinese
  319. Default                                  : No
  320. Forced                                   : No
  321. Original source medium                   : Blu-ray

  322. Text #15
  323. ID                                       : 19
  324. ID in the original source medium         : 4781 (0x12AD)
  325. Format                                   : PGS
  326. Muxing mode                              : zlib
  327. Codec ID                                 : S_HDMV/PGS
  328. Codec ID/Info                            : Picture based subtitle format used on BDs/HD-DVDs
  329. Duration                                 : 1 h 48 min
  330. Bit rate                                 : 26.1 kb/s
  331. Count of elements                        : 2178
  332. Stream size                              : 20.3 MiB (0%)
  333. Title                                    : Dutch-PGS
  334. Language                                 : Dutch
  335. Default                                  : No
  336. Forced                                   : No
  337. Original source medium                   : Blu-ray

  338. Text #16
  339. ID                                       : 20
  340. ID in the original source medium         : 4782 (0x12AE)
  341. Format                                   : PGS
  342. Muxing mode                              : zlib
  343. Codec ID                                 : S_HDMV/PGS
  344. Codec ID/Info                            : Picture based subtitle format used on BDs/HD-DVDs
  345. Duration                                 : 1 h 48 min
  346. Bit rate                                 : 27.8 kb/s
  347. Count of elements                        : 2508
  348. Stream size                              : 21.6 MiB (0%)
  349. Title                                    : Norwegian-PGS
  350. Language                                 : Norwegian
  351. Default                                  : No
  352. Forced                                   : No
  353. Original source medium                   : Blu-ray

  354. Text #17
  355. ID                                       : 21
  356. ID in the original source medium         : 4783 (0x12AF)
  357. Format                                   : PGS
  358. Muxing mode                              : zlib
  359. Codec ID                                 : S_HDMV/PGS
  360. Codec ID/Info                            : Picture based subtitle format used on BDs/HD-DVDs
  361. Duration                                 : 1 h 48 min
  362. Bit rate                                 : 31.1 kb/s
  363. Count of elements                        : 2422
  364. Stream size                              : 24.2 MiB (0%)
  365. Title                                    : Portuguese-PGS
  366. Language                                 : Portuguese
  367. Default                                  : No
  368. Forced                                   : No
  369. Original source medium                   : Blu-ray

  370. Text #18
  371. ID                                       : 22
  372. ID in the original source medium         : 4783 (0x12AF)
  373. Format                                   : PGS
  374. Muxing mode                              : zlib
  375. Codec ID                                 : S_HDMV/PGS
  376. Codec ID/Info                            : Picture based subtitle format used on BDs/HD-DVDs
  377. Duration                                 : 41 min 3 s
  378. Bit rate                                 : 288 b/s
  379. Count of elements                        : 10
  380. Stream size                              : 86.7 KiB (0%)
  381. Title                                    : Portuguese-PGS
  382. Language                                 : Portuguese
  383. Default                                  : No
  384. Forced                                   : No
  385. Original source medium                   : Blu-ray

  386. Text #19
  387. ID                                       : 23
  388. ID in the original source medium         : 4785 (0x12B1)
  389. Format                                   : PGS
  390. Muxing mode                              : zlib
  391. Codec ID                                 : S_HDMV/PGS
  392. Codec ID/Info                            : Picture based subtitle format used on BDs/HD-DVDs
  393. Duration                                 : 1 h 48 min
  394. Bit rate                                 : 36.4 kb/s
  395. Count of elements                        : 2592
  396. Stream size                              : 28.3 MiB (0%)
  397. Title                                    : Russian-PGS
  398. Language                                 : Russian
  399. Default                                  : No
  400. Forced                                   : No
  401. Original source medium                   : Blu-ray

  402. Text #20
  403. ID                                       : 24
  404. ID in the original source medium         : 4786 (0x12B2)
  405. Format                                   : PGS
  406. Muxing mode                              : zlib
  407. Codec ID                                 : S_HDMV/PGS
  408. Codec ID/Info                            : Picture based subtitle format used on BDs/HD-DVDs
  409. Duration                                 : 1 h 48 min
  410. Bit rate                                 : 26.4 kb/s
  411. Count of elements                        : 2480
  412. Stream size                              : 20.5 MiB (0%)
  413. Title                                    : Romanian-PGS
  414. Language                                 : Romanian
  415. Default                                  : No
  416. Forced                                   : No
  417. Original source medium                   : Blu-ray

  418. Text #21
  419. ID                                       : 25
  420. ID in the original source medium         : 4787 (0x12B3)
  421. Format                                   : PGS
  422. Muxing mode                              : zlib
  423. Codec ID                                 : S_HDMV/PGS
  424. Codec ID/Info                            : Picture based subtitle format used on BDs/HD-DVDs
  425. Duration                                 : 1 h 48 min
  426. Bit rate                                 : 27.5 kb/s
  427. Count of elements                        : 2596
  428. Stream size                              : 21.4 MiB (0%)
  429. Title                                    : Chinese-PGS
  430. Language                                 : Chinese
  431. Default                                  : No
  432. Forced                                   : No
  433. Original source medium                   : Blu-ray

  434. Text #22
  435. ID                                       : 26
  436. ID in the original source medium         : 4788 (0x12B4)
  437. Format                                   : PGS
  438. Muxing mode                              : zlib
  439. Codec ID                                 : S_HDMV/PGS
  440. Codec ID/Info                            : Picture based subtitle format used on BDs/HD-DVDs
  441. Duration                                 : 1 h 48 min
  442. Bit rate                                 : 26.8 kb/s
  443. Count of elements                        : 2230
  444. Stream size                              : 20.8 MiB (0%)
  445. Title                                    : Finnish-PGS
  446. Language                                 : Finnish
  447. Default                                  : No
  448. Forced                                   : No
  449. Original source medium                   : Blu-ray

  450. Text #23
  451. ID                                       : 27
  452. ID in the original source medium         : 4789 (0x12B5)
  453. Format                                   : PGS
  454. Muxing mode                              : zlib
  455. Codec ID                                 : S_HDMV/PGS
  456. Codec ID/Info                            : Picture based subtitle format used on BDs/HD-DVDs
  457. Duration                                 : 1 h 48 min
  458. Bit rate                                 : 23.8 kb/s
  459. Count of elements                        : 2404
  460. Stream size                              : 18.5 MiB (0%)
  461. Title                                    : Swedish-PGS
  462. Language                                 : Swedish
  463. Default                                  : No
  464. Forced                                   : No
  465. Original source medium                   : Blu-ray

  466. Text #24
  467. ID                                       : 28
  468. ID in the original source medium         : 4790 (0x12B6)
  469. Format                                   : PGS
  470. Muxing mode                              : zlib
  471. Codec ID                                 : S_HDMV/PGS
  472. Codec ID/Info                            : Picture based subtitle format used on BDs/HD-DVDs
  473. Duration                                 : 1 h 48 min
  474. Bit rate                                 : 28.3 kb/s
  475. Count of elements                        : 2834
  476. Stream size                              : 22.0 MiB (0%)
  477. Title                                    : Thai-PGS
  478. Language                                 : Thai
  479. Default                                  : No
  480. Forced                                   : No
  481. Original source medium                   : Blu-ray

  482. Menu
  483. 00:00:00.000                             : en:Chapter 01
  484. 00:02:45.165                             : en:Chapter 02
  485. 00:12:50.060                             : en:Chapter 03
  486. 00:19:08.689                             : en:Chapter 04
  487. 00:25:45.418                             : en:Chapter 05
  488. 00:29:31.186                             : en:Chapter 06
  489. 00:39:12.224                             : en:Chapter 07
  490. 00:48:04.464                             : en:Chapter 08
  491. 00:55:27.657                             : en:Chapter 09
  492. 01:01:32.563                             : en:Chapter 10
  493. 01:04:04.507                             : en:Chapter 11
  494. 01:13:42.835                             : en:Chapter 12
  495. 01:21:14.536                             : en:Chapter 13
  496. 01:27:09.891                             : en:Chapter 14
  497. 01:34:23.866                             : en:Chapter 15
  498. 01:42:03.784                             : en:Chapter 16
复制代码
205944khmqg5gra8zwwluu.png 205944vepbnwn3wnvnssbx.png 205944png32n3s78tpqqqa.png 205945fvp1vp3rv75bv6ve.png 205945p6j4wp58rw68kkwj.png 205945iyaj4vzpjy11cfua.png 205946b78mk8ks8qk867k8.png




回复

使用道具 举报

发表于 2020-5-21 01:22:27 | 显示全部楼层
楼主发贴辛苦了,谢谢楼主分享!我觉得蓝光电影网是注册对了!
回复 支持 反对

使用道具 举报

发表于 2020-5-21 04:54:23 | 显示全部楼层
楼主发贴辛苦了,谢谢楼主分享!我觉得蓝光电影网是注册对了!
回复 支持 反对

使用道具 举报

发表于 2020-5-21 04:57:58 | 显示全部楼层

楼主,大恩不言谢了!蓝光电影网是最棒的!
回复 支持 反对

使用道具 举报

发表于 2020-5-21 07:23:50 | 显示全部楼层

既然你诚信诚意的推荐了,那我就勉为其难的看看吧!蓝光电影网不走平凡路。
回复 支持 反对

使用道具 举报

发表于 2020-5-21 08:08:27 | 显示全部楼层
楼主发贴辛苦了,谢谢楼主分享!我觉得蓝光电影网是注册对了!
回复 支持 反对

使用道具 举报

发表于 2020-5-21 08:52:30 | 显示全部楼层

楼主太厉害了!楼主,电影应该很好看我觉得蓝光电影网真是个好地方!
回复 支持 反对

使用道具 举报

发表于 2020-5-21 09:26:25 | 显示全部楼层
楼主发贴辛苦了,谢谢楼主分享!我觉得蓝光电影网是注册对了!
回复 支持 反对

使用道具 举报

发表于 2020-5-21 09:45:48 | 显示全部楼层
楼主发贴辛苦了,谢谢楼主分享!我觉得蓝光电影网是注册对了!
回复 支持 反对

使用道具 举报

发表于 2020-5-21 10:28:32 | 显示全部楼层
谢谢分享!
回复

使用道具 举报

懒得打字嘛,点击右侧快捷回复 【右侧内容,后台自定义】
您需要登录后才可以回帖 登录 | 立即加入

本版积分规则

现在加入蓝光电影网,注册一个账号
上个主题 下个主题 快速回复 收藏帖子 返回列表 客服中心 搜索

手机版|小黑屋| 蓝光电影网 |网站地图 

Copyright © 2015-2019 Comsenz Inc.  Template by 蓝光电影论坛 All Rights Reserved.

Powered by 蓝光电影网 X3.4

特别声明:本站所有资源均由网上收集而来,版权归原影音公司所有,如果侵犯了你的权益,请通知我们,我们会及时删除侵权内容.

快速回复 返回顶部 返回列表