找回密码

蓝光电影网

查看: 107|回复: 5

[REMUX.HEVC] 壮志凌云/壮志凌云 3D Top.Gun.1986.2160p.BluRay.REMUX.HEVC.DTS-HD.MA.TrueHD.7.1.Atmos-FGT 57.97GB

[复制链接]

 成长值: 26155

发表于 2020-5-20 22:17:27 | 显示全部楼层 |阅读模式
壮志凌云/壮志凌云 3D Top.Gun.1986.2160p.BluRay.REMUX.HEVC.DTS-HD.MA.TrueHD.7.1.Atmos-FGT 57.97GB-1.png

译  名 壮志凌云 / 壮志凌云 3D / 捍卫战士(台)
片  名 Top Gun
年  代 1986
产  地 美国
类  别 剧情 / 动作 / 爱情
语  言 英语
上映日期 1986-05-16(美国) / 2013-02-08(美国)
IMDb评分  6.9/10 from 279716 users
IMDb链接  https://www.imdb.com/title/tt0092099
豆瓣评分 7.7/10 from 55099 users
豆瓣链接 https://movie.douban.com/subject/1293799/
片  长 110分钟
导  演 托尼·斯科特 Tony Scott
编  剧 吉姆·卡什 Jim Cash / 小杰克·埃普斯 Jack Epps Jr. / 埃胡德·约纳 Ehud Yonay
主  演 汤姆·克鲁斯 Tom Cruise
       凯莉·麦吉利斯 Kelly McGillis
       方·基默 Val Kilmer
       安东尼·爱德华兹 Anthony Edwards
       汤姆·斯凯里特 Tom Skerritt
       迈克尔·艾恩塞德 Michael Ironside
       约翰·斯托克韦尔 John Stockwell
       里克·罗索维奇 Rick Rossovich
       蒂姆·罗宾斯 Tim Robbins
       小克拉伦斯·吉尔亚德 Clarence Gilyard Jr.
       维普哈布莱 Whip Hubley
       詹姆斯·托根 James Tolkan
       梅格·瑞恩 Meg Ryan
       亚德里安·帕斯达 Adrian Pasdar
       Barry Tubb


标  签 美国 | 汤姆·克鲁斯 | TomCruise | 战争 | 爱情 | 经典 | 动作 | 美国电影

简  介  

  “独行侠”皮特·米切尔(汤姆?克鲁斯 Tom Cruise 饰)的父亲是个战功显赫的老飞行员,他决心也要成为父亲那样的英雄。终于机会来了,他与军官“笨鹅”尼克·布拉德肖(安东尼?爱德华兹 Anthony Edwards 饰)一起被派到了Top Gun训练基地接受最严格的飞行训练。可是,“独行侠”的训练并不像预想中顺利,他的成绩一直不令人满意,一起训练的”冰人”汤姆·卡赞斯基(方·基默 Val Kilmer 饰)也对他也颇有微词。与此同时,“独行侠”遇到了美丽的女教官查莉(凯莉?麦吉利斯 Kelly McGillis 饰),两人对彼此暗生情愫,这令本来有些心灰意冷的“独行侠”重拾信心。在毕业前的一次训练中,“独行侠”搭档“笨鹅”再次同驾一机,但由于马达发生故障,“独行侠”与“笨鹅”被迫跳海,结果“笨鹅”不幸身亡。这次事件给“独行侠”带来了沉重的打击,本来因学业不顺就郁郁寡欢的他更加消沉了,甚至想要彻底放弃成为飞行员的梦想。“独行侠”最终能否克服心障重回蓝天?

获奖情况  

  第59届奥斯卡金像奖(1987)
  最佳剪辑(提名) 克里斯·莱本森 / 比利·韦伯
  最佳音效剪辑(提名) George Watters II / Cecelia Hall
  最佳音响(提名) 威廉·B·卡普兰 / 凯文·奥康奈尔 / 里克·克莱恩 / Donald O. Mitchell
  最佳原创歌曲 乔治·莫罗德 / Tom Whitlock
  1. Video #1
  2. ID                                       : 1
  3. ID in the original source medium         : 4113 (0x1011)
  4. Format                                   : HEVC
  5. Format/Info                              : High Efficiency Video Coding
  6. Format profile                           : Main High@L4@High
  7. HDR format                               : SMPTE ST 2086, HDR10 compatible
  8. Codec ID                                 : V_MPEGH/ISO/HEVC
  9. Duration                                 : 1 h 49 min
  10. Bit rate                                 : 55.9 Mb/s
  11. Width                                    : 3 840 pixels
  12. Height                                   : 2 160 pixels
  13. Display aspect ratio                     : 16:9
  14. Frame rate mode                          : Constant
  15. Frame rate                               : 23.976 (24000/1001/189150) FPS
  16. Color space                              : YUV
  17. Chroma subsampling                       : 4:2:0 (Type 2)
  18. Bit depth                                : 10 bits
  19. Bits/(Pixel*Frame)                       : 0.281
  20. Stream size                              : 42.7 GiB (74%)
  21. Title                                    : Top.Gun.1986.2160p.BluRay.REMUX.HEVC.DTS-HD.MA.TrueHD.7.1.Atmos-FGT
  22. Language                                 : English
  23. Default                                  : Yes
  24. Forced                                   : No
  25. Color range                              : Limited
  26. Color primaries                          : BT.2020
  27. Transfer characteristics                 : PQ
  28. Matrix coefficients                      : BT.2020 non-constant
  29. Mastering display color primaries        : Display P3
  30. Mastering display luminance              : min: 0.0050 cd/m2, max: 4000 cd/m2
  31. Maximum Content Light Level              : 1000 cd/m2
  32. Maximum Frame-Average Light Level        : 401 cd/m2
  33. Original source medium                   : Blu-ray


  34. Video #2
  35. ID                                       : 2
  36. ID in the original source medium         : 4117 (0x1015)
  37. Format                                   : HEVC
  38. Format/Info                              : High Efficiency Video Coding
  39. Format profile                           : Main High@L4@High
  40. HDR format                               : SMPTE ST 2086, HDR10 compatible
  41. Codec ID                                 : V_MPEGH/ISO/HEVC
  42. Duration                                 : 1 h 49 min
  43. Bit rate                                 : 4 786 kb/s
  44. Width                                    : 1 920 pixels
  45. Height                                   : 1 080 pixels
  46. Display aspect ratio                     : 16:9
  47. Frame rate mode                          : Constant
  48. Frame rate                               : 23.976 (24000/1001/189150) FPS
  49. Color space                              : YUV
  50. Chroma subsampling                       : 4:2:0 (Type 2)
  51. Bit depth                                : 10 bits
  52. Bits/(Pixel*Frame)                       : 0.096
  53. Stream size                              : 3.66 GiB (6%)
  54. Title                                    : Top.Gun.1986.2160p.BluRay.REMUX.HEVC.DTS-HD.MA.TrueHD.7.1.Atmos-FGT
  55. Language                                 : English
  56. Default                                  : No
  57. Forced                                   : No
  58. Color range                              : Limited
  59. Color primaries                          : BT.2020
  60. Transfer characteristics                 : PQ
  61. Matrix coefficients                      : BT.2020 non-constant
  62. Mastering display color primaries        : Display P3
  63. Mastering display luminance              : min: 0.0050 cd/m2, max: 4000 cd/m2
  64. Original source medium                   : Blu-ray

  65. Audio #1
  66. ID                                       : 3
  67. ID in the original source medium         : 4352 (0x1100)
  68. Format                                   : MLP FBA 16-ch
  69. Format/Info                              : Meridian Lossless Packing FBA with 16-channel presentation
  70. Commercial name                          : Dolby TrueHD with Dolby Atmos
  71. Codec ID                                 : A_TRUEHD
  72. Duration                                 : 1 h 49 min
  73. Bit rate mode                            : Variable
  74. Bit rate                                 : 4 476 kb/s
  75. Maximum bit rate                         : 8 049 kb/s
  76. Channel(s)                               : 8 channels
  77. Channel layout                           : L R C LFE Ls Rs Lb Rb
  78. Sampling rate                            : 48.0 kHz
  79. Frame rate                               : 1 200.000 FPS (40 SPF)
  80. Compression mode                         : Lossless
  81. Stream size                              : 3.42 GiB (6%)
  82. Title                                    : Top.Gun.1986.2160p.BluRay.REMUX.HEVC.DTS-HD.MA.TrueHD.7.1.Atmos-FGT
  83. Language                                 : English
  84. Default                                  : Yes
  85. Forced                                   : No
  86. Original source medium                   : Blu-ray
  87. Number of dynamic objects                : 11
  88. Bed channel count                        : 1 channel
  89. Bed channel configuration                : LFE

  90. Audio #2
  91. ID                                       : 4
  92. Format                                   : DTS XLL
  93. Format/Info                              : Digital Theater Systems
  94. Commercial name                          : DTS-HD Master Audio
  95. Codec ID                                 : A_DTS
  96. Duration                                 : 1 h 49 min
  97. Bit rate mode                            : Variable
  98. Bit rate                                 : 4 350 kb/s
  99. Channel(s)                               : 8 channels
  100. Channel layout                           : C L R LFE Lb Rb Lss Rss
  101. Sampling rate                            : 48.0 kHz
  102. Frame rate                               : 93.750 FPS (512 SPF)
  103. Bit depth                                : 24 bits
  104. Compression mode                         : Lossless
  105. Stream size                              : 3.33 GiB (6%)
  106. Title                                    : Top.Gun.1986.2160p.BluRay.REMUX.HEVC.DTS-HD.MA.TrueHD.7.1.Atmos-FGT
  107. Language                                 : English
  108. Default                                  : No
  109. Forced                                   : No

  110. Audio #3
  111. ID                                       : 5
  112. ID in the original source medium         : 4352 (0x1100)
  113. Format                                   : AC-3
  114. Format/Info                              : Audio Coding 3
  115. Commercial name                          : Dolby Digital
  116. Codec ID                                 : A_AC3
  117. Duration                                 : 1 h 49 min
  118. Bit rate mode                            : Constant
  119. Bit rate                                 : 640 kb/s
  120. Channel(s)                               : 6 channels
  121. Channel layout                           : L R C LFE Ls Rs
  122. Sampling rate                            : 48.0 kHz
  123. Frame rate                               : 31.250 FPS (1536 SPF)
  124. Bit depth                                : 16 bits
  125. Compression mode                         : Lossy
  126. Stream size                              : 501 MiB (1%)
  127. Title                                    : Top.Gun.1986.2160p.BluRay.REMUX.HEVC.DTS-HD.MA.TrueHD.7.1.Atmos-FGT
  128. Language                                 : English
  129. Service kind                             : Complete Main
  130. Default                                  : No
  131. Forced                                   : No
  132. Original source medium                   : Blu-ray

  133. Audio #4
  134. ID                                       : 6
  135. ID in the original source medium         : 4353 (0x1101)
  136. Format                                   : AC-3
  137. Format/Info                              : Audio Coding 3
  138. Commercial name                          : Dolby Digital
  139. Codec ID                                 : A_AC3
  140. Duration                                 : 1 h 49 min
  141. Bit rate mode                            : Constant
  142. Bit rate                                 : 640 kb/s
  143. Channel(s)                               : 6 channels
  144. Channel layout                           : L R C LFE Ls Rs
  145. Sampling rate                            : 48.0 kHz
  146. Frame rate                               : 31.250 FPS (1536 SPF)
  147. Bit depth                                : 16 bits
  148. Compression mode                         : Lossy
  149. Stream size                              : 501 MiB (1%)
  150. Title                                    : Top.Gun.1986.2160p.BluRay.REMUX.HEVC.DTS-HD.MA.TrueHD.7.1.Atmos-FGT
  151. Language                                 : German
  152. Service kind                             : Complete Main
  153. Default                                  : No
  154. Forced                                   : No
  155. Original source medium                   : Blu-ray

  156. Audio #5
  157. ID                                       : 7
  158. ID in the original source medium         : 4354 (0x1102)
  159. Format                                   : AC-3
  160. Format/Info                              : Audio Coding 3
  161. Commercial name                          : Dolby Digital
  162. Codec ID                                 : A_AC3
  163. Duration                                 : 1 h 49 min
  164. Bit rate mode                            : Constant
  165. Bit rate                                 : 640 kb/s
  166. Channel(s)                               : 6 channels
  167. Channel layout                           : L R C LFE Ls Rs
  168. Sampling rate                            : 48.0 kHz
  169. Frame rate                               : 31.250 FPS (1536 SPF)
  170. Bit depth                                : 16 bits
  171. Compression mode                         : Lossy
  172. Stream size                              : 501 MiB (1%)
  173. Title                                    : Top.Gun.1986.2160p.BluRay.REMUX.HEVC.DTS-HD.MA.TrueHD.7.1.Atmos-FGT
  174. Language                                 : Spanish
  175. Service kind                             : Complete Main
  176. Default                                  : No
  177. Forced                                   : No
  178. Original source medium                   : Blu-ray

  179. Audio #6
  180. ID                                       : 8
  181. ID in the original source medium         : 4355 (0x1103)
  182. Format                                   : AC-3
  183. Format/Info                              : Audio Coding 3
  184. Commercial name                          : Dolby Digital
  185. Codec ID                                 : A_AC3
  186. Duration                                 : 1 h 49 min
  187. Bit rate mode                            : Constant
  188. Bit rate                                 : 640 kb/s
  189. Channel(s)                               : 6 channels
  190. Channel layout                           : L R C LFE Ls Rs
  191. Sampling rate                            : 48.0 kHz
  192. Frame rate                               : 31.250 FPS (1536 SPF)
  193. Bit depth                                : 16 bits
  194. Compression mode                         : Lossy
  195. Stream size                              : 501 MiB (1%)
  196. Title                                    : Top.Gun.1986.2160p.BluRay.REMUX.HEVC.DTS-HD.MA.TrueHD.7.1.Atmos-FGT
  197. Language                                 : Spanish
  198. Service kind                             : Complete Main
  199. Default                                  : No
  200. Forced                                   : No
  201. Original source medium                   : Blu-ray

  202. Audio #7
  203. ID                                       : 9
  204. ID in the original source medium         : 4356 (0x1104)
  205. Format                                   : AC-3
  206. Format/Info                              : Audio Coding 3
  207. Commercial name                          : Dolby Digital
  208. Codec ID                                 : A_AC3
  209. Duration                                 : 1 h 49 min
  210. Bit rate mode                            : Constant
  211. Bit rate                                 : 640 kb/s
  212. Channel(s)                               : 6 channels
  213. Channel layout                           : L R C LFE Ls Rs
  214. Sampling rate                            : 48.0 kHz
  215. Frame rate                               : 31.250 FPS (1536 SPF)
  216. Bit depth                                : 16 bits
  217. Compression mode                         : Lossy
  218. Stream size                              : 501 MiB (1%)
  219. Title                                    : Top.Gun.1986.2160p.BluRay.REMUX.HEVC.DTS-HD.MA.TrueHD.7.1.Atmos-FGT
  220. Language                                 : French
  221. Service kind                             : Complete Main
  222. Default                                  : No
  223. Forced                                   : No
  224. Original source medium                   : Blu-ray

  225. Audio #8
  226. ID                                       : 10
  227. ID in the original source medium         : 4357 (0x1105)
  228. Format                                   : AC-3
  229. Format/Info                              : Audio Coding 3
  230. Commercial name                          : Dolby Digital
  231. Codec ID                                 : A_AC3
  232. Duration                                 : 1 h 49 min
  233. Bit rate mode                            : Constant
  234. Bit rate                                 : 640 kb/s
  235. Channel(s)                               : 6 channels
  236. Channel layout                           : L R C LFE Ls Rs
  237. Sampling rate                            : 48.0 kHz
  238. Frame rate                               : 31.250 FPS (1536 SPF)
  239. Bit depth                                : 16 bits
  240. Compression mode                         : Lossy
  241. Stream size                              : 501 MiB (1%)
  242. Title                                    : Top.Gun.1986.2160p.BluRay.REMUX.HEVC.DTS-HD.MA.TrueHD.7.1.Atmos-FGT
  243. Language                                 : Italian
  244. Service kind                             : Complete Main
  245. Default                                  : No
  246. Forced                                   : No
  247. Original source medium                   : Blu-ray

  248. Audio #9
  249. ID                                       : 11
  250. ID in the original source medium         : 4358 (0x1106)
  251. Format                                   : AC-3
  252. Format/Info                              : Audio Coding 3
  253. Commercial name                          : Dolby Digital
  254. Codec ID                                 : A_AC3
  255. Duration                                 : 1 h 49 min
  256. Bit rate mode                            : Constant
  257. Bit rate                                 : 224 kb/s
  258. Channel(s)                               : 2 channels
  259. Channel layout                           : L R
  260. Sampling rate                            : 48.0 kHz
  261. Frame rate                               : 31.250 FPS (1536 SPF)
  262. Bit depth                                : 16 bits
  263. Compression mode                         : Lossy
  264. Stream size                              : 175 MiB (0%)
  265. Title                                    : Top.Gun.1986.2160p.BluRay.REMUX.HEVC.DTS-HD.MA.TrueHD.7.1.Atmos-FGT
  266. Language                                 : Japanese
  267. Service kind                             : Complete Main
  268. Default                                  : No
  269. Forced                                   : No
  270. Original source medium                   : Blu-ray

  271. Audio #10
  272. ID                                       : 12
  273. ID in the original source medium         : 4359 (0x1107)
  274. Format                                   : AC-3
  275. Format/Info                              : Audio Coding 3
  276. Commercial name                          : Dolby Digital
  277. Codec ID                                 : A_AC3
  278. Duration                                 : 1 h 49 min
  279. Bit rate mode                            : Constant
  280. Bit rate                                 : 224 kb/s
  281. Channel(s)                               : 2 channels
  282. Channel layout                           : L R
  283. Sampling rate                            : 48.0 kHz
  284. Frame rate                               : 31.250 FPS (1536 SPF)
  285. Bit depth                                : 16 bits
  286. Compression mode                         : Lossy
  287. Stream size                              : 175 MiB (0%)
  288. Title                                    : Top.Gun.1986.2160p.BluRay.REMUX.HEVC.DTS-HD.MA.TrueHD.7.1.Atmos-FGT
  289. Language                                 : Japanese
  290. Service kind                             : Complete Main
  291. Default                                  : No
  292. Forced                                   : No
  293. Original source medium                   : Blu-ray

  294. Audio #11
  295. ID                                       : 13
  296. ID in the original source medium         : 4360 (0x1108)
  297. Format                                   : AC-3
  298. Format/Info                              : Audio Coding 3
  299. Commercial name                          : Dolby Digital
  300. Codec ID                                 : A_AC3
  301. Duration                                 : 1 h 49 min
  302. Bit rate mode                            : Constant
  303. Bit rate                                 : 640 kb/s
  304. Channel(s)                               : 6 channels
  305. Channel layout                           : L R C LFE Ls Rs
  306. Sampling rate                            : 48.0 kHz
  307. Frame rate                               : 31.250 FPS (1536 SPF)
  308. Bit depth                                : 16 bits
  309. Compression mode                         : Lossy
  310. Stream size                              : 501 MiB (1%)
  311. Title                                    : Top.Gun.1986.2160p.BluRay.REMUX.HEVC.DTS-HD.MA.TrueHD.7.1.Atmos-FGT
  312. Language                                 : Portuguese
  313. Service kind                             : Complete Main
  314. Default                                  : No
  315. Forced                                   : No
  316. Original source medium                   : Blu-ray

  317. Audio #12
  318. ID                                       : 14
  319. ID in the original source medium         : 4361 (0x1109)
  320. Format                                   : AC-3
  321. Format/Info                              : Audio Coding 3
  322. Commercial name                          : Dolby Digital
  323. Codec ID                                 : A_AC3
  324. Duration                                 : 1 h 49 min
  325. Bit rate mode                            : Constant
  326. Bit rate                                 : 640 kb/s
  327. Channel(s)                               : 6 channels
  328. Channel layout                           : L R C LFE Ls Rs
  329. Sampling rate                            : 48.0 kHz
  330. Frame rate                               : 31.250 FPS (1536 SPF)
  331. Bit depth                                : 16 bits
  332. Compression mode                         : Lossy
  333. Stream size                              : 501 MiB (1%)
  334. Title                                    : Top.Gun.1986.2160p.BluRay.REMUX.HEVC.DTS-HD.MA.TrueHD.7.1.Atmos-FGT
  335. Language                                 : Russian
  336. Service kind                             : Complete Main
  337. Default                                  : No
  338. Forced                                   : No
  339. Original source medium                   : Blu-ray

  340. Audio #13
  341. ID                                       : 15
  342. ID in the original source medium         : 4362 (0x110A)
  343. Format                                   : AC-3
  344. Format/Info                              : Audio Coding 3
  345. Commercial name                          : Dolby Digital
  346. Codec ID                                 : A_AC3
  347. Duration                                 : 1 h 49 min
  348. Bit rate mode                            : Constant
  349. Bit rate                                 : 224 kb/s
  350. Channel(s)                               : 2 channels
  351. Channel layout                           : L R
  352. Sampling rate                            : 48.0 kHz
  353. Frame rate                               : 31.250 FPS (1536 SPF)
  354. Bit depth                                : 16 bits
  355. Compression mode                         : Lossy
  356. Stream size                              : 175 MiB (0%)
  357. Title                                    : Top.Gun.1986.2160p.BluRay.REMUX.HEVC.DTS-HD.MA.TrueHD.7.1.Atmos-FGT
  358. Language                                 : English
  359. Service kind                             : Complete Main
  360. Default                                  : No
  361. Forced                                   : No
  362. Original source medium                   : Blu-ray

  363. Text #1
  364. ID                                       : 16
  365. Format                                   : UTF-8
  366. Codec ID                                 : S_TEXT/UTF8
  367. Codec ID/Info                            : UTF-8 Plain Text
  368. Duration                                 : 1 h 40 min
  369. Bit rate                                 : 59 b/s
  370. Count of elements                        : 1384
  371. Stream size                              : 43.4 KiB (0%)
  372. Title                                    : English-SRT
  373. Language                                 : English
  374. Default                                  : Yes
  375. Forced                                   : No

  376. Text #2
  377. ID                                       : 17
  378. ID in the original source medium         : 4768 (0x12A0)
  379. Format                                   : PGS
  380. Muxing mode                              : zlib
  381. Codec ID                                 : S_HDMV/PGS
  382. Codec ID/Info                            : Picture based subtitle format used on BDs/HD-DVDs
  383. Duration                                 : 1 h 40 min
  384. Bit rate                                 : 38.7 kb/s
  385. Count of elements                        : 2782
  386. Stream size                              : 27.8 MiB (0%)
  387. Title                                    : English-PGS
  388. Language                                 : English
  389. Default                                  : No
  390. Forced                                   : No
  391. Original source medium                   : Blu-ray

  392. Text #3
  393. ID                                       : 18
  394. ID in the original source medium         : 4769 (0x12A1)
  395. Format                                   : PGS
  396. Muxing mode                              : zlib
  397. Codec ID                                 : S_HDMV/PGS
  398. Codec ID/Info                            : Picture based subtitle format used on BDs/HD-DVDs
  399. Duration                                 : 1 h 42 min
  400. Bit rate                                 : 40.5 kb/s
  401. Count of elements                        : 2998
  402. Stream size                              : 29.8 MiB (0%)
  403. Title                                    : English-SDh-PGS
  404. Language                                 : English
  405. Default                                  : No
  406. Forced                                   : No
  407. Original source medium                   : Blu-ray

  408. Text #4
  409. ID                                       : 19
  410. ID in the original source medium         : 4770 (0x12A2)
  411. Format                                   : PGS
  412. Muxing mode                              : zlib
  413. Codec ID                                 : S_HDMV/PGS
  414. Codec ID/Info                            : Picture based subtitle format used on BDs/HD-DVDs
  415. Duration                                 : 1 h 48 min
  416. Bit rate                                 : 25.6 kb/s
  417. Count of elements                        : 2612
  418. Stream size                              : 19.9 MiB (0%)
  419. Title                                    : Chinese-PGS
  420. Language                                 : Chinese
  421. Default                                  : No
  422. Forced                                   : No
  423. Original source medium                   : Blu-ray

  424. Text #5
  425. ID                                       : 20
  426. ID in the original source medium         : 4771 (0x12A3)
  427. Format                                   : PGS
  428. Muxing mode                              : zlib
  429. Codec ID                                 : S_HDMV/PGS
  430. Codec ID/Info                            : Picture based subtitle format used on BDs/HD-DVDs
  431. Duration                                 : 1 h 48 min
  432. Bit rate                                 : 30.2 kb/s
  433. Count of elements                        : 2822
  434. Stream size                              : 23.4 MiB (0%)
  435. Title                                    : Czech-PGS
  436. Language                                 : Czech
  437. Default                                  : No
  438. Forced                                   : No
  439. Original source medium                   : Blu-ray

  440. Text #6
  441. ID                                       : 21
  442. ID in the original source medium         : 4771 (0x12A3)
  443. Format                                   : PGS
  444. Muxing mode                              : zlib
  445. Codec ID                                 : S_HDMV/PGS
  446. Codec ID/Info                            : Picture based subtitle format used on BDs/HD-DVDs
  447. Duration                                 : 1 h 26 min
  448. Bit rate                                 : 397 b/s
  449. Count of elements                        : 22
  450. Stream size                              : 252 KiB (0%)
  451. Title                                    : Czech-FORCED-PGS
  452. Language                                 : Czech
  453. Default                                  : No
  454. Forced                                   : No
  455. Original source medium                   : Blu-ray

  456. Text #7
  457. ID                                       : 22
  458. ID in the original source medium         : 4772 (0x12A4)
  459. Format                                   : PGS
  460. Muxing mode                              : zlib
  461. Codec ID                                 : S_HDMV/PGS
  462. Codec ID/Info                            : Picture based subtitle format used on BDs/HD-DVDs
  463. Duration                                 : 1 h 48 min
  464. Bit rate                                 : 24.0 kb/s
  465. Count of elements                        : 2426
  466. Stream size                              : 18.7 MiB (0%)
  467. Title                                    : Danish-PGS
  468. Language                                 : Danish
  469. Default                                  : No
  470. Forced                                   : No
  471. Original source medium                   : Blu-ray

  472. Text #8
  473. ID                                       : 23
  474. ID in the original source medium         : 4773 (0x12A5)
  475. Format                                   : PGS
  476. Muxing mode                              : zlib
  477. Codec ID                                 : S_HDMV/PGS
  478. Codec ID/Info                            : Picture based subtitle format used on BDs/HD-DVDs
  479. Duration                                 : 1 h 48 min
  480. Bit rate                                 : 28.6 kb/s
  481. Count of elements                        : 2502
  482. Stream size                              : 22.3 MiB (0%)
  483. Title                                    : German-PGS
  484. Language                                 : German
  485. Default                                  : No
  486. Forced                                   : No
  487. Original source medium                   : Blu-ray

  488. Text #9
  489. ID                                       : 24
  490. ID in the original source medium         : 4773 (0x12A5)
  491. Format                                   : PGS
  492. Muxing mode                              : zlib
  493. Codec ID                                 : S_HDMV/PGS
  494. Codec ID/Info                            : Picture based subtitle format used on BDs/HD-DVDs
  495. Duration                                 : 1 h 26 min
  496. Bit rate                                 : 419 b/s
  497. Count of elements                        : 22
  498. Stream size                              : 266 KiB (0%)
  499. Title                                    : German-FORCED-PGS
  500. Language                                 : German
  501. Default                                  : No
  502. Forced                                   : No
  503. Original source medium                   : Blu-ray

  504. Text #10
  505. ID                                       : 25
  506. ID in the original source medium         : 4774 (0x12A6)
  507. Format                                   : PGS
  508. Muxing mode                              : zlib
  509. Codec ID                                 : S_HDMV/PGS
  510. Codec ID/Info                            : Picture based subtitle format used on BDs/HD-DVDs
  511. Duration                                 : 1 h 48 min
  512. Bit rate                                 : 27.2 kb/s
  513. Count of elements                        : 2474
  514. Stream size                              : 21.1 MiB (0%)
  515. Title                                    : Spanish-PGS
  516. Language                                 : Spanish
  517. Default                                  : No
  518. Forced                                   : No
  519. Original source medium                   : Blu-ray

  520. Text #11
  521. ID                                       : 26
  522. ID in the original source medium         : 4774 (0x12A6)
  523. Format                                   : PGS
  524. Muxing mode                              : zlib
  525. Codec ID                                 : S_HDMV/PGS
  526. Codec ID/Info                            : Picture based subtitle format used on BDs/HD-DVDs
  527. Duration                                 : 18 s 206 ms
  528. Bit rate                                 : 77.3 kb/s
  529. Count of elements                        : 16
  530. Stream size                              : 172 KiB (0%)
  531. Title                                    : Spanish-PGS
  532. Language                                 : Spanish
  533. Default                                  : No
  534. Forced                                   : No
  535. Original source medium                   : Blu-ray

  536. Text #12
  537. ID                                       : 27
  538. ID in the original source medium         : 4775 (0x12A7)
  539. Format                                   : PGS
  540. Muxing mode                              : zlib
  541. Codec ID                                 : S_HDMV/PGS
  542. Codec ID/Info                            : Picture based subtitle format used on BDs/HD-DVDs
  543. Duration                                 : 1 h 43 min
  544. Bit rate                                 : 34.7 kb/s
  545. Count of elements                        : 2746
  546. Stream size                              : 25.8 MiB (0%)
  547. Title                                    : Spanish-FORCED-PGS
  548. Language                                 : Spanish
  549. Default                                  : No
  550. Forced                                   : No
  551. Original source medium                   : Blu-ray

  552. Text #13
  553. ID                                       : 28
  554. ID in the original source medium         : 4776 (0x12A8)
  555. Format                                   : PGS
  556. Muxing mode                              : zlib
  557. Codec ID                                 : S_HDMV/PGS
  558. Codec ID/Info                            : Picture based subtitle format used on BDs/HD-DVDs
  559. Duration                                 : 1 h 48 min
  560. Bit rate                                 : 27.3 kb/s
  561. Count of elements                        : 2490
  562. Stream size                              : 21.2 MiB (0%)
  563. Title                                    : French-PGS
  564. Language                                 : French
  565. Default                                  : No
  566. Forced                                   : No
  567. Original source medium                   : Blu-ray

  568. Text #14
  569. ID                                       : 29
  570. ID in the original source medium         : 4776 (0x12A8)
  571. Format                                   : PGS
  572. Muxing mode                              : zlib
  573. Codec ID                                 : S_HDMV/PGS
  574. Codec ID/Info                            : Picture based subtitle format used on BDs/HD-DVDs
  575. Duration                                 : 1 h 26 min
  576. Bit rate                                 : 415 b/s
  577. Count of elements                        : 22
  578. Stream size                              : 263 KiB (0%)
  579. Title                                    : French-FORCED-PGS
  580. Language                                 : French
  581. Default                                  : No
  582. Forced                                   : No
  583. Original source medium                   : Blu-ray

  584. Text #15
  585. ID                                       : 30
  586. ID in the original source medium         : 4777 (0x12A9)
  587. Format                                   : PGS
  588. Muxing mode                              : zlib
  589. Codec ID                                 : S_HDMV/PGS
  590. Codec ID/Info                            : Picture based subtitle format used on BDs/HD-DVDs
  591. Duration                                 : 1 h 48 min
  592. Bit rate                                 : 25.0 kb/s
  593. Count of elements                        : 2472
  594. Stream size                              : 19.4 MiB (0%)
  595. Title                                    : Italian-PGS
  596. Language                                 : Italian
  597. Default                                  : No
  598. Forced                                   : No
  599. Original source medium                   : Blu-ray

  600. Text #16
  601. ID                                       : 31
  602. ID in the original source medium         : 4777 (0x12A9)
  603. Format                                   : PGS
  604. Muxing mode                              : zlib
  605. Codec ID                                 : S_HDMV/PGS
  606. Codec ID/Info                            : Picture based subtitle format used on BDs/HD-DVDs
  607. Duration                                 : 1 h 26 min
  608. Bit rate                                 : 313 b/s
  609. Count of elements                        : 18
  610. Stream size                              : 199 KiB (0%)
  611. Title                                    : Italian-FORCED-PGS
  612. Language                                 : Italian
  613. Default                                  : No
  614. Forced                                   : No
  615. Original source medium                   : Blu-ray

  616. Text #17
  617. ID                                       : 32
  618. ID in the original source medium         : 4778 (0x12AA)
  619. Format                                   : PGS
  620. Muxing mode                              : zlib
  621. Codec ID                                 : S_HDMV/PGS
  622. Codec ID/Info                            : Picture based subtitle format used on BDs/HD-DVDs
  623. Duration                                 : 1 h 43 min
  624. Bit rate                                 : 18.9 kb/s
  625. Count of elements                        : 1898
  626. Stream size                              : 14.0 MiB (0%)
  627. Title                                    : Japanese-PGS
  628. Language                                 : Japanese
  629. Default                                  : No
  630. Forced                                   : No
  631. Original source medium                   : Blu-ray

  632. Text #18
  633. ID                                       : 33
  634. ID in the original source medium         : 4778 (0x12AA)
  635. Format                                   : PGS
  636. Muxing mode                              : zlib
  637. Codec ID                                 : S_HDMV/PGS
  638. Codec ID/Info                            : Picture based subtitle format used on BDs/HD-DVDs
  639. Duration                                 : 1 h 24 min
  640. Bit rate                                 : 388 b/s
  641. Count of elements                        : 28
  642. Stream size                              : 240 KiB (0%)
  643. Title                                    : Japanese-FORCED-PGS
  644. Language                                 : Japanese
  645. Default                                  : No
  646. Forced                                   : No
  647. Original source medium                   : Blu-ray

  648. Text #19
  649. ID                                       : 34
  650. ID in the original source medium         : 4779 (0x12AB)
  651. Format                                   : PGS
  652. Muxing mode                              : zlib
  653. Codec ID                                 : S_HDMV/PGS
  654. Codec ID/Info                            : Picture based subtitle format used on BDs/HD-DVDs
  655. Duration                                 : 1 h 48 min
  656. Bit rate                                 : 26.2 kb/s
  657. Count of elements                        : 2596
  658. Stream size                              : 20.4 MiB (0%)
  659. Title                                    : Korean-PGS
  660. Language                                 : Korean
  661. Default                                  : No
  662. Forced                                   : No
  663. Original source medium                   : Blu-ray

  664. Text #20
  665. ID                                       : 35
  666. ID in the original source medium         : 4780 (0x12AC)
  667. Format                                   : PGS
  668. Muxing mode                              : zlib
  669. Codec ID                                 : S_HDMV/PGS
  670. Codec ID/Info                            : Picture based subtitle format used on BDs/HD-DVDs
  671. Duration                                 : 1 h 48 min
  672. Bit rate                                 : 22.1 kb/s
  673. Count of elements                        : 2690
  674. Stream size                              : 17.2 MiB (0%)
  675. Title                                    : Chinese-PGS
  676. Language                                 : Chinese
  677. Default                                  : No
  678. Forced                                   : No
  679. Original source medium                   : Blu-ray

  680. Text #21
  681. ID                                       : 36
  682. ID in the original source medium         : 4781 (0x12AD)
  683. Format                                   : PGS
  684. Muxing mode                              : zlib
  685. Codec ID                                 : S_HDMV/PGS
  686. Codec ID/Info                            : Picture based subtitle format used on BDs/HD-DVDs
  687. Duration                                 : 1 h 48 min
  688. Bit rate                                 : 26.1 kb/s
  689. Count of elements                        : 2178
  690. Stream size                              : 20.3 MiB (0%)
  691. Title                                    : Dutch-PGS
  692. Language                                 : Dutch
  693. Default                                  : No
  694. Forced                                   : No
  695. Original source medium                   : Blu-ray

  696. Text #22
  697. ID                                       : 37
  698. ID in the original source medium         : 4782 (0x12AE)
  699. Format                                   : PGS
  700. Muxing mode                              : zlib
  701. Codec ID                                 : S_HDMV/PGS
  702. Codec ID/Info                            : Picture based subtitle format used on BDs/HD-DVDs
  703. Duration                                 : 1 h 48 min
  704. Bit rate                                 : 27.8 kb/s
  705. Count of elements                        : 2508
  706. Stream size                              : 21.6 MiB (0%)
  707. Title                                    : Norwegian-PGS
  708. Language                                 : Norwegian
  709. Default                                  : No
  710. Forced                                   : No
  711. Original source medium                   : Blu-ray

  712. Text #23
  713. ID                                       : 38
  714. ID in the original source medium         : 4783 (0x12AF)
  715. Format                                   : PGS
  716. Muxing mode                              : zlib
  717. Codec ID                                 : S_HDMV/PGS
  718. Codec ID/Info                            : Picture based subtitle format used on BDs/HD-DVDs
  719. Duration                                 : 1 h 48 min
  720. Bit rate                                 : 31.1 kb/s
  721. Count of elements                        : 2422
  722. Stream size                              : 24.2 MiB (0%)
  723. Title                                    : Portuguese-PGS
  724. Language                                 : Portuguese
  725. Default                                  : No
  726. Forced                                   : No
  727. Original source medium                   : Blu-ray

  728. Text #24
  729. ID                                       : 39
  730. ID in the original source medium         : 4783 (0x12AF)
  731. Format                                   : PGS
  732. Muxing mode                              : zlib
  733. Codec ID                                 : S_HDMV/PGS
  734. Codec ID/Info                            : Picture based subtitle format used on BDs/HD-DVDs
  735. Duration                                 : 41 min 3 s
  736. Bit rate                                 : 288 b/s
  737. Count of elements                        : 10
  738. Stream size                              : 86.7 KiB (0%)
  739. Title                                    : Portuguese-PGS
  740. Language                                 : Portuguese
  741. Default                                  : No
  742. Forced                                   : No
  743. Original source medium                   : Blu-ray

  744. Text #25
  745. ID                                       : 40
  746. ID in the original source medium         : 4784 (0x12B0)
  747. Format                                   : PGS
  748. Muxing mode                              : zlib
  749. Codec ID                                 : S_HDMV/PGS
  750. Codec ID/Info                            : Picture based subtitle format used on BDs/HD-DVDs
  751. Duration                                 : 1 h 48 min
  752. Bit rate                                 : 26.6 kb/s
  753. Count of elements                        : 2494
  754. Stream size                              : 20.6 MiB (0%)
  755. Title                                    : Portuguese-FORCED-PGS
  756. Language                                 : Portuguese
  757. Default                                  : No
  758. Forced                                   : No
  759. Original source medium                   : Blu-ray

  760. Text #26
  761. ID                                       : 41
  762. ID in the original source medium         : 4785 (0x12B1)
  763. Format                                   : PGS
  764. Muxing mode                              : zlib
  765. Codec ID                                 : S_HDMV/PGS
  766. Codec ID/Info                            : Picture based subtitle format used on BDs/HD-DVDs
  767. Duration                                 : 1 h 48 min
  768. Bit rate                                 : 36.4 kb/s
  769. Count of elements                        : 2592
  770. Stream size                              : 28.3 MiB (0%)
  771. Title                                    : Russian-PGS
  772. Language                                 : Russian
  773. Default                                  : No
  774. Forced                                   : No
  775. Original source medium                   : Blu-ray

  776. Text #27
  777. ID                                       : 42
  778. ID in the original source medium         : 4785 (0x12B1)
  779. Format                                   : PGS
  780. Muxing mode                              : zlib
  781. Codec ID                                 : S_HDMV/PGS
  782. Codec ID/Info                            : Picture based subtitle format used on BDs/HD-DVDs
  783. Duration                                 : 1 h 24 min
  784. Bit rate                                 : 231 b/s
  785. Count of elements                        : 16
  786. Stream size                              : 144 KiB (0%)
  787. Title                                    : Russian-FORCED-PGS
  788. Language                                 : Russian
  789. Default                                  : No
  790. Forced                                   : No
  791. Original source medium                   : Blu-ray

  792. Text #28
  793. ID                                       : 43
  794. ID in the original source medium         : 4786 (0x12B2)
  795. Format                                   : PGS
  796. Muxing mode                              : zlib
  797. Codec ID                                 : S_HDMV/PGS
  798. Codec ID/Info                            : Picture based subtitle format used on BDs/HD-DVDs
  799. Duration                                 : 1 h 48 min
  800. Bit rate                                 : 26.4 kb/s
  801. Count of elements                        : 2480
  802. Stream size                              : 20.5 MiB (0%)
  803. Title                                    : Romanian-PGS
  804. Language                                 : Romanian
  805. Default                                  : No
  806. Forced                                   : No
  807. Original source medium                   : Blu-ray

  808. Text #29
  809. ID                                       : 44
  810. ID in the original source medium         : 4787 (0x12B3)
  811. Format                                   : PGS
  812. Muxing mode                              : zlib
  813. Codec ID                                 : S_HDMV/PGS
  814. Codec ID/Info                            : Picture based subtitle format used on BDs/HD-DVDs
  815. Duration                                 : 1 h 48 min
  816. Bit rate                                 : 27.5 kb/s
  817. Count of elements                        : 2596
  818. Stream size                              : 21.4 MiB (0%)
  819. Title                                    : Chinese-PGS
  820. Language                                 : Chinese
  821. Default                                  : No
  822. Forced                                   : No
  823. Original source medium                   : Blu-ray

  824. Text #30
  825. ID                                       : 45
  826. ID in the original source medium         : 4788 (0x12B4)
  827. Format                                   : PGS
  828. Muxing mode                              : zlib
  829. Codec ID                                 : S_HDMV/PGS
  830. Codec ID/Info                            : Picture based subtitle format used on BDs/HD-DVDs
  831. Duration                                 : 1 h 48 min
  832. Bit rate                                 : 26.8 kb/s
  833. Count of elements                        : 2230
  834. Stream size                              : 20.8 MiB (0%)
  835. Title                                    : Finnish-PGS
  836. Language                                 : Finnish
  837. Default                                  : No
  838. Forced                                   : No
  839. Original source medium                   : Blu-ray

  840. Text #31
  841. ID                                       : 46
  842. ID in the original source medium         : 4789 (0x12B5)
  843. Format                                   : PGS
  844. Muxing mode                              : zlib
  845. Codec ID                                 : S_HDMV/PGS
  846. Codec ID/Info                            : Picture based subtitle format used on BDs/HD-DVDs
  847. Duration                                 : 1 h 48 min
  848. Bit rate                                 : 23.8 kb/s
  849. Count of elements                        : 2404
  850. Stream size                              : 18.5 MiB (0%)
  851. Title                                    : Swedish-PGS
  852. Language                                 : Swedish
  853. Default                                  : No
  854. Forced                                   : No
  855. Original source medium                   : Blu-ray

  856. Text #32
  857. ID                                       : 47
  858. ID in the original source medium         : 4790 (0x12B6)
  859. Format                                   : PGS
  860. Muxing mode                              : zlib
  861. Codec ID                                 : S_HDMV/PGS
  862. Codec ID/Info                            : Picture based subtitle format used on BDs/HD-DVDs
  863. Duration                                 : 1 h 48 min
  864. Bit rate                                 : 28.3 kb/s
  865. Count of elements                        : 2834
  866. Stream size                              : 22.0 MiB (0%)
  867. Title                                    : Thai-PGS
  868. Language                                 : Thai
  869. Default                                  : No
  870. Forced                                   : No
  871. Original source medium                   : Blu-ray

  872. Text #33
  873. ID                                       : 48
  874. ID in the original source medium         : 4791 (0x12B7)
  875. Format                                   : PGS
  876. Muxing mode                              : zlib
  877. Codec ID                                 : S_HDMV/PGS
  878. Codec ID/Info                            : Picture based subtitle format used on BDs/HD-DVDs
  879. Duration                                 : 1 h 49 min
  880. Bit rate                                 : 80.2 kb/s
  881. Count of elements                        : 4215
  882. Stream size                              : 62.6 MiB (0%)
  883. Title                                    : English-COMMENTARY-PGS
  884. Language                                 : English
  885. Default                                  : No
  886. Forced                                   : No
  887. Original source medium                   : Blu-ray

  888. Text #34
  889. ID                                       : 49
  890. ID in the original source medium         : 4792 (0x12B8)
  891. Format                                   : PGS
  892. Muxing mode                              : zlib
  893. Codec ID                                 : S_HDMV/PGS
  894. Codec ID/Info                            : Picture based subtitle format used on BDs/HD-DVDs
  895. Duration                                 : 1 h 49 min
  896. Bit rate                                 : 75.3 kb/s
  897. Count of elements                        : 4217
  898. Stream size                              : 58.8 MiB (0%)
  899. Title                                    : German-COMMENTARY-PGS
  900. Language                                 : German
  901. Default                                  : No
  902. Forced                                   : No
  903. Original source medium                   : Blu-ray

  904. Text #35
  905. ID                                       : 50
  906. ID in the original source medium         : 4793 (0x12B9)
  907. Format                                   : PGS
  908. Muxing mode                              : zlib
  909. Codec ID                                 : S_HDMV/PGS
  910. Codec ID/Info                            : Picture based subtitle format used on BDs/HD-DVDs
  911. Duration                                 : 1 h 49 min
  912. Bit rate                                 : 67.8 kb/s
  913. Count of elements                        : 4217
  914. Stream size                              : 53.0 MiB (0%)
  915. Title                                    : Spanish-COMMENTARY-PGS
  916. Language                                 : Spanish
  917. Default                                  : No
  918. Forced                                   : No
  919. Original source medium                   : Blu-ray

  920. Text #36
  921. ID                                       : 51
  922. ID in the original source medium         : 4794 (0x12BA)
  923. Format                                   : PGS
  924. Muxing mode                              : zlib
  925. Codec ID                                 : S_HDMV/PGS
  926. Codec ID/Info                            : Picture based subtitle format used on BDs/HD-DVDs
  927. Duration                                 : 1 h 49 min
  928. Bit rate                                 : 72.3 kb/s
  929. Count of elements                        : 4121
  930. Stream size                              : 56.5 MiB (0%)
  931. Title                                    : Spanish-COMMENTARY-PGS
  932. Language                                 : Spanish
  933. Default                                  : No
  934. Forced                                   : No
  935. Original source medium                   : Blu-ray

  936. Text #37
  937. ID                                       : 52
  938. ID in the original source medium         : 4795 (0x12BB)
  939. Format                                   : PGS
  940. Muxing mode                              : zlib
  941. Codec ID                                 : S_HDMV/PGS
  942. Codec ID/Info                            : Picture based subtitle format used on BDs/HD-DVDs
  943. Duration                                 : 1 h 49 min
  944. Bit rate                                 : 68.1 kb/s
  945. Count of elements                        : 4217
  946. Stream size                              : 53.2 MiB (0%)
  947. Title                                    : French-COMMENTARY-PGS
  948. Language                                 : French
  949. Default                                  : No
  950. Forced                                   : No
  951. Original source medium                   : Blu-ray

  952. Text #38
  953. ID                                       : 53
  954. ID in the original source medium         : 4796 (0x12BC)
  955. Format                                   : PGS
  956. Muxing mode                              : zlib
  957. Codec ID                                 : S_HDMV/PGS
  958. Codec ID/Info                            : Picture based subtitle format used on BDs/HD-DVDs
  959. Duration                                 : 1 h 49 min
  960. Bit rate                                 : 64.1 kb/s
  961. Count of elements                        : 4217
  962. Stream size                              : 50.1 MiB (0%)
  963. Title                                    : Italian-COMMENTARY-PGS
  964. Language                                 : Italian
  965. Default                                  : No
  966. Forced                                   : No
  967. Original source medium                   : Blu-ray

  968. Text #39
  969. ID                                       : 54
  970. ID in the original source medium         : 4797 (0x12BD)
  971. Format                                   : PGS
  972. Muxing mode                              : zlib
  973. Codec ID                                 : S_HDMV/PGS
  974. Codec ID/Info                            : Picture based subtitle format used on BDs/HD-DVDs
  975. Duration                                 : 1 h 49 min
  976. Bit rate                                 : 47.4 kb/s
  977. Count of elements                        : 2886
  978. Stream size                              : 37.0 MiB (0%)
  979. Title                                    : Japanese-COMMENTARY-PGS
  980. Language                                 : Japanese
  981. Default                                  : No
  982. Forced                                   : No
  983. Original source medium                   : Blu-ray

  984. Text #40
  985. ID                                       : 55
  986. ID in the original source medium         : 4798 (0x12BE)
  987. Format                                   : PGS
  988. Muxing mode                              : zlib
  989. Codec ID                                 : S_HDMV/PGS
  990. Codec ID/Info                            : Picture based subtitle format used on BDs/HD-DVDs
  991. Duration                                 : 1 h 49 min
  992. Bit rate                                 : 53.2 kb/s
  993. Count of elements                        : 4219
  994. Stream size                              : 41.6 MiB (0%)
  995. Title                                    : Korean-COMMENTARY-PGS
  996. Language                                 : Korean
  997. Default                                  : No
  998. Forced                                   : No
  999. Original source medium                   : Blu-ray

  1000. Text #41
  1001. ID                                       : 56
  1002. ID in the original source medium         : 4799 (0x12BF)
  1003. Format                                   : PGS
  1004. Muxing mode                              : zlib
  1005. Codec ID                                 : S_HDMV/PGS
  1006. Codec ID/Info                            : Picture based subtitle format used on BDs/HD-DVDs
  1007. Duration                                 : 1 h 49 min
  1008. Bit rate                                 : 69.6 kb/s
  1009. Count of elements                        : 3470
  1010. Stream size                              : 54.4 MiB (0%)
  1011. Title                                    : Portuguese-COMMENTARY-PGS
  1012. Language                                 : Portuguese
  1013. Default                                  : No
  1014. Forced                                   : No
  1015. Original source medium                   : Blu-ray

  1016. Menu
  1017. 00:00:00.000                             : en:Chapter 01
  1018. 00:02:45.165                             : en:Chapter 02
  1019. 00:12:50.060                             : en:Chapter 03
  1020. 00:19:08.689                             : en:Chapter 04
  1021. 00:25:45.418                             : en:Chapter 05
  1022. 00:29:31.186                             : en:Chapter 06
  1023. 00:39:12.224                             : en:Chapter 07
  1024. 00:48:04.464                             : en:Chapter 08
  1025. 00:55:27.657                             : en:Chapter 09
  1026. 01:01:32.563                             : en:Chapter 10
  1027. 01:04:04.507                             : en:Chapter 11
  1028. 01:13:42.835                             : en:Chapter 12
  1029. 01:21:14.536                             : en:Chapter 13
  1030. 01:27:09.891                             : en:Chapter 14
  1031. 01:34:23.866                             : en:Chapter 15
  1032. 01:42:03.784                             : en:Chapter 16
复制代码

壮志凌云/壮志凌云 3D Top.Gun.1986.2160p.BluRay.REMUX.HEVC.DTS-HD.MA.TrueHD.7.1.Atmos-FGT 57.97GB-2.png 壮志凌云/壮志凌云 3D Top.Gun.1986.2160p.BluRay.REMUX.HEVC.DTS-HD.MA.TrueHD.7.1.Atmos-FGT 57.97GB-3.png 壮志凌云/壮志凌云 3D Top.Gun.1986.2160p.BluRay.REMUX.HEVC.DTS-HD.MA.TrueHD.7.1.Atmos-FGT 57.97GB-4.png







回复

使用道具 举报

发表于 2020-5-21 00:51:05 | 显示全部楼层

这个帖子不回对不起自己!我想我是一天也不能离开蓝光电影网
回复 支持 反对

使用道具 举报

发表于 2020-5-21 06:59:33 | 显示全部楼层

这东西我收了!谢谢楼主!蓝光电影网真好!
回复 支持 反对

使用道具 举报

 成长值: 2970

发表于 2020-5-21 10:37:48 | 显示全部楼层
谢谢楼主无私分享。
回复 支持 反对

使用道具 举报

发表于 2020-5-21 10:54:03 | 显示全部楼层
楼主发贴辛苦了,谢谢楼主分享!我觉得蓝光电影网是注册对了!
回复 支持 反对

使用道具 举报

发表于 2020-5-21 16:42:19 | 显示全部楼层

楼主太厉害了!楼主,电影应该很好看我觉得蓝光电影网真是个好地方!
回复 支持 反对

使用道具 举报

懒得打字嘛,点击右侧快捷回复 【右侧内容,后台自定义】
您需要登录后才可以回帖 登录 | 立即加入

本版积分规则

现在加入蓝光电影网,注册一个账号
上个主题 下个主题 快速回复 收藏帖子 返回列表 客服中心 搜索

手机版|小黑屋| 蓝光电影网 |网站地图 

Copyright © 2015-2019 Comsenz Inc.  Template by 蓝光电影论坛 All Rights Reserved.

Powered by 蓝光电影网 X3.4

特别声明:本站所有资源均由网上收集而来,版权归原影音公司所有,如果侵犯了你的权益,请通知我们,我们会及时删除侵权内容.

快速回复 返回顶部 返回列表