找回密码

蓝光电影网

查看: 300|回复: 16

[8bit.SDR] 佐罗的面具/蒙面侠苏洛 The.Mask.of.Zorro.1998.2160p.BluRay.x264.8bit.SDR.DTS-HD.MA.TrueHD.7.1.Atmos-SWTYBLZ 59.93GB

[复制链接]

 成长值: 26125

发表于 2020-5-19 21:02:08 | 显示全部楼层 |阅读模式
佐罗的面具/蒙面侠苏洛 The.Mask.of.Zorro.1998.2160p.BluRay.x264.8bit.SDR.DTS-HD.MA.TrueHD.7.1.Atmos-SWTYBLZ 59.93GB-1.png

译  名 佐罗的面具 / 蒙面侠苏洛 / 黑侠佐罗 / 黑侠梭罗
片  名 The Mask of Zorro
年  代 1998
产  地 美国 / 德国
类  别 动作 / 爱情 / 西部 / 冒险
语  言 英语
上映日期 1998-07-17(美国)
IMDb评分  6.7/10 from 163888 users
IMDb链接  https://www.imdb.com/title/tt0120746
豆瓣评分 7.5/10 from 22830 users
豆瓣链接 https://movie.douban.com/subject/1293225/
片  长 136分钟
导  演 Martin Campbell
编  剧 John Eskow / Ted Elliott / Terry Rossio
主  演 Antonio Banderas
       Anthony Hopkins
       Catherine Zeta-Jones
       Stuart Wilson


标  签 动作 | 美国 | 佐罗 | 美国电影 | 爱情 | 安东尼奥·班德拉斯 | AntonioBanderas | 英雄

简  介  

  蒙面英雄佐罗(安东尼?霍普金斯 Anthony Hopkins 饰)为了阻止西班牙总督蒙特罗滥杀无辜,突然从天而降,劫走了准备行刑的犯人,从而与蒙特罗结下深仇。随后,蒙特罗派部队跟踪了佐罗。在一片混战中,佐罗的妻子被杀死,还在襁褓中的女儿被虐走,佐罗也被投入了监牢。一晃眼二十年过去了,为了让自己的事业后继有人,佐罗带上面具逃出了监狱。蒙特罗这时仍然在作恶,他计划买下加利福尼亚的所有权。佐罗找到了年轻的盗贼马瑞塔(安东尼奥?班德拉斯 Antonio Banderas 饰),将毕生所学都传授了给他,希望马瑞塔能够阻止蒙特罗的阴谋。马瑞塔继承了佐罗的面具,然而当他找到蒙特罗时,发现拦在他面前的凶狠的西班牙公主(凯瑟琳?泽塔-琼斯 Catherine Zeta-Jones 饰)竟然就是当年老佐罗的女儿!

获奖情况  

  第71届奥斯卡金像奖(1999)
  最佳音效剪辑(提名) Dave McMoyler
  最佳音响(提名) 格雷格· P·罗素 / 凯文·奥康奈尔 / Pud Cusack

  第56届金球奖(1999)
  电影类 最佳音乐/喜剧片(提名)
  电影类 音乐/喜剧片最佳男主角(提名) 安东尼奥·班德拉斯
  1. Video
  2. ID                                       : 1
  3. Format                                   : AVC
  4. Format/Info                              : Advanced Video Codec
  5. Format profile                           : High@L4
  6. Format settings                          : CABAC / 5 Ref Frames
  7. Format settings, CABAC                   : Yes
  8. Format settings, Reference frames        : 5 frames
  9. Codec ID                                 : V_MPEG4/ISO/AVC
  10. Duration                                 : 2 h 17 min
  11. Bit rate                                 : 53.4 Mb/s
  12. Width                                    : 3 840 pixels
  13. Height                                   : 1 600 pixels
  14. Display aspect ratio                     : 2.40:1
  15. Frame rate mode                          : Constant
  16. Frame rate                               : 23.976 (24000/1001/189150) FPS
  17. Color space                              : YUV
  18. Chroma subsampling                       : 4:2:0
  19. Bit depth                                : 8 bits
  20. Scan type                                : Progressive
  21. Bits/(Pixel*Frame)                       : 0.363
  22. Stream size                              : 51.3 GiB (86%)
  23. Title                                    : The.Mask.of.Zorro.1998.2160p.BluRay.x264.8bit.SDR.DTS-HD.MA.TrueHD.7.1.Atmos-SWTYBLZ
  24. Writing library                          : x264 core 157 r2935 545de2f
  25. Encoding settings                        : cabac=1 / ref=5 / deblock=1:-1:-1 / analyse=0x3:0x113 / me=umh / subme=10 / psy=1 / psy_rd=1.00:0.15 / mixed_ref=1 / me_range=48 / chroma_me=1 / trellis=2 / 8x8dct=1 / cqm=0 / deadzone=21,11 / fast_pskip=1 / chroma_qp_offset=-3 / threads=48 / lookahead_threads=4 / sliced_threads=0 / nr=0 / decimate=0 / interlaced=0 / bluray_compat=0 / constrained_intra=0 / bframes=3 / b_pyramid=2 / b_adapt=2 / b_bias=0 / direct=3 / weightb=1 / open_gop=0 / weightp=2 / keyint=250 / keyint_min=23 / scenecut=40 / intra_refresh=0 / rc_lookahead=50 / rc=crf / mbtree=1 / crf=21.0 / qcomp=0.60 / qpmin=0 / qpmax=69 / qpstep=4 / ip_ratio=1.40 / aq=1:1.00
  26. Default                                  : Yes
  27. Forced                                   : No

  28. Audio #1
  29. ID                                       : 2
  30. ID in the original source medium         : 4352 (0x1100)
  31. Format                                   : MLP FBA 16-ch
  32. Format/Info                              : Meridian Lossless Packing FBA with 16-channel presentation
  33. Commercial name                          : Dolby TrueHD with Dolby Atmos
  34. Codec ID                                 : A_TRUEHD
  35. Duration                                 : 2 h 17 min
  36. Bit rate mode                            : Variable
  37. Bit rate                                 : 3 738 kb/s
  38. Maximum bit rate                         : 5 808 kb/s
  39. Channel(s)                               : 8 channels
  40. Channel layout                           : L R C LFE Ls Rs Lb Rb
  41. Sampling rate                            : 48.0 kHz
  42. Frame rate                               : 1 200.000 FPS (40 SPF)
  43. Compression mode                         : Lossless
  44. Stream size                              : 3.59 GiB (6%)
  45. Title                                    : The.Mask.of.Zorro.1998.2160p.BluRay.x264.8bit.SDR.DTS-HD.MA.TrueHD.7.1.Atmos-SWTYBLZ
  46. Language                                 : English
  47. Default                                  : Yes
  48. Forced                                   : No
  49. Original source medium                   : Blu-ray
  50. Number of dynamic objects                : 11
  51. Bed channel count                        : 1 channel
  52. Bed channel configuration                : LFE

  53. Audio #2
  54. ID                                       : 3
  55. Format                                   : DTS XLL
  56. Format/Info                              : Digital Theater Systems
  57. Commercial name                          : DTS-HD Master Audio
  58. Codec ID                                 : A_DTS
  59. Duration                                 : 2 h 17 min
  60. Bit rate mode                            : Variable
  61. Bit rate                                 : 4 030 kb/s
  62. Channel(s)                               : 8 channels
  63. Channel layout                           : C L R LFE Lb Rb Lss Rss
  64. Sampling rate                            : 48.0 kHz
  65. Frame rate                               : 93.750 FPS (512 SPF)
  66. Bit depth                                : 24 bits
  67. Compression mode                         : Lossless
  68. Stream size                              : 3.87 GiB (6%)
  69. Title                                    : The.Mask.of.Zorro.1998.2160p.BluRay.x264.8bit.SDR.DTS-HD.MA.TrueHD.7.1.Atmos-SWTYBLZ
  70. Language                                 : English
  71. Default                                  : No
  72. Forced                                   : No

  73. Audio #3
  74. ID                                       : 4
  75. ID in the original source medium         : 4352 (0x1100)
  76. Format                                   : AC-3
  77. Format/Info                              : Audio Coding 3
  78. Commercial name                          : Dolby Digital
  79. Codec ID                                 : A_AC3
  80. Duration                                 : 2 h 17 min
  81. Bit rate mode                            : Constant
  82. Bit rate                                 : 640 kb/s
  83. Channel(s)                               : 6 channels
  84. Channel layout                           : L R C LFE Ls Rs
  85. Sampling rate                            : 48.0 kHz
  86. Frame rate                               : 31.250 FPS (1536 SPF)
  87. Compression mode                         : Lossy
  88. Stream size                              : 630 MiB (1%)
  89. Title                                    : The.Mask.of.Zorro.1998.2160p.BluRay.x264.8bit.SDR.DTS-HD.MA.TrueHD.7.1.Atmos-SWTYBLZ
  90. Language                                 : English
  91. Service kind                             : Complete Main
  92. Default                                  : No
  93. Forced                                   : No
  94. Original source medium                   : Blu-ray

  95. Text #1
  96. ID                                       : 5
  97. Format                                   : UTF-8
  98. Codec ID                                 : S_TEXT/UTF8
  99. Codec ID/Info                            : UTF-8 Plain Text
  100. Duration                                 : 2 h 8 min
  101. Bit rate                                 : 34 b/s
  102. Count of elements                        : 1008
  103. Stream size                              : 32.2 KiB (0%)
  104. Title                                    : English-SRT
  105. Language                                 : English
  106. Default                                  : Yes
  107. Forced                                   : No

  108. Text #2
  109. ID                                       : 6
  110. Format                                   : UTF-8
  111. Codec ID                                 : S_TEXT/UTF8
  112. Codec ID/Info                            : UTF-8 Plain Text
  113. Duration                                 : 2 h 14 min
  114. Bit rate                                 : 35 b/s
  115. Count of elements                        : 1247
  116. Stream size                              : 34.7 KiB (0%)
  117. Title                                    : English-SDH-SRT
  118. Language                                 : English
  119. Default                                  : No
  120. Forced                                   : No

  121. Text #3
  122. ID                                       : 7
  123. ID in the original source medium         : 4769 (0x12A1)
  124. Format                                   : PGS
  125. Muxing mode                              : zlib
  126. Codec ID                                 : S_HDMV/PGS
  127. Codec ID/Info                            : Picture based subtitle format used on BDs/HD-DVDs
  128. Duration                                 : 5 s 380 ms
  129. Bit rate                                 : 59.4 kb/s
  130. Count of elements                        : 4
  131. Stream size                              : 39.0 KiB (0%)
  132. Title                                    : English-FORCED-PGS
  133. Language                                 : English
  134. Default                                  : No
  135. Forced                                   : No
  136. Original source medium                   : Blu-ray

  137. Text #4
  138. ID                                       : 8
  139. ID in the original source medium         : 4769 (0x12A1)
  140. Format                                   : PGS
  141. Muxing mode                              : zlib
  142. Codec ID                                 : S_HDMV/PGS
  143. Codec ID/Info                            : Picture based subtitle format used on BDs/HD-DVDs
  144. Duration                                 : 2 h 8 min
  145. Bit rate                                 : 19.2 kb/s
  146. Count of elements                        : 1690
  147. Stream size                              : 17.6 MiB (0%)
  148. Title                                    : English-PGS
  149. Language                                 : English
  150. Default                                  : No
  151. Forced                                   : No
  152. Original source medium                   : Blu-ray

  153. Text #5
  154. ID                                       : 9
  155. ID in the original source medium         : 4768 (0x12A0)
  156. Format                                   : PGS
  157. Muxing mode                              : zlib
  158. Codec ID                                 : S_HDMV/PGS
  159. Codec ID/Info                            : Picture based subtitle format used on BDs/HD-DVDs
  160. Duration                                 : 2 h 14 min
  161. Bit rate                                 : 21.5 kb/s
  162. Count of elements                        : 2505
  163. Stream size                              : 20.7 MiB (0%)
  164. Title                                    : English-SDH-PGS
  165. Language                                 : English
  166. Default                                  : No
  167. Forced                                   : No
  168. Original source medium                   : Blu-ray

  169. Text #6
  170. ID                                       : 10
  171. ID in the original source medium         : 4772 (0x12A4)
  172. Format                                   : PGS
  173. Muxing mode                              : zlib
  174. Codec ID                                 : S_HDMV/PGS
  175. Codec ID/Info                            : Picture based subtitle format used on BDs/HD-DVDs
  176. Duration                                 : 2 h 9 min
  177. Bit rate                                 : 8 558 b/s
  178. Count of elements                        : 1372
  179. Stream size                              : 7.90 MiB (0%)
  180. Title                                    : Arabic-PGS
  181. Language                                 : Arabic
  182. Default                                  : No
  183. Forced                                   : No
  184. Original source medium                   : Blu-ray

  185. Text #7
  186. ID                                       : 11
  187. ID in the original source medium         : 4772 (0x12A4)
  188. Format                                   : PGS
  189. Muxing mode                              : zlib
  190. Codec ID                                 : S_HDMV/PGS
  191. Codec ID/Info                            : Picture based subtitle format used on BDs/HD-DVDs
  192. Duration                                 : 5 s 89 ms
  193. Bit rate                                 : 9 557 b/s
  194. Count of elements                        : 2
  195. Stream size                              : 5.94 KiB (0%)
  196. Title                                    : Arabic-FORCED-PGS
  197. Language                                 : Arabic
  198. Default                                  : No
  199. Forced                                   : No
  200. Original source medium                   : Blu-ray

  201. Text #8
  202. ID                                       : 12
  203. ID in the original source medium         : 4773 (0x12A5)
  204. Format                                   : PGS
  205. Muxing mode                              : zlib
  206. Codec ID                                 : S_HDMV/PGS
  207. Codec ID/Info                            : Picture based subtitle format used on BDs/HD-DVDs
  208. Duration                                 : 2 h 16 min
  209. Bit rate                                 : 12.8 kb/s
  210. Count of elements                        : 1554
  211. Stream size                              : 12.5 MiB (0%)
  212. Title                                    : Chinese-PGS
  213. Language                                 : Chinese
  214. Default                                  : No
  215. Forced                                   : No
  216. Original source medium                   : Blu-ray

  217. Text #9
  218. ID                                       : 13
  219. ID in the original source medium         : 4774 (0x12A6)
  220. Format                                   : PGS
  221. Muxing mode                              : zlib
  222. Codec ID                                 : S_HDMV/PGS
  223. Codec ID/Info                            : Picture based subtitle format used on BDs/HD-DVDs
  224. Duration                                 : 2 h 8 min
  225. Bit rate                                 : 13.3 kb/s
  226. Count of elements                        : 1552
  227. Stream size                              : 12.3 MiB (0%)
  228. Title                                    : Chinese-PGS
  229. Language                                 : Chinese
  230. Default                                  : No
  231. Forced                                   : No
  232. Original source medium                   : Blu-ray

  233. Text #10
  234. ID                                       : 14
  235. ID in the original source medium         : 4774 (0x12A6)
  236. Format                                   : PGS
  237. Muxing mode                              : zlib
  238. Codec ID                                 : S_HDMV/PGS
  239. Codec ID/Info                            : Picture based subtitle format used on BDs/HD-DVDs
  240. Duration                                 : 24 s 649 ms
  241. Bit rate                                 : 54.4 kb/s
  242. Count of elements                        : 18
  243. Stream size                              : 164 KiB (0%)
  244. Title                                    : Chinese-PGS
  245. Language                                 : Chinese
  246. Default                                  : No
  247. Forced                                   : No
  248. Original source medium                   : Blu-ray

  249. Text #11
  250. ID                                       : 15
  251. ID in the original source medium         : 4775 (0x12A7)
  252. Format                                   : PGS
  253. Muxing mode                              : zlib
  254. Codec ID                                 : S_HDMV/PGS
  255. Codec ID/Info                            : Picture based subtitle format used on BDs/HD-DVDs
  256. Duration                                 : 2 h 16 min
  257. Bit rate                                 : 14.5 kb/s
  258. Count of elements                        : 1566
  259. Stream size                              : 14.2 MiB (0%)
  260. Title                                    : Croatian-PGS
  261. Language                                 : Croatian
  262. Default                                  : No
  263. Forced                                   : No
  264. Original source medium                   : Blu-ray

  265. Text #12
  266. ID                                       : 16
  267. ID in the original source medium         : 4776 (0x12A8)
  268. Format                                   : PGS
  269. Muxing mode                              : zlib
  270. Codec ID                                 : S_HDMV/PGS
  271. Codec ID/Info                            : Picture based subtitle format used on BDs/HD-DVDs
  272. Duration                                 : 2 h 9 min
  273. Bit rate                                 : 15.7 kb/s
  274. Count of elements                        : 1556
  275. Stream size                              : 14.5 MiB (0%)
  276. Title                                    : Czech-PGS
  277. Language                                 : Czech
  278. Default                                  : No
  279. Forced                                   : No
  280. Original source medium                   : Blu-ray

  281. Text #13
  282. ID                                       : 17
  283. ID in the original source medium         : 4777 (0x12A9)
  284. Format                                   : PGS
  285. Muxing mode                              : zlib
  286. Codec ID                                 : S_HDMV/PGS
  287. Codec ID/Info                            : Picture based subtitle format used on BDs/HD-DVDs
  288. Duration                                 : 2 h 9 min
  289. Bit rate                                 : 15.8 kb/s
  290. Count of elements                        : 1364
  291. Stream size                              : 14.6 MiB (0%)
  292. Title                                    : Danish-PGS
  293. Language                                 : Danish
  294. Default                                  : No
  295. Forced                                   : No
  296. Original source medium                   : Blu-ray

  297. Text #14
  298. ID                                       : 18
  299. ID in the original source medium         : 4778 (0x12AA)
  300. Format                                   : PGS
  301. Muxing mode                              : zlib
  302. Codec ID                                 : S_HDMV/PGS
  303. Codec ID/Info                            : Picture based subtitle format used on BDs/HD-DVDs
  304. Duration                                 : 2 h 16 min
  305. Bit rate                                 : 16.1 kb/s
  306. Count of elements                        : 1424
  307. Stream size                              : 15.7 MiB (0%)
  308. Title                                    : Dutch-PGS
  309. Language                                 : Dutch
  310. Default                                  : No
  311. Forced                                   : No
  312. Original source medium                   : Blu-ray

  313. Text #15
  314. ID                                       : 19
  315. ID in the original source medium         : 4779 (0x12AB)
  316. Format                                   : PGS
  317. Muxing mode                              : zlib
  318. Codec ID                                 : S_HDMV/PGS
  319. Codec ID/Info                            : Picture based subtitle format used on BDs/HD-DVDs
  320. Duration                                 : 2 h 8 min
  321. Bit rate                                 : 16.6 kb/s
  322. Count of elements                        : 1362
  323. Stream size                              : 15.3 MiB (0%)
  324. Title                                    : Finnish-PGS
  325. Language                                 : Finnish
  326. Default                                  : No
  327. Forced                                   : No
  328. Original source medium                   : Blu-ray

  329. Text #16
  330. ID                                       : 20
  331. ID in the original source medium         : 4780 (0x12AC)
  332. Format                                   : PGS
  333. Muxing mode                              : zlib
  334. Codec ID                                 : S_HDMV/PGS
  335. Codec ID/Info                            : Picture based subtitle format used on BDs/HD-DVDs
  336. Duration                                 : 2 h 16 min
  337. Bit rate                                 : 17.3 kb/s
  338. Count of elements                        : 1670
  339. Stream size                              : 16.9 MiB (0%)
  340. Title                                    : French-PGS
  341. Language                                 : French
  342. Default                                  : No
  343. Forced                                   : No
  344. Original source medium                   : Blu-ray

  345. Text #17
  346. ID                                       : 21
  347. ID in the original source medium         : 4781 (0x12AD)
  348. Format                                   : PGS
  349. Muxing mode                              : zlib
  350. Codec ID                                 : S_HDMV/PGS
  351. Codec ID/Info                            : Picture based subtitle format used on BDs/HD-DVDs
  352. Duration                                 : 2 h 9 min
  353. Bit rate                                 : 19.2 kb/s
  354. Count of elements                        : 1546
  355. Stream size                              : 17.7 MiB (0%)
  356. Title                                    : German-PGS
  357. Language                                 : German
  358. Default                                  : No
  359. Forced                                   : No
  360. Original source medium                   : Blu-ray

  361. Text #18
  362. ID                                       : 22
  363. ID in the original source medium         : 4782 (0x12AE)
  364. Format                                   : PGS
  365. Muxing mode                              : zlib
  366. Codec ID                                 : S_HDMV/PGS
  367. Codec ID/Info                            : Picture based subtitle format used on BDs/HD-DVDs
  368. Duration                                 : 2 h 9 min
  369. Bit rate                                 : 16.2 kb/s
  370. Count of elements                        : 1478
  371. Stream size                              : 15.0 MiB (0%)
  372. Title                                    : Greek-PGS
  373. Language                                 : Greek
  374. Default                                  : No
  375. Forced                                   : No
  376. Original source medium                   : Blu-ray

  377. Text #19
  378. ID                                       : 23
  379. ID in the original source medium         : 4783 (0x12AF)
  380. Format                                   : PGS
  381. Muxing mode                              : zlib
  382. Codec ID                                 : S_HDMV/PGS
  383. Codec ID/Info                            : Picture based subtitle format used on BDs/HD-DVDs
  384. Duration                                 : 2 h 16 min
  385. Bit rate                                 : 11.9 kb/s
  386. Count of elements                        : 1564
  387. Stream size                              : 11.7 MiB (0%)
  388. Title                                    : Hindi-PGS
  389. Language                                 : Hindi
  390. Default                                  : No
  391. Forced                                   : No
  392. Original source medium                   : Blu-ray

  393. Text #20
  394. ID                                       : 24
  395. ID in the original source medium         : 4784 (0x12B0)
  396. Format                                   : PGS
  397. Muxing mode                              : zlib
  398. Codec ID                                 : S_HDMV/PGS
  399. Codec ID/Info                            : Picture based subtitle format used on BDs/HD-DVDs
  400. Duration                                 : 2 h 9 min
  401. Bit rate                                 : 17.5 kb/s
  402. Count of elements                        : 1562
  403. Stream size                              : 16.1 MiB (0%)
  404. Title                                    : Hungarian-PGS
  405. Language                                 : Hungarian
  406. Default                                  : No
  407. Forced                                   : No
  408. Original source medium                   : Blu-ray

  409. Text #21
  410. ID                                       : 25
  411. ID in the original source medium         : 4785 (0x12B1)
  412. Format                                   : PGS
  413. Muxing mode                              : zlib
  414. Codec ID                                 : S_HDMV/PGS
  415. Codec ID/Info                            : Picture based subtitle format used on BDs/HD-DVDs
  416. Duration                                 : 2 h 9 min
  417. Bit rate                                 : 17.0 kb/s
  418. Count of elements                        : 1560
  419. Stream size                              : 15.7 MiB (0%)
  420. Title                                    : Italian-PGS
  421. Language                                 : Italian
  422. Default                                  : No
  423. Forced                                   : No
  424. Original source medium                   : Blu-ray

  425. Text #22
  426. ID                                       : 26
  427. ID in the original source medium         : 4786 (0x12B2)
  428. Format                                   : PGS
  429. Muxing mode                              : zlib
  430. Codec ID                                 : S_HDMV/PGS
  431. Codec ID/Info                            : Picture based subtitle format used on BDs/HD-DVDs
  432. Duration                                 : 2 h 9 min
  433. Bit rate                                 : 14.7 kb/s
  434. Count of elements                        : 1448
  435. Stream size                              : 13.5 MiB (0%)
  436. Title                                    : Korean-PGS
  437. Language                                 : Korean
  438. Default                                  : No
  439. Forced                                   : No
  440. Original source medium                   : Blu-ray

  441. Text #23
  442. ID                                       : 27
  443. ID in the original source medium         : 4787 (0x12B3)
  444. Format                                   : PGS
  445. Muxing mode                              : zlib
  446. Codec ID                                 : S_HDMV/PGS
  447. Codec ID/Info                            : Picture based subtitle format used on BDs/HD-DVDs
  448. Duration                                 : 2 h 16 min
  449. Bit rate                                 : 15.2 kb/s
  450. Count of elements                        : 1410
  451. Stream size                              : 14.9 MiB (0%)
  452. Title                                    : Norwegian-PGS
  453. Language                                 : Norwegian
  454. Default                                  : No
  455. Forced                                   : No
  456. Original source medium                   : Blu-ray

  457. Text #24
  458. ID                                       : 28
  459. ID in the original source medium         : 4788 (0x12B4)
  460. Format                                   : PGS
  461. Muxing mode                              : zlib
  462. Codec ID                                 : S_HDMV/PGS
  463. Codec ID/Info                            : Picture based subtitle format used on BDs/HD-DVDs
  464. Duration                                 : 2 h 9 min
  465. Bit rate                                 : 17.2 kb/s
  466. Count of elements                        : 1536
  467. Stream size                              : 15.8 MiB (0%)
  468. Title                                    : Polish-PGS
  469. Language                                 : Polish
  470. Default                                  : No
  471. Forced                                   : No
  472. Original source medium                   : Blu-ray

  473. Text #25
  474. ID                                       : 29
  475. ID in the original source medium         : 4789 (0x12B5)
  476. Format                                   : PGS
  477. Muxing mode                              : zlib
  478. Codec ID                                 : S_HDMV/PGS
  479. Codec ID/Info                            : Picture based subtitle format used on BDs/HD-DVDs
  480. Duration                                 : 2 h 9 min
  481. Bit rate                                 : 18.3 kb/s
  482. Count of elements                        : 1718
  483. Stream size                              : 16.9 MiB (0%)
  484. Title                                    : Portuguese-PGS
  485. Language                                 : Portuguese
  486. Default                                  : No
  487. Forced                                   : No
  488. Original source medium                   : Blu-ray

  489. Text #26
  490. ID                                       : 30
  491. ID in the original source medium         : 4790 (0x12B6)
  492. Format                                   : PGS
  493. Muxing mode                              : zlib
  494. Codec ID                                 : S_HDMV/PGS
  495. Codec ID/Info                            : Picture based subtitle format used on BDs/HD-DVDs
  496. Duration                                 : 2 h 9 min
  497. Bit rate                                 : 17.3 kb/s
  498. Count of elements                        : 1494
  499. Stream size                              : 15.9 MiB (0%)
  500. Title                                    : Portuguese-PGS
  501. Language                                 : Portuguese
  502. Default                                  : No
  503. Forced                                   : No
  504. Original source medium                   : Blu-ray

  505. Text #27
  506. ID                                       : 31
  507. ID in the original source medium         : 4791 (0x12B7)
  508. Format                                   : PGS
  509. Muxing mode                              : zlib
  510. Codec ID                                 : S_HDMV/PGS
  511. Codec ID/Info                            : Picture based subtitle format used on BDs/HD-DVDs
  512. Duration                                 : 2 h 16 min
  513. Bit rate                                 : 15.5 kb/s
  514. Count of elements                        : 1564
  515. Stream size                              : 15.2 MiB (0%)
  516. Title                                    : Romanian-PGS
  517. Language                                 : Romanian
  518. Default                                  : No
  519. Forced                                   : No
  520. Original source medium                   : Blu-ray

  521. Text #28
  522. ID                                       : 32
  523. ID in the original source medium         : 4792 (0x12B8)
  524. Format                                   : PGS
  525. Muxing mode                              : zlib
  526. Codec ID                                 : S_HDMV/PGS
  527. Codec ID/Info                            : Picture based subtitle format used on BDs/HD-DVDs
  528. Duration                                 : 2 h 9 min
  529. Bit rate                                 : 16.3 kb/s
  530. Count of elements                        : 1552
  531. Stream size                              : 15.1 MiB (0%)
  532. Title                                    : Russian-PGS
  533. Language                                 : Russian
  534. Default                                  : No
  535. Forced                                   : No
  536. Original source medium                   : Blu-ray

  537. Text #29
  538. ID                                       : 33
  539. ID in the original source medium         : 4793 (0x12B9)
  540. Format                                   : PGS
  541. Muxing mode                              : zlib
  542. Codec ID                                 : S_HDMV/PGS
  543. Codec ID/Info                            : Picture based subtitle format used on BDs/HD-DVDs
  544. Duration                                 : 2 h 16 min
  545. Bit rate                                 : 15.8 kb/s
  546. Count of elements                        : 1562
  547. Stream size                              : 15.4 MiB (0%)
  548. Title                                    : Slovak-PGS
  549. Language                                 : Slovak
  550. Default                                  : No
  551. Forced                                   : No
  552. Original source medium                   : Blu-ray

  553. Text #30
  554. ID                                       : 34
  555. ID in the original source medium         : 4794 (0x12BA)
  556. Format                                   : PGS
  557. Muxing mode                              : zlib
  558. Codec ID                                 : S_HDMV/PGS
  559. Codec ID/Info                            : Picture based subtitle format used on BDs/HD-DVDs
  560. Duration                                 : 2 h 16 min
  561. Bit rate                                 : 14.7 kb/s
  562. Count of elements                        : 1564
  563. Stream size                              : 14.3 MiB (0%)
  564. Title                                    : Slovenian-PGS
  565. Language                                 : Slovenian
  566. Default                                  : No
  567. Forced                                   : No
  568. Original source medium                   : Blu-ray

  569. Text #31
  570. ID                                       : 35
  571. ID in the original source medium         : 4795 (0x12BB)
  572. Format                                   : PGS
  573. Muxing mode                              : zlib
  574. Codec ID                                 : S_HDMV/PGS
  575. Codec ID/Info                            : Picture based subtitle format used on BDs/HD-DVDs
  576. Duration                                 : 2 h 9 min
  577. Bit rate                                 : 16.8 kb/s
  578. Count of elements                        : 1454
  579. Stream size                              : 15.5 MiB (0%)
  580. Title                                    : Spanish-PGS
  581. Language                                 : Spanish
  582. Default                                  : No
  583. Forced                                   : No
  584. Original source medium                   : Blu-ray

  585. Text #32
  586. ID                                       : 36
  587. ID in the original source medium         : 4796 (0x12BC)
  588. Format                                   : PGS
  589. Muxing mode                              : zlib
  590. Codec ID                                 : S_HDMV/PGS
  591. Codec ID/Info                            : Picture based subtitle format used on BDs/HD-DVDs
  592. Duration                                 : 2 h 9 min
  593. Bit rate                                 : 19.3 kb/s
  594. Count of elements                        : 2148
  595. Stream size                              : 17.9 MiB (0%)
  596. Title                                    : Spanish-PGS
  597. Language                                 : Spanish
  598. Default                                  : No
  599. Forced                                   : No
  600. Original source medium                   : Blu-ray

  601. Text #33
  602. ID                                       : 37
  603. ID in the original source medium         : 4797 (0x12BD)
  604. Format                                   : PGS
  605. Muxing mode                              : zlib
  606. Codec ID                                 : S_HDMV/PGS
  607. Codec ID/Info                            : Picture based subtitle format used on BDs/HD-DVDs
  608. Duration                                 : 2 h 16 min
  609. Bit rate                                 : 15.5 kb/s
  610. Count of elements                        : 1526
  611. Stream size                              : 15.2 MiB (0%)
  612. Title                                    : Swedish-PGS
  613. Language                                 : Swedish
  614. Default                                  : No
  615. Forced                                   : No
  616. Original source medium                   : Blu-ray

  617. Text #34
  618. ID                                       : 38
  619. ID in the original source medium         : 4798 (0x12BE)
  620. Format                                   : PGS
  621. Muxing mode                              : zlib
  622. Codec ID                                 : S_HDMV/PGS
  623. Codec ID/Info                            : Picture based subtitle format used on BDs/HD-DVDs
  624. Duration                                 : 2 h 8 min
  625. Bit rate                                 : 16.9 kb/s
  626. Count of elements                        : 1554
  627. Stream size                              : 15.6 MiB (0%)
  628. Title                                    : Thai-PGS
  629. Language                                 : Thai
  630. Default                                  : No
  631. Forced                                   : No
  632. Original source medium                   : Blu-ray

  633. Text #35
  634. ID                                       : 39
  635. ID in the original source medium         : 4799 (0x12BF)
  636. Format                                   : PGS
  637. Muxing mode                              : zlib
  638. Codec ID                                 : S_HDMV/PGS
  639. Codec ID/Info                            : Picture based subtitle format used on BDs/HD-DVDs
  640. Duration                                 : 2 h 9 min
  641. Bit rate                                 : 17.3 kb/s
  642. Count of elements                        : 1556
  643. Stream size                              : 15.9 MiB (0%)
  644. Title                                    : Turkish-PGS
  645. Language                                 : Turkish
  646. Default                                  : No
  647. Forced                                   : No
  648. Original source medium                   : Blu-ray

  649. Menu
  650. 00:00:00.000                             : en:Chapter 01
  651. 00:09:53.384                             : en:Chapter 02
  652. 00:14:03.884                             : en:Chapter 03
  653. 00:27:00.285                             : en:Chapter 04
  654. 00:32:53.888                             : en:Chapter 05
  655. 00:37:08.434                             : en:Chapter 06
  656. 00:42:49.233                             : en:Chapter 07
  657. 00:51:58.198                             : en:Chapter 08
  658. 01:02:13.062                             : en:Chapter 09
  659. 01:09:05.766                             : en:Chapter 10
  660. 01:15:40.661                             : en:Chapter 11
  661. 01:31:09.630                             : en:Chapter 12
  662. 01:41:00.012                             : en:Chapter 13
  663. 01:46:26.129                             : en:Chapter 14
  664. 01:52:12.016                             : en:Chapter 15
  665. 02:04:20.119                             : en:Chapter 16
复制代码

佐罗的面具/蒙面侠苏洛 The.Mask.of.Zorro.1998.2160p.BluRay.x264.8bit.SDR.DTS-HD.MA.TrueHD.7.1.Atmos-SWTYBLZ 59.93GB-2.png 佐罗的面具/蒙面侠苏洛 The.Mask.of.Zorro.1998.2160p.BluRay.x264.8bit.SDR.DTS-HD.MA.TrueHD.7.1.Atmos-SWTYBLZ 59.93GB-3.png 佐罗的面具/蒙面侠苏洛 The.Mask.of.Zorro.1998.2160p.BluRay.x264.8bit.SDR.DTS-HD.MA.TrueHD.7.1.Atmos-SWTYBLZ 59.93GB-4.png 佐罗的面具/蒙面侠苏洛 The.Mask.of.Zorro.1998.2160p.BluRay.x264.8bit.SDR.DTS-HD.MA.TrueHD.7.1.Atmos-SWTYBLZ 59.93GB-5.png 佐罗的面具/蒙面侠苏洛 The.Mask.of.Zorro.1998.2160p.BluRay.x264.8bit.SDR.DTS-HD.MA.TrueHD.7.1.Atmos-SWTYBLZ 59.93GB-6.png 佐罗的面具/蒙面侠苏洛 The.Mask.of.Zorro.1998.2160p.BluRay.x264.8bit.SDR.DTS-HD.MA.TrueHD.7.1.Atmos-SWTYBLZ 59.93GB-7.png 佐罗的面具/蒙面侠苏洛 The.Mask.of.Zorro.1998.2160p.BluRay.x264.8bit.SDR.DTS-HD.MA.TrueHD.7.1.Atmos-SWTYBLZ 59.93GB-8.png 佐罗的面具/蒙面侠苏洛 The.Mask.of.Zorro.1998.2160p.BluRay.x264.8bit.SDR.DTS-HD.MA.TrueHD.7.1.Atmos-SWTYBLZ 59.93GB-9.png







回复

使用道具 举报

发表于 2020-5-20 01:06:57 | 显示全部楼层

这东西我收了!谢谢楼主!蓝光电影网真好!
回复 支持 反对

使用道具 举报

发表于 2020-5-20 08:29:58 来自手机 | 显示全部楼层
支持楼主,回顾一下经典!
回复 支持 反对

使用道具 举报

发表于 2020-5-20 08:43:16 | 显示全部楼层

这个帖子不回对不起自己!我想我是一天也不能离开蓝光电影网
回复 支持 反对

使用道具 举报

发表于 2020-5-20 09:12:32 | 显示全部楼层
楼主发贴辛苦了,谢谢楼主分享!我觉得蓝光电影网是注册对了!
回复 支持 反对

使用道具 举报

发表于 2020-5-20 09:29:05 | 显示全部楼层
楼主发贴辛苦了,谢谢楼主分享!我觉得蓝光电影网是注册对了!
回复 支持 反对

使用道具 举报

发表于 2020-5-20 12:31:31 | 显示全部楼层

楼主太厉害了!楼主,电影应该很好看我觉得蓝光电影网真是个好地方!
回复 支持 反对

使用道具 举报

发表于 2020-5-20 12:55:02 | 显示全部楼层
感谢楼主分享
回复 支持 反对

使用道具 举报

发表于 2020-5-20 14:15:52 | 显示全部楼层
楼主发贴辛苦了,谢谢楼主分享!我觉得蓝光电影网是注册对了!
回复 支持 反对

使用道具 举报

发表于 2020-5-20 15:33:16 | 显示全部楼层
猪猪猪猪猪猪猪做做做做做做
回复 支持 反对

使用道具 举报

懒得打字嘛,点击右侧快捷回复 【右侧内容,后台自定义】
您需要登录后才可以回帖 登录 | 立即加入

本版积分规则

现在加入蓝光电影网,注册一个账号
上个主题 下个主题 快速回复 收藏帖子 返回列表 客服中心 搜索

手机版|小黑屋| 蓝光电影网 |网站地图 

Copyright © 2015-2019 Comsenz Inc.  Template by 蓝光电影论坛 All Rights Reserved.

Powered by 蓝光电影网 X3.4

特别声明:本站所有资源均由网上收集而来,版权归原影音公司所有,如果侵犯了你的权益,请通知我们,我们会及时删除侵权内容.

快速回复 返回顶部 返回列表