找回密码

蓝光电影网

查看: 101|回复: 3

[10bit.SDR] 佐罗的面具/蒙面侠苏洛 The.Mask.of.Zorro.1998.2160p.BluRay.x265.10bit.SDR.DTS-HD.MA.TrueHD.7.1.Atmos-SWTYBLZ 54.59GB

[复制链接]

 成长值: 26125

发表于 2020-5-19 21:00:06 | 显示全部楼层 |阅读模式
佐罗的面具/蒙面侠苏洛 The.Mask.of.Zorro.1998.2160p.BluRay.x265.10bit.SDR.DTS-HD.MA.TrueHD.7.1.Atmos-SWTYBLZ 54.59GB-1.png

译  名 佐罗的面具 / 蒙面侠苏洛 / 黑侠佐罗 / 黑侠梭罗
片  名 The Mask of Zorro
年  代 1998
产  地 美国 / 德国
类  别 动作 / 爱情 / 西部 / 冒险
语  言 英语
上映日期 1998-07-17(美国)
IMDb评分  6.7/10 from 163888 users
IMDb链接  https://www.imdb.com/title/tt0120746
豆瓣评分 7.5/10 from 22830 users
豆瓣链接 https://movie.douban.com/subject/1293225/
片  长 136分钟
导  演 Martin Campbell
编  剧 John Eskow / Ted Elliott / Terry Rossio
主  演 Antonio Banderas
       Anthony Hopkins
       Catherine Zeta-Jones
       Stuart Wilson


标  签 动作 | 美国 | 佐罗 | 美国电影 | 爱情 | 安东尼奥·班德拉斯 | AntonioBanderas | 英雄

简  介  

  蒙面英雄佐罗(安东尼?霍普金斯 Anthony Hopkins 饰)为了阻止西班牙总督蒙特罗滥杀无辜,突然从天而降,劫走了准备行刑的犯人,从而与蒙特罗结下深仇。随后,蒙特罗派部队跟踪了佐罗。在一片混战中,佐罗的妻子被杀死,还在襁褓中的女儿被虐走,佐罗也被投入了监牢。一晃眼二十年过去了,为了让自己的事业后继有人,佐罗带上面具逃出了监狱。蒙特罗这时仍然在作恶,他计划买下加利福尼亚的所有权。佐罗找到了年轻的盗贼马瑞塔(安东尼奥?班德拉斯 Antonio Banderas 饰),将毕生所学都传授了给他,希望马瑞塔能够阻止蒙特罗的阴谋。马瑞塔继承了佐罗的面具,然而当他找到蒙特罗时,发现拦在他面前的凶狠的西班牙公主(凯瑟琳?泽塔-琼斯 Catherine Zeta-Jones 饰)竟然就是当年老佐罗的女儿!

获奖情况  

  第71届奥斯卡金像奖(1999)
  最佳音效剪辑(提名) Dave McMoyler
  最佳音响(提名) 格雷格· P·罗素 / 凯文·奥康奈尔 / Pud Cusack

  第56届金球奖(1999)
  电影类 最佳音乐/喜剧片(提名)
  电影类 音乐/喜剧片最佳男主角(提名) 安东尼奥·班德拉斯
  1. Video
  2. ID                                       : 1
  3. Format                                   : HEVC
  4. Format/Info                              : High Efficiency Video Coding
  5. Format profile                           : Main High@L4@High
  6. Codec ID                                 : V_MPEGH/ISO/HEVC
  7. Duration                                 : 2 h 17 min
  8. Bit rate                                 : 47.9 Mb/s
  9. Width                                    : 3 840 pixels
  10. Height                                   : 1 600 pixels
  11. Display aspect ratio                     : 2.40:1
  12. Frame rate mode                          : Constant
  13. Frame rate                               : 23.976 (24000/1001/189150) FPS
  14. Color space                              : YUV
  15. Chroma subsampling                       : 4:2:0
  16. Bit depth                                : 10 bits
  17. Bits/(Pixel*Frame)                       : 0.325
  18. Stream size                              : 46.0 GiB (85%)
  19. Title                                    : The.Mask.of.Zorro.1998.2160p.BluRay.x265.10bit.SDR.DTS-HD.MA.TrueHD.7.1.Atmos-SWTYBLZ
  20. Writing library                          : x265 3.0ed72af837053:[Windows][GCC 8.2.0][64 bit] 10bit
  21. Encoding settings                        : cpuid=1111039 / frame-threads=6 / numa-pools=40 / wpp / no-pmode / no-pme / no-psnr / no-ssim / log-level=2 / input-csp=1 / input-res=3840x1600 / interlace=0 / total-frames=197928 / level-idc=51 / high-tier=1 / uhd-bd=0 / ref=3 / no-allow-non-conformance / repeat-headers / annexb / aud / hrd / info / hash=0 / no-temporal-layers / no-open-gop / min-keyint=1 / keyint=24 / gop-lookahead=0 / bframes=4 / b-adapt=2 / b-pyramid / bframe-bias=0 / rc-lookahead=25 / lookahead-slices=4 / scenecut=40 / radl=0 / no-splice / no-intra-refresh / ctu=64 / min-cu-size=8 / no-rect / no-amp / max-tu-size=32 / tu-inter-depth=1 / tu-intra-depth=1 / limit-tu=0 / rdoq-level=0 / dynamic-rd=0.00 / no-ssim-rd / signhide / no-tskip / nr-intra=0 / nr-inter=0 / no-constrained-intra / strong-intra-smoothing / max-merge=2 / limit-refs=3 / no-limit-modes / me=1 / subme=2 / merange=57 / temporal-mvp / weightp / no-weightb / no-analyze-src-pics / deblock=0:0 / no-sao / no-sao-non-deblock / rd=3 / no-early-skip / rskip / no-fast-intra / no-tskip-fast / no-cu-lossless / no-b-intra / no-splitrd-skip / rdpenalty=0 / psy-rd=2.00 / psy-rdoq=0.00 / no-rd-refine / no-lossless / cbqpoffs=0 / crqpoffs=0 / rc=crf / crf=19.0 / qcomp=0.60 / qpstep=4 / stats-write=0 / stats-read=0 / vbv-maxrate=160000 / vbv-bufsize=160000 / vbv-init=0.9 / crf-max=0.0 / crf-min=0.0 / ipratio=1.40 / pbratio=1.30 / aq-mode=1 / aq-strength=1.00 / cutree / zone-count=0 / no-strict-cbr / qg-size=32 / no-rc-grain / qpmax=69 / qpmin=0 / no-const-vbv / sar=1 / overscan=0 / videoformat=5 / range=0 / colorprim=2 / transfer=2 / colormatrix=2 / chromaloc=0 / display-window=0 / max-cll=0,0 / min-luma=0 / max-luma=1023 / log2-max-poc-lsb=8 / vui-timing-info / vui-hrd-info / slices=1 / opt-qp-pps / opt-ref-list-length-pps / no-multi-pass-opt-rps / scenecut-bias=0.05 / no-opt-cu-delta-qp / no-aq-motion / no-hdr / no-hdr-opt / no-dhdr10-opt / no-idr-recovery-sei / analysis-reuse-level=5 / scale-factor=0 / refine-intra=0 / refine-inter=0 / refine-mv=0 / refine-ctu-distortion=0 / no-limit-sao / ctu-info=0 / no-lowpass-dct / refine-analysis-type=0 / copy-pic=1 / max-ausize-factor=1.0 / no-dynamic-refine / no-single-sei / no-hevc-aq / qp-adaptation-range=1.00
  22. Default                                  : Yes
  23. Forced                                   : No

  24. Audio #1
  25. ID                                       : 2
  26. ID in the original source medium         : 4352 (0x1100)
  27. Format                                   : MLP FBA 16-ch
  28. Format/Info                              : Meridian Lossless Packing FBA with 16-channel presentation
  29. Commercial name                          : Dolby TrueHD with Dolby Atmos
  30. Codec ID                                 : A_TRUEHD
  31. Duration                                 : 2 h 17 min
  32. Bit rate mode                            : Variable
  33. Bit rate                                 : 3 738 kb/s
  34. Maximum bit rate                         : 5 808 kb/s
  35. Channel(s)                               : 8 channels
  36. Channel layout                           : L R C LFE Ls Rs Lb Rb
  37. Sampling rate                            : 48.0 kHz
  38. Frame rate                               : 1 200.000 FPS (40 SPF)
  39. Compression mode                         : Lossless
  40. Stream size                              : 3.59 GiB (7%)
  41. Title                                    : The.Mask.of.Zorro.1998.2160p.BluRay.x265.10bit.SDR.DTS-HD.MA.TrueHD.7.1.Atmos-SWTYBLZ
  42. Language                                 : English
  43. Default                                  : Yes
  44. Forced                                   : No
  45. Original source medium                   : Blu-ray
  46. Number of dynamic objects                : 11
  47. Bed channel count                        : 1 channel
  48. Bed channel configuration                : LFE

  49. Audio #2
  50. ID                                       : 3
  51. Format                                   : DTS XLL
  52. Format/Info                              : Digital Theater Systems
  53. Commercial name                          : DTS-HD Master Audio
  54. Codec ID                                 : A_DTS
  55. Duration                                 : 2 h 17 min
  56. Bit rate mode                            : Variable
  57. Bit rate                                 : 4 030 kb/s
  58. Channel(s)                               : 8 channels
  59. Channel layout                           : C L R LFE Lb Rb Lss Rss
  60. Sampling rate                            : 48.0 kHz
  61. Frame rate                               : 93.750 FPS (512 SPF)
  62. Bit depth                                : 24 bits
  63. Compression mode                         : Lossless
  64. Stream size                              : 3.87 GiB (7%)
  65. Title                                    : The.Mask.of.Zorro.1998.2160p.BluRay.x265.10bit.SDR.DTS-HD.MA.TrueHD.7.1.Atmos-SWTYBLZ
  66. Language                                 : English
  67. Default                                  : No
  68. Forced                                   : No

  69. Audio #3
  70. ID                                       : 4
  71. ID in the original source medium         : 4352 (0x1100)
  72. Format                                   : AC-3
  73. Format/Info                              : Audio Coding 3
  74. Commercial name                          : Dolby Digital
  75. Codec ID                                 : A_AC3
  76. Duration                                 : 2 h 17 min
  77. Bit rate mode                            : Constant
  78. Bit rate                                 : 640 kb/s
  79. Channel(s)                               : 6 channels
  80. Channel layout                           : L R C LFE Ls Rs
  81. Sampling rate                            : 48.0 kHz
  82. Frame rate                               : 31.250 FPS (1536 SPF)
  83. Compression mode                         : Lossy
  84. Stream size                              : 630 MiB (1%)
  85. Title                                    : The.Mask.of.Zorro.1998.2160p.BluRay.x265.10bit.SDR.DTS-HD.MA.TrueHD.7.1.Atmos-SWTYBLZ
  86. Language                                 : English
  87. Service kind                             : Complete Main
  88. Default                                  : No
  89. Forced                                   : No
  90. Original source medium                   : Blu-ray

  91. Text #1
  92. ID                                       : 5
  93. Format                                   : UTF-8
  94. Codec ID                                 : S_TEXT/UTF8
  95. Codec ID/Info                            : UTF-8 Plain Text
  96. Duration                                 : 2 h 8 min
  97. Bit rate                                 : 34 b/s
  98. Count of elements                        : 1008
  99. Stream size                              : 32.2 KiB (0%)
  100. Title                                    : English-SRT
  101. Language                                 : English
  102. Default                                  : Yes
  103. Forced                                   : No

  104. Text #2
  105. ID                                       : 6
  106. Format                                   : UTF-8
  107. Codec ID                                 : S_TEXT/UTF8
  108. Codec ID/Info                            : UTF-8 Plain Text
  109. Duration                                 : 2 h 14 min
  110. Bit rate                                 : 35 b/s
  111. Count of elements                        : 1247
  112. Stream size                              : 34.7 KiB (0%)
  113. Title                                    : English-SDH-SRT
  114. Language                                 : English
  115. Default                                  : No
  116. Forced                                   : No

  117. Text #3
  118. ID                                       : 7
  119. ID in the original source medium         : 4769 (0x12A1)
  120. Format                                   : PGS
  121. Muxing mode                              : zlib
  122. Codec ID                                 : S_HDMV/PGS
  123. Codec ID/Info                            : Picture based subtitle format used on BDs/HD-DVDs
  124. Duration                                 : 5 s 380 ms
  125. Bit rate                                 : 59.4 kb/s
  126. Count of elements                        : 4
  127. Stream size                              : 39.0 KiB (0%)
  128. Title                                    : English-FORCED-PGS
  129. Language                                 : English
  130. Default                                  : No
  131. Forced                                   : No
  132. Original source medium                   : Blu-ray

  133. Text #4
  134. ID                                       : 8
  135. ID in the original source medium         : 4769 (0x12A1)
  136. Format                                   : PGS
  137. Muxing mode                              : zlib
  138. Codec ID                                 : S_HDMV/PGS
  139. Codec ID/Info                            : Picture based subtitle format used on BDs/HD-DVDs
  140. Duration                                 : 2 h 8 min
  141. Bit rate                                 : 19.2 kb/s
  142. Count of elements                        : 1690
  143. Stream size                              : 17.6 MiB (0%)
  144. Title                                    : English-PGS
  145. Language                                 : English
  146. Default                                  : No
  147. Forced                                   : No
  148. Original source medium                   : Blu-ray

  149. Text #5
  150. ID                                       : 9
  151. ID in the original source medium         : 4768 (0x12A0)
  152. Format                                   : PGS
  153. Muxing mode                              : zlib
  154. Codec ID                                 : S_HDMV/PGS
  155. Codec ID/Info                            : Picture based subtitle format used on BDs/HD-DVDs
  156. Duration                                 : 2 h 14 min
  157. Bit rate                                 : 21.5 kb/s
  158. Count of elements                        : 2505
  159. Stream size                              : 20.7 MiB (0%)
  160. Title                                    : English-SDH-PGS
  161. Language                                 : English
  162. Default                                  : No
  163. Forced                                   : No
  164. Original source medium                   : Blu-ray

  165. Text #6
  166. ID                                       : 10
  167. ID in the original source medium         : 4772 (0x12A4)
  168. Format                                   : PGS
  169. Muxing mode                              : zlib
  170. Codec ID                                 : S_HDMV/PGS
  171. Codec ID/Info                            : Picture based subtitle format used on BDs/HD-DVDs
  172. Duration                                 : 2 h 9 min
  173. Bit rate                                 : 8 558 b/s
  174. Count of elements                        : 1372
  175. Stream size                              : 7.90 MiB (0%)
  176. Title                                    : Arabic-PGS
  177. Language                                 : Arabic
  178. Default                                  : No
  179. Forced                                   : No
  180. Original source medium                   : Blu-ray

  181. Text #7
  182. ID                                       : 11
  183. ID in the original source medium         : 4772 (0x12A4)
  184. Format                                   : PGS
  185. Muxing mode                              : zlib
  186. Codec ID                                 : S_HDMV/PGS
  187. Codec ID/Info                            : Picture based subtitle format used on BDs/HD-DVDs
  188. Duration                                 : 5 s 89 ms
  189. Bit rate                                 : 9 557 b/s
  190. Count of elements                        : 2
  191. Stream size                              : 5.94 KiB (0%)
  192. Title                                    : Arabic-FORCED-PGS
  193. Language                                 : Arabic
  194. Default                                  : No
  195. Forced                                   : No
  196. Original source medium                   : Blu-ray

  197. Text #8
  198. ID                                       : 12
  199. ID in the original source medium         : 4773 (0x12A5)
  200. Format                                   : PGS
  201. Muxing mode                              : zlib
  202. Codec ID                                 : S_HDMV/PGS
  203. Codec ID/Info                            : Picture based subtitle format used on BDs/HD-DVDs
  204. Duration                                 : 2 h 16 min
  205. Bit rate                                 : 12.8 kb/s
  206. Count of elements                        : 1554
  207. Stream size                              : 12.5 MiB (0%)
  208. Title                                    : Chinese-PGS
  209. Language                                 : Chinese
  210. Default                                  : No
  211. Forced                                   : No
  212. Original source medium                   : Blu-ray

  213. Text #9
  214. ID                                       : 13
  215. ID in the original source medium         : 4774 (0x12A6)
  216. Format                                   : PGS
  217. Muxing mode                              : zlib
  218. Codec ID                                 : S_HDMV/PGS
  219. Codec ID/Info                            : Picture based subtitle format used on BDs/HD-DVDs
  220. Duration                                 : 2 h 8 min
  221. Bit rate                                 : 13.3 kb/s
  222. Count of elements                        : 1552
  223. Stream size                              : 12.3 MiB (0%)
  224. Title                                    : Chinese-PGS
  225. Language                                 : Chinese
  226. Default                                  : No
  227. Forced                                   : No
  228. Original source medium                   : Blu-ray

  229. Text #10
  230. ID                                       : 14
  231. ID in the original source medium         : 4774 (0x12A6)
  232. Format                                   : PGS
  233. Muxing mode                              : zlib
  234. Codec ID                                 : S_HDMV/PGS
  235. Codec ID/Info                            : Picture based subtitle format used on BDs/HD-DVDs
  236. Duration                                 : 24 s 649 ms
  237. Bit rate                                 : 54.4 kb/s
  238. Count of elements                        : 18
  239. Stream size                              : 164 KiB (0%)
  240. Title                                    : Chinese-PGS
  241. Language                                 : Chinese
  242. Default                                  : No
  243. Forced                                   : No
  244. Original source medium                   : Blu-ray

  245. Text #11
  246. ID                                       : 15
  247. ID in the original source medium         : 4775 (0x12A7)
  248. Format                                   : PGS
  249. Muxing mode                              : zlib
  250. Codec ID                                 : S_HDMV/PGS
  251. Codec ID/Info                            : Picture based subtitle format used on BDs/HD-DVDs
  252. Duration                                 : 2 h 16 min
  253. Bit rate                                 : 14.5 kb/s
  254. Count of elements                        : 1566
  255. Stream size                              : 14.2 MiB (0%)
  256. Title                                    : Croatian-PGS
  257. Language                                 : Croatian
  258. Default                                  : No
  259. Forced                                   : No
  260. Original source medium                   : Blu-ray

  261. Text #12
  262. ID                                       : 16
  263. ID in the original source medium         : 4776 (0x12A8)
  264. Format                                   : PGS
  265. Muxing mode                              : zlib
  266. Codec ID                                 : S_HDMV/PGS
  267. Codec ID/Info                            : Picture based subtitle format used on BDs/HD-DVDs
  268. Duration                                 : 2 h 9 min
  269. Bit rate                                 : 15.7 kb/s
  270. Count of elements                        : 1556
  271. Stream size                              : 14.5 MiB (0%)
  272. Title                                    : Czech-PGS
  273. Language                                 : Czech
  274. Default                                  : No
  275. Forced                                   : No
  276. Original source medium                   : Blu-ray

  277. Text #13
  278. ID                                       : 17
  279. ID in the original source medium         : 4777 (0x12A9)
  280. Format                                   : PGS
  281. Muxing mode                              : zlib
  282. Codec ID                                 : S_HDMV/PGS
  283. Codec ID/Info                            : Picture based subtitle format used on BDs/HD-DVDs
  284. Duration                                 : 2 h 9 min
  285. Bit rate                                 : 15.8 kb/s
  286. Count of elements                        : 1364
  287. Stream size                              : 14.6 MiB (0%)
  288. Title                                    : Danish-PGS
  289. Language                                 : Danish
  290. Default                                  : No
  291. Forced                                   : No
  292. Original source medium                   : Blu-ray

  293. Text #14
  294. ID                                       : 18
  295. ID in the original source medium         : 4778 (0x12AA)
  296. Format                                   : PGS
  297. Muxing mode                              : zlib
  298. Codec ID                                 : S_HDMV/PGS
  299. Codec ID/Info                            : Picture based subtitle format used on BDs/HD-DVDs
  300. Duration                                 : 2 h 16 min
  301. Bit rate                                 : 16.1 kb/s
  302. Count of elements                        : 1424
  303. Stream size                              : 15.7 MiB (0%)
  304. Title                                    : Dutch-PGS
  305. Language                                 : Dutch
  306. Default                                  : No
  307. Forced                                   : No
  308. Original source medium                   : Blu-ray

  309. Text #15
  310. ID                                       : 19
  311. ID in the original source medium         : 4779 (0x12AB)
  312. Format                                   : PGS
  313. Muxing mode                              : zlib
  314. Codec ID                                 : S_HDMV/PGS
  315. Codec ID/Info                            : Picture based subtitle format used on BDs/HD-DVDs
  316. Duration                                 : 2 h 8 min
  317. Bit rate                                 : 16.6 kb/s
  318. Count of elements                        : 1362
  319. Stream size                              : 15.3 MiB (0%)
  320. Title                                    : Finnish-PGS
  321. Language                                 : Finnish
  322. Default                                  : No
  323. Forced                                   : No
  324. Original source medium                   : Blu-ray

  325. Text #16
  326. ID                                       : 20
  327. ID in the original source medium         : 4780 (0x12AC)
  328. Format                                   : PGS
  329. Muxing mode                              : zlib
  330. Codec ID                                 : S_HDMV/PGS
  331. Codec ID/Info                            : Picture based subtitle format used on BDs/HD-DVDs
  332. Duration                                 : 2 h 16 min
  333. Bit rate                                 : 17.3 kb/s
  334. Count of elements                        : 1670
  335. Stream size                              : 16.9 MiB (0%)
  336. Title                                    : French-PGS
  337. Language                                 : French
  338. Default                                  : No
  339. Forced                                   : No
  340. Original source medium                   : Blu-ray

  341. Text #17
  342. ID                                       : 21
  343. ID in the original source medium         : 4781 (0x12AD)
  344. Format                                   : PGS
  345. Muxing mode                              : zlib
  346. Codec ID                                 : S_HDMV/PGS
  347. Codec ID/Info                            : Picture based subtitle format used on BDs/HD-DVDs
  348. Duration                                 : 2 h 9 min
  349. Bit rate                                 : 19.2 kb/s
  350. Count of elements                        : 1546
  351. Stream size                              : 17.7 MiB (0%)
  352. Title                                    : German-PGS
  353. Language                                 : German
  354. Default                                  : No
  355. Forced                                   : No
  356. Original source medium                   : Blu-ray

  357. Text #18
  358. ID                                       : 22
  359. ID in the original source medium         : 4782 (0x12AE)
  360. Format                                   : PGS
  361. Muxing mode                              : zlib
  362. Codec ID                                 : S_HDMV/PGS
  363. Codec ID/Info                            : Picture based subtitle format used on BDs/HD-DVDs
  364. Duration                                 : 2 h 9 min
  365. Bit rate                                 : 16.2 kb/s
  366. Count of elements                        : 1478
  367. Stream size                              : 15.0 MiB (0%)
  368. Title                                    : Greek-PGS
  369. Language                                 : Greek
  370. Default                                  : No
  371. Forced                                   : No
  372. Original source medium                   : Blu-ray

  373. Text #19
  374. ID                                       : 23
  375. ID in the original source medium         : 4783 (0x12AF)
  376. Format                                   : PGS
  377. Muxing mode                              : zlib
  378. Codec ID                                 : S_HDMV/PGS
  379. Codec ID/Info                            : Picture based subtitle format used on BDs/HD-DVDs
  380. Duration                                 : 2 h 16 min
  381. Bit rate                                 : 11.9 kb/s
  382. Count of elements                        : 1564
  383. Stream size                              : 11.7 MiB (0%)
  384. Title                                    : Hindi-PGS
  385. Language                                 : Hindi
  386. Default                                  : No
  387. Forced                                   : No
  388. Original source medium                   : Blu-ray

  389. Text #20
  390. ID                                       : 24
  391. ID in the original source medium         : 4784 (0x12B0)
  392. Format                                   : PGS
  393. Muxing mode                              : zlib
  394. Codec ID                                 : S_HDMV/PGS
  395. Codec ID/Info                            : Picture based subtitle format used on BDs/HD-DVDs
  396. Duration                                 : 2 h 9 min
  397. Bit rate                                 : 17.5 kb/s
  398. Count of elements                        : 1562
  399. Stream size                              : 16.1 MiB (0%)
  400. Title                                    : Hungarian-PGS
  401. Language                                 : Hungarian
  402. Default                                  : No
  403. Forced                                   : No
  404. Original source medium                   : Blu-ray

  405. Text #21
  406. ID                                       : 25
  407. ID in the original source medium         : 4785 (0x12B1)
  408. Format                                   : PGS
  409. Muxing mode                              : zlib
  410. Codec ID                                 : S_HDMV/PGS
  411. Codec ID/Info                            : Picture based subtitle format used on BDs/HD-DVDs
  412. Duration                                 : 2 h 9 min
  413. Bit rate                                 : 17.0 kb/s
  414. Count of elements                        : 1560
  415. Stream size                              : 15.7 MiB (0%)
  416. Title                                    : Italian-PGS
  417. Language                                 : Italian
  418. Default                                  : No
  419. Forced                                   : No
  420. Original source medium                   : Blu-ray

  421. Text #22
  422. ID                                       : 26
  423. ID in the original source medium         : 4786 (0x12B2)
  424. Format                                   : PGS
  425. Muxing mode                              : zlib
  426. Codec ID                                 : S_HDMV/PGS
  427. Codec ID/Info                            : Picture based subtitle format used on BDs/HD-DVDs
  428. Duration                                 : 2 h 9 min
  429. Bit rate                                 : 14.7 kb/s
  430. Count of elements                        : 1448
  431. Stream size                              : 13.5 MiB (0%)
  432. Title                                    : Korean-PGS
  433. Language                                 : Korean
  434. Default                                  : No
  435. Forced                                   : No
  436. Original source medium                   : Blu-ray

  437. Text #23
  438. ID                                       : 27
  439. ID in the original source medium         : 4787 (0x12B3)
  440. Format                                   : PGS
  441. Muxing mode                              : zlib
  442. Codec ID                                 : S_HDMV/PGS
  443. Codec ID/Info                            : Picture based subtitle format used on BDs/HD-DVDs
  444. Duration                                 : 2 h 16 min
  445. Bit rate                                 : 15.2 kb/s
  446. Count of elements                        : 1410
  447. Stream size                              : 14.9 MiB (0%)
  448. Title                                    : Norwegian-PGS
  449. Language                                 : Norwegian
  450. Default                                  : No
  451. Forced                                   : No
  452. Original source medium                   : Blu-ray

  453. Text #24
  454. ID                                       : 28
  455. ID in the original source medium         : 4788 (0x12B4)
  456. Format                                   : PGS
  457. Muxing mode                              : zlib
  458. Codec ID                                 : S_HDMV/PGS
  459. Codec ID/Info                            : Picture based subtitle format used on BDs/HD-DVDs
  460. Duration                                 : 2 h 9 min
  461. Bit rate                                 : 17.2 kb/s
  462. Count of elements                        : 1536
  463. Stream size                              : 15.8 MiB (0%)
  464. Title                                    : Polish-PGS
  465. Language                                 : Polish
  466. Default                                  : No
  467. Forced                                   : No
  468. Original source medium                   : Blu-ray

  469. Text #25
  470. ID                                       : 29
  471. ID in the original source medium         : 4789 (0x12B5)
  472. Format                                   : PGS
  473. Muxing mode                              : zlib
  474. Codec ID                                 : S_HDMV/PGS
  475. Codec ID/Info                            : Picture based subtitle format used on BDs/HD-DVDs
  476. Duration                                 : 2 h 9 min
  477. Bit rate                                 : 18.3 kb/s
  478. Count of elements                        : 1718
  479. Stream size                              : 16.9 MiB (0%)
  480. Title                                    : Portuguese-PGS
  481. Language                                 : Portuguese
  482. Default                                  : No
  483. Forced                                   : No
  484. Original source medium                   : Blu-ray

  485. Text #26
  486. ID                                       : 30
  487. ID in the original source medium         : 4790 (0x12B6)
  488. Format                                   : PGS
  489. Muxing mode                              : zlib
  490. Codec ID                                 : S_HDMV/PGS
  491. Codec ID/Info                            : Picture based subtitle format used on BDs/HD-DVDs
  492. Duration                                 : 2 h 9 min
  493. Bit rate                                 : 17.3 kb/s
  494. Count of elements                        : 1494
  495. Stream size                              : 15.9 MiB (0%)
  496. Title                                    : Portuguese-PGS
  497. Language                                 : Portuguese
  498. Default                                  : No
  499. Forced                                   : No
  500. Original source medium                   : Blu-ray

  501. Text #27
  502. ID                                       : 31
  503. ID in the original source medium         : 4791 (0x12B7)
  504. Format                                   : PGS
  505. Muxing mode                              : zlib
  506. Codec ID                                 : S_HDMV/PGS
  507. Codec ID/Info                            : Picture based subtitle format used on BDs/HD-DVDs
  508. Duration                                 : 2 h 16 min
  509. Bit rate                                 : 15.5 kb/s
  510. Count of elements                        : 1564
  511. Stream size                              : 15.2 MiB (0%)
  512. Title                                    : Romanian-PGS
  513. Language                                 : Romanian
  514. Default                                  : No
  515. Forced                                   : No
  516. Original source medium                   : Blu-ray

  517. Text #28
  518. ID                                       : 32
  519. ID in the original source medium         : 4792 (0x12B8)
  520. Format                                   : PGS
  521. Muxing mode                              : zlib
  522. Codec ID                                 : S_HDMV/PGS
  523. Codec ID/Info                            : Picture based subtitle format used on BDs/HD-DVDs
  524. Duration                                 : 2 h 9 min
  525. Bit rate                                 : 16.3 kb/s
  526. Count of elements                        : 1552
  527. Stream size                              : 15.1 MiB (0%)
  528. Title                                    : Russian-PGS
  529. Language                                 : Russian
  530. Default                                  : No
  531. Forced                                   : No
  532. Original source medium                   : Blu-ray

  533. Text #29
  534. ID                                       : 33
  535. ID in the original source medium         : 4793 (0x12B9)
  536. Format                                   : PGS
  537. Muxing mode                              : zlib
  538. Codec ID                                 : S_HDMV/PGS
  539. Codec ID/Info                            : Picture based subtitle format used on BDs/HD-DVDs
  540. Duration                                 : 2 h 16 min
  541. Bit rate                                 : 15.8 kb/s
  542. Count of elements                        : 1562
  543. Stream size                              : 15.4 MiB (0%)
  544. Title                                    : Slovak-PGS
  545. Language                                 : Slovak
  546. Default                                  : No
  547. Forced                                   : No
  548. Original source medium                   : Blu-ray

  549. Text #30
  550. ID                                       : 34
  551. ID in the original source medium         : 4794 (0x12BA)
  552. Format                                   : PGS
  553. Muxing mode                              : zlib
  554. Codec ID                                 : S_HDMV/PGS
  555. Codec ID/Info                            : Picture based subtitle format used on BDs/HD-DVDs
  556. Duration                                 : 2 h 16 min
  557. Bit rate                                 : 14.7 kb/s
  558. Count of elements                        : 1564
  559. Stream size                              : 14.3 MiB (0%)
  560. Title                                    : Slovenian-PGS
  561. Language                                 : Slovenian
  562. Default                                  : No
  563. Forced                                   : No
  564. Original source medium                   : Blu-ray

  565. Text #31
  566. ID                                       : 35
  567. ID in the original source medium         : 4795 (0x12BB)
  568. Format                                   : PGS
  569. Muxing mode                              : zlib
  570. Codec ID                                 : S_HDMV/PGS
  571. Codec ID/Info                            : Picture based subtitle format used on BDs/HD-DVDs
  572. Duration                                 : 2 h 9 min
  573. Bit rate                                 : 16.8 kb/s
  574. Count of elements                        : 1454
  575. Stream size                              : 15.5 MiB (0%)
  576. Title                                    : Spanish-PGS
  577. Language                                 : Spanish
  578. Default                                  : No
  579. Forced                                   : No
  580. Original source medium                   : Blu-ray

  581. Text #32
  582. ID                                       : 36
  583. ID in the original source medium         : 4796 (0x12BC)
  584. Format                                   : PGS
  585. Muxing mode                              : zlib
  586. Codec ID                                 : S_HDMV/PGS
  587. Codec ID/Info                            : Picture based subtitle format used on BDs/HD-DVDs
  588. Duration                                 : 2 h 9 min
  589. Bit rate                                 : 19.3 kb/s
  590. Count of elements                        : 2148
  591. Stream size                              : 17.9 MiB (0%)
  592. Title                                    : Spanish-PGS
  593. Language                                 : Spanish
  594. Default                                  : No
  595. Forced                                   : No
  596. Original source medium                   : Blu-ray

  597. Text #33
  598. ID                                       : 37
  599. ID in the original source medium         : 4797 (0x12BD)
  600. Format                                   : PGS
  601. Muxing mode                              : zlib
  602. Codec ID                                 : S_HDMV/PGS
  603. Codec ID/Info                            : Picture based subtitle format used on BDs/HD-DVDs
  604. Duration                                 : 2 h 16 min
  605. Bit rate                                 : 15.5 kb/s
  606. Count of elements                        : 1526
  607. Stream size                              : 15.2 MiB (0%)
  608. Title                                    : Swedish-PGS
  609. Language                                 : Swedish
  610. Default                                  : No
  611. Forced                                   : No
  612. Original source medium                   : Blu-ray

  613. Text #34
  614. ID                                       : 38
  615. ID in the original source medium         : 4798 (0x12BE)
  616. Format                                   : PGS
  617. Muxing mode                              : zlib
  618. Codec ID                                 : S_HDMV/PGS
  619. Codec ID/Info                            : Picture based subtitle format used on BDs/HD-DVDs
  620. Duration                                 : 2 h 8 min
  621. Bit rate                                 : 16.9 kb/s
  622. Count of elements                        : 1554
  623. Stream size                              : 15.6 MiB (0%)
  624. Title                                    : Thai-PGS
  625. Language                                 : Thai
  626. Default                                  : No
  627. Forced                                   : No
  628. Original source medium                   : Blu-ray

  629. Text #35
  630. ID                                       : 39
  631. ID in the original source medium         : 4799 (0x12BF)
  632. Format                                   : PGS
  633. Muxing mode                              : zlib
  634. Codec ID                                 : S_HDMV/PGS
  635. Codec ID/Info                            : Picture based subtitle format used on BDs/HD-DVDs
  636. Duration                                 : 2 h 9 min
  637. Bit rate                                 : 17.3 kb/s
  638. Count of elements                        : 1556
  639. Stream size                              : 15.9 MiB (0%)
  640. Title                                    : Turkish-PGS
  641. Language                                 : Turkish
  642. Default                                  : No
  643. Forced                                   : No
  644. Original source medium                   : Blu-ray

  645. Menu
  646. 00:00:00.000                             : en:Chapter 01
  647. 00:09:53.384                             : en:Chapter 02
  648. 00:14:03.884                             : en:Chapter 03
  649. 00:27:00.285                             : en:Chapter 04
  650. 00:32:53.888                             : en:Chapter 05
  651. 00:37:08.434                             : en:Chapter 06
  652. 00:42:49.233                             : en:Chapter 07
  653. 00:51:58.198                             : en:Chapter 08
  654. 01:02:13.062                             : en:Chapter 09
  655. 01:09:05.766                             : en:Chapter 10
  656. 01:15:40.661                             : en:Chapter 11
  657. 01:31:09.630                             : en:Chapter 12
  658. 01:41:00.012                             : en:Chapter 13
  659. 01:46:26.129                             : en:Chapter 14
  660. 01:52:12.016                             : en:Chapter 15
  661. 02:04:20.119                             : en:Chapter 16
复制代码

佐罗的面具/蒙面侠苏洛 The.Mask.of.Zorro.1998.2160p.BluRay.x265.10bit.SDR.DTS-HD.MA.TrueHD.7.1.Atmos-SWTYBLZ 54.59GB-2.png 佐罗的面具/蒙面侠苏洛 The.Mask.of.Zorro.1998.2160p.BluRay.x265.10bit.SDR.DTS-HD.MA.TrueHD.7.1.Atmos-SWTYBLZ 54.59GB-3.png 佐罗的面具/蒙面侠苏洛 The.Mask.of.Zorro.1998.2160p.BluRay.x265.10bit.SDR.DTS-HD.MA.TrueHD.7.1.Atmos-SWTYBLZ 54.59GB-4.png 佐罗的面具/蒙面侠苏洛 The.Mask.of.Zorro.1998.2160p.BluRay.x265.10bit.SDR.DTS-HD.MA.TrueHD.7.1.Atmos-SWTYBLZ 54.59GB-5.png 佐罗的面具/蒙面侠苏洛 The.Mask.of.Zorro.1998.2160p.BluRay.x265.10bit.SDR.DTS-HD.MA.TrueHD.7.1.Atmos-SWTYBLZ 54.59GB-6.png 佐罗的面具/蒙面侠苏洛 The.Mask.of.Zorro.1998.2160p.BluRay.x265.10bit.SDR.DTS-HD.MA.TrueHD.7.1.Atmos-SWTYBLZ 54.59GB-7.png 佐罗的面具/蒙面侠苏洛 The.Mask.of.Zorro.1998.2160p.BluRay.x265.10bit.SDR.DTS-HD.MA.TrueHD.7.1.Atmos-SWTYBLZ 54.59GB-8.png 佐罗的面具/蒙面侠苏洛 The.Mask.of.Zorro.1998.2160p.BluRay.x265.10bit.SDR.DTS-HD.MA.TrueHD.7.1.Atmos-SWTYBLZ 54.59GB-9.png






回复

使用道具 举报

发表于 2020-5-20 07:05:02 | 显示全部楼层

这东西我收了!谢谢楼主!蓝光电影网真好!
回复 支持 反对

使用道具 举报

发表于 2020-5-20 17:11:10 | 显示全部楼层
经典,老佐罗带新佐罗传衣钵,主题曲也超正
回复 支持 反对

使用道具 举报

发表于 2020-5-21 08:47:02 | 显示全部楼层

其实我一直觉得楼主的品味不错!呵呵!蓝光电影网太棒了!
回复 支持 反对

使用道具 举报

懒得打字嘛,点击右侧快捷回复 【右侧内容,后台自定义】
您需要登录后才可以回帖 登录 | 立即加入

本版积分规则

现在加入蓝光电影网,注册一个账号
上个主题 下个主题 快速回复 收藏帖子 返回列表 客服中心 搜索

手机版|小黑屋| 蓝光电影网 |网站地图 

Copyright © 2015-2019 Comsenz Inc.  Template by 蓝光电影论坛 All Rights Reserved.

Powered by 蓝光电影网 X3.4

特别声明:本站所有资源均由网上收集而来,版权归原影音公司所有,如果侵犯了你的权益,请通知我们,我们会及时删除侵权内容.

快速回复 返回顶部 返回列表