找回密码

蓝光电影网

查看: 138|回复: 4

[10bit.HDR] 佐罗的面具/蒙面侠苏洛 The.Mask.of.Zorro.1998.2160p.UHD.BluRay.X265.10bit.HDR.TrueHD.7.1.Atmos-AViATOR 36.87GB

[复制链接]

 成长值: 26125

发表于 2020-5-19 20:59:03 | 显示全部楼层 |阅读模式
佐罗的面具/蒙面侠苏洛 The.Mask.of.Zorro.1998.2160p.UHD.BluRay.X265.10bit.HDR.TrueHD.7.1.Atmos-AViATOR 36.87GB-1.png

译  名 佐罗的面具 / 蒙面侠苏洛 / 黑侠佐罗 / 黑侠梭罗
片  名 The Mask of Zorro
年  代 1998
产  地 美国 / 德国
类  别 动作 / 爱情 / 西部 / 冒险
语  言 英语
上映日期 1998-07-17(美国)
IMDb评分  6.7/10 from 163888 users
IMDb链接  https://www.imdb.com/title/tt0120746
豆瓣评分 7.5/10 from 22830 users
豆瓣链接 https://movie.douban.com/subject/1293225/
片  长 136分钟
导  演 Martin Campbell
编  剧 John Eskow / Ted Elliott / Terry Rossio
主  演 Antonio Banderas
       Anthony Hopkins
       Catherine Zeta-Jones
       Stuart Wilson


标  签 动作 | 美国 | 佐罗 | 美国电影 | 爱情 | 安东尼奥·班德拉斯 | AntonioBanderas | 英雄

简  介  

  蒙面英雄佐罗(安东尼?霍普金斯 Anthony Hopkins 饰)为了阻止西班牙总督蒙特罗滥杀无辜,突然从天而降,劫走了准备行刑的犯人,从而与蒙特罗结下深仇。随后,蒙特罗派部队跟踪了佐罗。在一片混战中,佐罗的妻子被杀死,还在襁褓中的女儿被虐走,佐罗也被投入了监牢。一晃眼二十年过去了,为了让自己的事业后继有人,佐罗带上面具逃出了监狱。蒙特罗这时仍然在作恶,他计划买下加利福尼亚的所有权。佐罗找到了年轻的盗贼马瑞塔(安东尼奥?班德拉斯 Antonio Banderas 饰),将毕生所学都传授了给他,希望马瑞塔能够阻止蒙特罗的阴谋。马瑞塔继承了佐罗的面具,然而当他找到蒙特罗时,发现拦在他面前的凶狠的西班牙公主(凯瑟琳?泽塔-琼斯 Catherine Zeta-Jones 饰)竟然就是当年老佐罗的女儿!

获奖情况  

  第71届奥斯卡金像奖(1999)
  最佳音效剪辑(提名) Dave McMoyler
  最佳音响(提名) 格雷格· P·罗素 / 凯文·奥康奈尔 / Pud Cusack

  第56届金球奖(1999)
  电影类 最佳音乐/喜剧片(提名)
  电影类 音乐/喜剧片最佳男主角(提名) 安东尼奥·班德拉斯

  1. Video
  2. ID                                       : 1
  3. Format                                   : HEVC
  4. Format/Info                              : High Efficiency Video Coding
  5. Format profile                           : Main 10@L5.1@High
  6. HDR format                               : SMPTE ST 2086, HDR10 compatible
  7. Codec ID                                 : V_MPEGH/ISO/HEVC
  8. Duration                                 : 2 h 17 min
  9. Bit rate                                 : 33.7 Mb/s
  10. Width                                    : 3 840 pixels
  11. Height                                   : 1 600 pixels
  12. Display aspect ratio                     : 2.40:1
  13. Frame rate mode                          : Constant
  14. Frame rate                               : 23.976 (24000/1001/45165) FPS
  15. Color space                              : YUV
  16. Chroma subsampling                       : 4:2:0 (Type 2)
  17. Bit depth                                : 10 bits
  18. Bits/(Pixel*Frame)                       : 0.229
  19. Stream size                              : 32.4 GiB (88%)
  20. Writing library                          : x265 3.3+21-6bb2d88029c2:[Windows][GCC 10.0.1][64 bit] 10bit
  21. Encoding settings                        : cpuid=1176575 / frame-threads=5 / numa-pools=36 / wpp / no-pmode / no-pme / no-psnr / no-ssim / log-level=2 / input-csp=1 / input-res=3840x1600 / interlace=0 / total-frames=197928 / level-idc=51 / high-tier=1 / uhd-bd=0 / ref=4 / no-allow-non-conformance / repeat-headers / annexb / aud / hrd / info / hash=0 / no-temporal-layers / open-gop / min-keyint=23 / keyint=250 / gop-lookahead=0 / bframes=4 / b-adapt=2 / b-pyramid / bframe-bias=0 / rc-lookahead=25 / lookahead-slices=4 / scenecut=40 / hist-scenecut=0 / radl=0 / no-splice / no-intra-refresh / ctu=64 / min-cu-size=8 / rect / no-amp / max-tu-size=32 / tu-inter-depth=1 / tu-intra-depth=1 / limit-tu=0 / rdoq-level=2 / dynamic-rd=0.00 / no-ssim-rd / signhide / no-tskip / nr-intra=0 / nr-inter=0 / no-constrained-intra / strong-intra-smoothing / max-merge=3 / limit-refs=3 / limit-modes / me=3 / subme=3 / merange=57 / temporal-mvp / no-frame-dup / no-hme / weightp / no-weightb / no-analyze-src-pics / deblock=-3:-3 / no-sao / no-sao-non-deblock / rd=4 / selective-sao=0 / no-early-skip / rskip / no-fast-intra / no-tskip-fast / no-cu-lossless / no-b-intra / no-splitrd-skip / rdpenalty=0 / psy-rd=2.00 / psy-rdoq=1.00 / no-rd-refine / no-lossless / cbqpoffs=0 / crqpoffs=0 / rc=crf / crf=19.0 / qcomp=0.60 / qpstep=4 / stats-write=0 / stats-read=0 / vbv-maxrate=160000 / vbv-bufsize=160000 / vbv-init=0.9 / crf-max=0.0 / crf-min=0.0 / ipratio=1.40 / pbratio=1.30 / aq-mode=2 / aq-strength=1.00 / cutree / zone-count=0 / no-strict-cbr / qg-size=32 / no-rc-grain / qpmax=69 / qpmin=0 / no-const-vbv / sar=1 / overscan=0 / videoformat=5 / range=0 / colorprim=9 / transfer=16 / colormatrix=9 / chromaloc=1 / chromaloc-top=2 / chromaloc-bottom=2 / display-window=0 / master-display=G(13250,34500)B(7500,3000)R(34000,16000)WP(15635,16450)L(40000000,50) / cll=10000,2179 / min-luma=0 / max-luma=1023 / log2-max-poc-lsb=8 / vui-timing-info / vui-hrd-info / slices=1 / no-opt-qp-pps / no-opt-ref-list-length-pps / no-multi-pass-opt-rps / scenecut-bias=0.05 / hist-threshold=0.01 / no-opt-cu-delta-qp / no-aq-motion / hdr10 / hdr10-opt / no-dhdr10-opt / no-idr-recovery-sei / analysis-reuse-level=0 / analysis-save-reuse-level=0 / analysis-load-reuse-level=0 / scale-factor=0 / refine-intra=0 / refine-inter=0 / refine-mv=1 / refine-ctu-distortion=0 / no-limit-sao / ctu-info=0 / no-lowpass-dct / refine-analysis-type=0 / copy-pic=1 / max-ausize-factor=1.0 / no-dynamic-refine / no-single-sei / no-hevc-aq / no-svt / no-field / qp-adaptation-range=1.00 / no-scenecut-aware-qpconformance-window-offsets / right=0 / bottom=0 / decoder-max-rate=0
  22. Default                                  : Yes
  23. Forced                                   : No
  24. Color range                              : Limited
  25. Color primaries                          : BT.2020
  26. Transfer characteristics                 : PQ
  27. Matrix coefficients                      : BT.2020 non-constant
  28. Mastering display color primaries        : Display P3
  29. Mastering display luminance              : min: 0.0050 cd/m2, max: 4000 cd/m2
  30. Maximum Content Light Level              : 10000 cd/m2
  31. Maximum Frame-Average Light Level        : 2179 cd/m2

  32. Audio #1
  33. ID                                       : 2
  34. Format                                   : MLP FBA 16-ch
  35. Format/Info                              : Meridian Lossless Packing FBA with 16-channel presentation
  36. Commercial name                          : Dolby TrueHD with Dolby Atmos
  37. Codec ID                                 : A_TRUEHD
  38. Duration                                 : 2 h 17 min
  39. Bit rate mode                            : Variable
  40. Bit rate                                 : 3 738 kb/s
  41. Maximum bit rate                         : 5 808 kb/s
  42. Channel(s)                               : 8 channels
  43. Channel layout                           : L R C LFE Ls Rs Lb Rb
  44. Sampling rate                            : 48.0 kHz
  45. Frame rate                               : 1 200.000 FPS (40 SPF)
  46. Compression mode                         : Lossless
  47. Stream size                              : 3.59 GiB (10%)
  48. Language                                 : English
  49. Default                                  : Yes
  50. Forced                                   : No
  51. Number of dynamic objects                : 11
  52. Bed channel count                        : 1 channel
  53. Bed channel configuration                : LFE

  54. Audio #2
  55. ID                                       : 3
  56. Format                                   : AC-3
  57. Format/Info                              : Audio Coding 3
  58. Commercial name                          : Dolby Digital
  59. Codec ID                                 : A_AC3
  60. Duration                                 : 2 h 17 min
  61. Bit rate mode                            : Constant
  62. Bit rate                                 : 640 kb/s
  63. Channel(s)                               : 6 channels
  64. Channel layout                           : L R C LFE Ls Rs
  65. Sampling rate                            : 48.0 kHz
  66. Frame rate                               : 31.250 FPS (1536 SPF)
  67. Bit depth                                : 16 bits
  68. Compression mode                         : Lossy
  69. Stream size                              : 630 MiB (2%)
  70. Language                                 : English
  71. Service kind                             : Complete Main
  72. Default                                  : No
  73. Forced                                   : No

  74. Text #1
  75. ID                                       : 4
  76. Format                                   : UTF-8
  77. Codec ID                                 : S_TEXT/UTF8
  78. Codec ID/Info                            : UTF-8 Plain Text
  79. Duration                                 : 5 s 422 ms
  80. Bit rate                                 : 100 b/s
  81. Count of elements                        : 2
  82. Stream size                              : 68.0 Bytes (0%)
  83. Title                                    : English Forced
  84. Language                                 : English
  85. Default                                  : Yes
  86. Forced                                   : Yes

  87. Text #2
  88. ID                                       : 5
  89. Format                                   : PGS
  90. Muxing mode                              : zlib
  91. Codec ID                                 : S_HDMV/PGS
  92. Codec ID/Info                            : Picture based subtitle format used on BDs/HD-DVDs
  93. Duration                                 : 2 h 14 min
  94. Bit rate                                 : 21.5 kb/s
  95. Count of elements                        : 2505
  96. Stream size                              : 20.7 MiB (0%)
  97. Title                                    : English SDH
  98. Language                                 : English
  99. Default                                  : No
  100. Forced                                   : No

  101. Text #3
  102. ID                                       : 6
  103. Format                                   : PGS
  104. Muxing mode                              : zlib
  105. Codec ID                                 : S_HDMV/PGS
  106. Codec ID/Info                            : Picture based subtitle format used on BDs/HD-DVDs
  107. Duration                                 : 2 h 8 min
  108. Bit rate                                 : 19.2 kb/s
  109. Count of elements                        : 1690
  110. Stream size                              : 17.6 MiB (0%)
  111. Title                                    : English
  112. Language                                 : English
  113. Default                                  : No
  114. Forced                                   : No

  115. Text #4
  116. ID                                       : 7
  117. Format                                   : PGS
  118. Muxing mode                              : zlib
  119. Codec ID                                 : S_HDMV/PGS
  120. Codec ID/Info                            : Picture based subtitle format used on BDs/HD-DVDs
  121. Duration                                 : 2 h 14 min
  122. Bit rate                                 : 21.5 kb/s
  123. Count of elements                        : 2505
  124. Stream size                              : 20.7 MiB (0%)
  125. Title                                    : English SDH
  126. Language                                 : English
  127. Default                                  : No
  128. Forced                                   : No

  129. Text #5
  130. ID                                       : 8
  131. Format                                   : PGS
  132. Muxing mode                              : zlib
  133. Codec ID                                 : S_HDMV/PGS
  134. Codec ID/Info                            : Picture based subtitle format used on BDs/HD-DVDs
  135. Duration                                 : 2 h 8 min
  136. Bit rate                                 : 19.2 kb/s
  137. Count of elements                        : 1690
  138. Stream size                              : 17.6 MiB (0%)
  139. Title                                    : English
  140. Language                                 : English
  141. Default                                  : No
  142. Forced                                   : No

  143. Text #6
  144. ID                                       : 9
  145. Format                                   : PGS
  146. Muxing mode                              : zlib
  147. Codec ID                                 : S_HDMV/PGS
  148. Codec ID/Info                            : Picture based subtitle format used on BDs/HD-DVDs
  149. Duration                                 : 2 h 9 min
  150. Bit rate                                 : 8 558 b/s
  151. Count of elements                        : 1372
  152. Stream size                              : 7.90 MiB (0%)
  153. Title                                    : Arabic
  154. Language                                 : Arabic
  155. Default                                  : No
  156. Forced                                   : No

  157. Text #7
  158. ID                                       : 10
  159. Format                                   : PGS
  160. Muxing mode                              : zlib
  161. Codec ID                                 : S_HDMV/PGS
  162. Codec ID/Info                            : Picture based subtitle format used on BDs/HD-DVDs
  163. Duration                                 : 2 h 16 min
  164. Bit rate                                 : 12.8 kb/s
  165. Count of elements                        : 1554
  166. Stream size                              : 12.5 MiB (0%)
  167. Title                                    : Chinese
  168. Language                                 : Chinese
  169. Default                                  : No
  170. Forced                                   : No

  171. Text #8
  172. ID                                       : 11
  173. Format                                   : PGS
  174. Muxing mode                              : zlib
  175. Codec ID                                 : S_HDMV/PGS
  176. Codec ID/Info                            : Picture based subtitle format used on BDs/HD-DVDs
  177. Duration                                 : 2 h 8 min
  178. Bit rate                                 : 13.3 kb/s
  179. Count of elements                        : 1552
  180. Stream size                              : 12.3 MiB (0%)
  181. Title                                    : Chinese
  182. Language                                 : Chinese
  183. Default                                  : No
  184. Forced                                   : No

  185. Text #9
  186. ID                                       : 12
  187. Format                                   : PGS
  188. Muxing mode                              : zlib
  189. Codec ID                                 : S_HDMV/PGS
  190. Codec ID/Info                            : Picture based subtitle format used on BDs/HD-DVDs
  191. Duration                                 : 2 h 16 min
  192. Bit rate                                 : 14.5 kb/s
  193. Count of elements                        : 1566
  194. Stream size                              : 14.2 MiB (0%)
  195. Title                                    : Croatian
  196. Language                                 : Croatian
  197. Default                                  : No
  198. Forced                                   : No

  199. Text #10
  200. ID                                       : 13
  201. Format                                   : PGS
  202. Muxing mode                              : zlib
  203. Codec ID                                 : S_HDMV/PGS
  204. Codec ID/Info                            : Picture based subtitle format used on BDs/HD-DVDs
  205. Duration                                 : 2 h 9 min
  206. Bit rate                                 : 15.7 kb/s
  207. Count of elements                        : 1556
  208. Stream size                              : 14.5 MiB (0%)
  209. Title                                    : Czech
  210. Language                                 : Czech
  211. Default                                  : No
  212. Forced                                   : No

  213. Text #11
  214. ID                                       : 14
  215. Format                                   : PGS
  216. Muxing mode                              : zlib
  217. Codec ID                                 : S_HDMV/PGS
  218. Codec ID/Info                            : Picture based subtitle format used on BDs/HD-DVDs
  219. Duration                                 : 2 h 9 min
  220. Bit rate                                 : 15.8 kb/s
  221. Count of elements                        : 1364
  222. Stream size                              : 14.6 MiB (0%)
  223. Title                                    : Danish
  224. Language                                 : Danish
  225. Default                                  : No
  226. Forced                                   : No

  227. Text #12
  228. ID                                       : 15
  229. Format                                   : PGS
  230. Muxing mode                              : zlib
  231. Codec ID                                 : S_HDMV/PGS
  232. Codec ID/Info                            : Picture based subtitle format used on BDs/HD-DVDs
  233. Duration                                 : 2 h 16 min
  234. Bit rate                                 : 16.1 kb/s
  235. Count of elements                        : 1424
  236. Stream size                              : 15.7 MiB (0%)
  237. Title                                    : Dutch
  238. Language                                 : Dutch
  239. Default                                  : No
  240. Forced                                   : No

  241. Text #13
  242. ID                                       : 16
  243. Format                                   : PGS
  244. Muxing mode                              : zlib
  245. Codec ID                                 : S_HDMV/PGS
  246. Codec ID/Info                            : Picture based subtitle format used on BDs/HD-DVDs
  247. Duration                                 : 2 h 8 min
  248. Bit rate                                 : 16.6 kb/s
  249. Count of elements                        : 1362
  250. Stream size                              : 15.3 MiB (0%)
  251. Title                                    : Finnish
  252. Language                                 : Finnish
  253. Default                                  : No
  254. Forced                                   : No

  255. Text #14
  256. ID                                       : 17
  257. Format                                   : PGS
  258. Muxing mode                              : zlib
  259. Codec ID                                 : S_HDMV/PGS
  260. Codec ID/Info                            : Picture based subtitle format used on BDs/HD-DVDs
  261. Duration                                 : 2 h 16 min
  262. Bit rate                                 : 17.3 kb/s
  263. Count of elements                        : 1670
  264. Stream size                              : 16.9 MiB (0%)
  265. Title                                    : French
  266. Language                                 : French
  267. Default                                  : No
  268. Forced                                   : No

  269. Text #15
  270. ID                                       : 18
  271. Format                                   : PGS
  272. Muxing mode                              : zlib
  273. Codec ID                                 : S_HDMV/PGS
  274. Codec ID/Info                            : Picture based subtitle format used on BDs/HD-DVDs
  275. Duration                                 : 2 h 9 min
  276. Bit rate                                 : 19.2 kb/s
  277. Count of elements                        : 1546
  278. Stream size                              : 17.7 MiB (0%)
  279. Title                                    : German
  280. Language                                 : German
  281. Default                                  : No
  282. Forced                                   : No

  283. Text #16
  284. ID                                       : 19
  285. Format                                   : PGS
  286. Muxing mode                              : zlib
  287. Codec ID                                 : S_HDMV/PGS
  288. Codec ID/Info                            : Picture based subtitle format used on BDs/HD-DVDs
  289. Duration                                 : 2 h 9 min
  290. Bit rate                                 : 16.2 kb/s
  291. Count of elements                        : 1478
  292. Stream size                              : 15.0 MiB (0%)
  293. Title                                    : Greek
  294. Language                                 : Greek
  295. Default                                  : No
  296. Forced                                   : No

  297. Text #17
  298. ID                                       : 20
  299. Format                                   : PGS
  300. Muxing mode                              : zlib
  301. Codec ID                                 : S_HDMV/PGS
  302. Codec ID/Info                            : Picture based subtitle format used on BDs/HD-DVDs
  303. Duration                                 : 2 h 16 min
  304. Bit rate                                 : 11.9 kb/s
  305. Count of elements                        : 1564
  306. Stream size                              : 11.7 MiB (0%)
  307. Title                                    : Hindi
  308. Language                                 : Hindi
  309. Default                                  : No
  310. Forced                                   : No

  311. Text #18
  312. ID                                       : 21
  313. Format                                   : PGS
  314. Muxing mode                              : zlib
  315. Codec ID                                 : S_HDMV/PGS
  316. Codec ID/Info                            : Picture based subtitle format used on BDs/HD-DVDs
  317. Duration                                 : 2 h 9 min
  318. Bit rate                                 : 17.5 kb/s
  319. Count of elements                        : 1562
  320. Stream size                              : 16.1 MiB (0%)
  321. Title                                    : Hungarian
  322. Language                                 : Hungarian
  323. Default                                  : No
  324. Forced                                   : No

  325. Text #19
  326. ID                                       : 22
  327. Format                                   : PGS
  328. Muxing mode                              : zlib
  329. Codec ID                                 : S_HDMV/PGS
  330. Codec ID/Info                            : Picture based subtitle format used on BDs/HD-DVDs
  331. Duration                                 : 2 h 9 min
  332. Bit rate                                 : 17.0 kb/s
  333. Count of elements                        : 1560
  334. Stream size                              : 15.7 MiB (0%)
  335. Title                                    : Italian
  336. Language                                 : Italian
  337. Default                                  : No
  338. Forced                                   : No

  339. Text #20
  340. ID                                       : 23
  341. Format                                   : PGS
  342. Muxing mode                              : zlib
  343. Codec ID                                 : S_HDMV/PGS
  344. Codec ID/Info                            : Picture based subtitle format used on BDs/HD-DVDs
  345. Duration                                 : 2 h 9 min
  346. Bit rate                                 : 14.7 kb/s
  347. Count of elements                        : 1448
  348. Stream size                              : 13.5 MiB (0%)
  349. Title                                    : Korean
  350. Language                                 : Korean
  351. Default                                  : No
  352. Forced                                   : No

  353. Text #21
  354. ID                                       : 24
  355. Format                                   : PGS
  356. Muxing mode                              : zlib
  357. Codec ID                                 : S_HDMV/PGS
  358. Codec ID/Info                            : Picture based subtitle format used on BDs/HD-DVDs
  359. Duration                                 : 2 h 16 min
  360. Bit rate                                 : 15.2 kb/s
  361. Count of elements                        : 1410
  362. Stream size                              : 14.9 MiB (0%)
  363. Title                                    : Norwegian
  364. Language                                 : Norwegian
  365. Default                                  : No
  366. Forced                                   : No

  367. Text #22
  368. ID                                       : 25
  369. Format                                   : PGS
  370. Muxing mode                              : zlib
  371. Codec ID                                 : S_HDMV/PGS
  372. Codec ID/Info                            : Picture based subtitle format used on BDs/HD-DVDs
  373. Duration                                 : 2 h 9 min
  374. Bit rate                                 : 17.2 kb/s
  375. Count of elements                        : 1536
  376. Stream size                              : 15.8 MiB (0%)
  377. Title                                    : Polish
  378. Language                                 : Polish
  379. Default                                  : No
  380. Forced                                   : No

  381. Text #23
  382. ID                                       : 26
  383. Format                                   : PGS
  384. Muxing mode                              : zlib
  385. Codec ID                                 : S_HDMV/PGS
  386. Codec ID/Info                            : Picture based subtitle format used on BDs/HD-DVDs
  387. Duration                                 : 2 h 9 min
  388. Bit rate                                 : 18.3 kb/s
  389. Count of elements                        : 1718
  390. Stream size                              : 16.9 MiB (0%)
  391. Title                                    : Portuguese
  392. Language                                 : Portuguese
  393. Default                                  : No
  394. Forced                                   : No

  395. Text #24
  396. ID                                       : 27
  397. Format                                   : PGS
  398. Muxing mode                              : zlib
  399. Codec ID                                 : S_HDMV/PGS
  400. Codec ID/Info                            : Picture based subtitle format used on BDs/HD-DVDs
  401. Duration                                 : 2 h 9 min
  402. Bit rate                                 : 17.3 kb/s
  403. Count of elements                        : 1494
  404. Stream size                              : 15.9 MiB (0%)
  405. Title                                    : Portuguese
  406. Language                                 : Portuguese
  407. Default                                  : No
  408. Forced                                   : No

  409. Text #25
  410. ID                                       : 28
  411. Format                                   : PGS
  412. Muxing mode                              : zlib
  413. Codec ID                                 : S_HDMV/PGS
  414. Codec ID/Info                            : Picture based subtitle format used on BDs/HD-DVDs
  415. Duration                                 : 2 h 16 min
  416. Bit rate                                 : 15.5 kb/s
  417. Count of elements                        : 1564
  418. Stream size                              : 15.2 MiB (0%)
  419. Title                                    : Romanian
  420. Language                                 : Romanian
  421. Default                                  : No
  422. Forced                                   : No

  423. Text #26
  424. ID                                       : 29
  425. Format                                   : PGS
  426. Muxing mode                              : zlib
  427. Codec ID                                 : S_HDMV/PGS
  428. Codec ID/Info                            : Picture based subtitle format used on BDs/HD-DVDs
  429. Duration                                 : 2 h 9 min
  430. Bit rate                                 : 16.3 kb/s
  431. Count of elements                        : 1552
  432. Stream size                              : 15.1 MiB (0%)
  433. Title                                    : Russian
  434. Language                                 : Russian
  435. Default                                  : No
  436. Forced                                   : No

  437. Text #27
  438. ID                                       : 30
  439. Format                                   : PGS
  440. Muxing mode                              : zlib
  441. Codec ID                                 : S_HDMV/PGS
  442. Codec ID/Info                            : Picture based subtitle format used on BDs/HD-DVDs
  443. Duration                                 : 2 h 16 min
  444. Bit rate                                 : 15.8 kb/s
  445. Count of elements                        : 1562
  446. Stream size                              : 15.4 MiB (0%)
  447. Title                                    : Slovak
  448. Language                                 : Slovak
  449. Default                                  : No
  450. Forced                                   : No

  451. Text #28
  452. ID                                       : 31
  453. Format                                   : PGS
  454. Muxing mode                              : zlib
  455. Codec ID                                 : S_HDMV/PGS
  456. Codec ID/Info                            : Picture based subtitle format used on BDs/HD-DVDs
  457. Duration                                 : 2 h 16 min
  458. Bit rate                                 : 14.7 kb/s
  459. Count of elements                        : 1564
  460. Stream size                              : 14.3 MiB (0%)
  461. Title                                    : Slovenian
  462. Language                                 : Slovenian
  463. Default                                  : No
  464. Forced                                   : No

  465. Text #29
  466. ID                                       : 32
  467. Format                                   : PGS
  468. Muxing mode                              : zlib
  469. Codec ID                                 : S_HDMV/PGS
  470. Codec ID/Info                            : Picture based subtitle format used on BDs/HD-DVDs
  471. Duration                                 : 2 h 9 min
  472. Bit rate                                 : 16.8 kb/s
  473. Count of elements                        : 1454
  474. Stream size                              : 15.5 MiB (0%)
  475. Title                                    : Spanish
  476. Language                                 : Spanish
  477. Default                                  : No
  478. Forced                                   : No

  479. Text #30
  480. ID                                       : 33
  481. Format                                   : PGS
  482. Muxing mode                              : zlib
  483. Codec ID                                 : S_HDMV/PGS
  484. Codec ID/Info                            : Picture based subtitle format used on BDs/HD-DVDs
  485. Duration                                 : 2 h 9 min
  486. Bit rate                                 : 19.3 kb/s
  487. Count of elements                        : 2148
  488. Stream size                              : 17.9 MiB (0%)
  489. Title                                    : Spanish
  490. Language                                 : Spanish
  491. Default                                  : No
  492. Forced                                   : No

  493. Text #31
  494. ID                                       : 34
  495. Format                                   : PGS
  496. Muxing mode                              : zlib
  497. Codec ID                                 : S_HDMV/PGS
  498. Codec ID/Info                            : Picture based subtitle format used on BDs/HD-DVDs
  499. Duration                                 : 2 h 16 min
  500. Bit rate                                 : 15.5 kb/s
  501. Count of elements                        : 1526
  502. Stream size                              : 15.2 MiB (0%)
  503. Title                                    : Swedish
  504. Language                                 : Swedish
  505. Default                                  : No
  506. Forced                                   : No

  507. Text #32
  508. ID                                       : 35
  509. Format                                   : PGS
  510. Muxing mode                              : zlib
  511. Codec ID                                 : S_HDMV/PGS
  512. Codec ID/Info                            : Picture based subtitle format used on BDs/HD-DVDs
  513. Duration                                 : 2 h 8 min
  514. Bit rate                                 : 16.9 kb/s
  515. Count of elements                        : 1554
  516. Stream size                              : 15.6 MiB (0%)
  517. Title                                    : Thai
  518. Language                                 : Thai
  519. Default                                  : No
  520. Forced                                   : No

  521. Text #33
  522. ID                                       : 36
  523. Format                                   : PGS
  524. Muxing mode                              : zlib
  525. Codec ID                                 : S_HDMV/PGS
  526. Codec ID/Info                            : Picture based subtitle format used on BDs/HD-DVDs
  527. Duration                                 : 2 h 9 min
  528. Bit rate                                 : 17.3 kb/s
  529. Count of elements                        : 1556
  530. Stream size                              : 15.9 MiB (0%)
  531. Title                                    : Turkish
  532. Language                                 : Turkish
  533. Default                                  : No
  534. Forced                                   : No

  535. Menu
  536. 00:00:00.000                             : en:Chapter 01
  537. 00:09:53.510                             : en:Chapter 02
  538. 00:14:03.926                             : en:Chapter 03
  539. 00:27:00.327                             : en:Chapter 04
  540. 00:32:53.972                             : en:Chapter 05
  541. 00:37:08.476                             : en:Chapter 06
  542. 00:42:49.275                             : en:Chapter 07
  543. 00:51:58.407                             : en:Chapter 08
  544. 01:02:13.104                             : en:Chapter 09
  545. 01:09:06.017                             : en:Chapter 10
  546. 01:15:40.995                             : en:Chapter 11
  547. 01:31:09.839                             : en:Chapter 12
  548. 01:41:00.221                             : en:Chapter 13
  549. 01:46:26.171                             : en:Chapter 14
  550. 01:52:12.225                             : en:Chapter 15
  551. 02:04:20.161                             : en:Chapter 16
复制代码
205307tbngcw11n44o1f3w.png 205308x0mtboggtis4jjii.png 205308txw52xiowwwxhq2j.png




回复

使用道具 举报

发表于 2020-5-20 01:00:16 | 显示全部楼层
这个应当好看吧
回复 支持 反对

使用道具 举报

发表于 2020-5-20 17:12:47 | 显示全部楼层
经典,老佐罗带新佐罗传衣钵,主题曲也超正,我记得是有2部
回复 支持 反对

使用道具 举报

发表于 2020-5-20 20:25:07 | 显示全部楼层

我看不错噢 谢谢楼主!蓝光电影网越来越好!
回复 支持 反对

使用道具 举报

发表于 2020-5-21 01:23:29 | 显示全部楼层

我看不错噢 谢谢楼主!蓝光电影网越来越好!
回复 支持 反对

使用道具 举报

懒得打字嘛,点击右侧快捷回复 【右侧内容,后台自定义】
您需要登录后才可以回帖 登录 | 立即加入

本版积分规则

现在加入蓝光电影网,注册一个账号
上个主题 下个主题 快速回复 收藏帖子 返回列表 客服中心 搜索

手机版|小黑屋| 蓝光电影网 |网站地图 

Copyright © 2015-2019 Comsenz Inc.  Template by 蓝光电影论坛 All Rights Reserved.

Powered by 蓝光电影网 X3.4

特别声明:本站所有资源均由网上收集而来,版权归原影音公司所有,如果侵犯了你的权益,请通知我们,我们会及时删除侵权内容.

快速回复 返回顶部 返回列表