找回密码

蓝光电影网

查看: 304|回复: 9

[2160p-WEB] 酷刑报告 The.Report.2019.HDR.2160p.WEB.h265-WATCHER 12.84GB

[复制链接]

 成长值: 26125

发表于 2020-5-19 20:52:59 | 显示全部楼层 |阅读模式
酷刑报告 The.Report.2019.HDR.2160p.WEB.h265-WATCHER 12.84GB-1.png

译  名 酷刑报告 / Ancient of Days / The Torture Report
片  名 The Report
年  代 2019
产  地 美国
类  别 剧情
语  言 英语
上映日期 2019-01-26(圣丹斯电影节) / 2019-11-15(美国)
IMDb评分  7.2/10 from 25017 users
IMDb链接  https://www.imdb.com/title/tt8236336
豆瓣评分 7.1/10 from 2759 users
豆瓣链接 https://movie.douban.com/subject/30188466/
片  长 118分钟(圣丹斯电影节)
导  演 斯科特·Z·本恩斯 Scott Z. Burns
编  剧 斯科特·Z·本恩斯 Scott Z. Burns
主  演 亚当·德赖弗 Adam Driver
       寇瑞·斯托尔 Corey Stoll
       小伊万德·杜克 Evander Duck Jr.
       乔恩·哈姆 Jon Hamm
       琳达·鲍威尔 Linda Powell
       安妮特·贝宁 Annette Bening
       桑德拉·兰德斯 Sandra Landers
       约翰·罗斯曼 John Rothman
       维克多·斯勒扎克 Victor Slezak
       盖伊·博伊德 Guy Boyd
       亚历山大·卓别林 Alexander Chaplin
       乔安妮·塔克 Joanne Tucker
       毛拉·蒂尔内 Maura Tierney
       迈克尔·C·豪尔 Michael C. Hall
       伊恩·布莱克曼 Ian Blackman
       多米尼克·福穆萨 Dominic Fumusa
       萨拉·古德伯格 Sarah Goldberg
       法耶尔·阿尔-凯斯 Fajer Al-Kaisi
       道格拉斯·霍奇斯 Douglas Hodges
       卡洛斯·戈麦斯 Carlos Gómez
       肖恩·杜根 Sean Dugan
       蒂姆·布雷克·尼尔森 Tim Blake Nelson
       普·班德赫 Pun Bandhu
       本·麦肯锡 Ben McKenzie
       杰克·西尔伯曼 Jake Silbermann
       泰德·拉文 Ted Levine
       斯科特· 谢泼德 Scott Shepherd
       朱莉娅·穆尼 Julia K. Murney
       丹尼尔·伦敦 Daniel London
       詹妮弗·莫里森 Jennifer Morrison
       马修·瑞斯 Matthew Rhys
       凯特·宾汉 Kate Beahan
       詹姆斯·海恩德曼 James Hindman
       奥斯汀·迈克尔·杨 Austin Michael Young
       马德琳·韦斯特·杜乔夫尼 Madelaine West Duchovny
       诺亚·比恩 Noah Bean
       迪克·切尼 Dick Cheney
       约翰·克里 John Kerry
       雷切尔·玛多 Rachel Maddow
       约翰·麦凯恩 John McCain
       巴拉克·奥巴马 Barack Obama
       唐纳德·拉姆斯菲尔德 Donald Rumsfeld
       吉纳维芙亚当斯 Genevieve Adams
       尼尔·弗莱舍 Neil Fleischer
       罗丝玛丽·霍华德 Rosemary Howard


标  签 美国 | 政治 | 剧情 | 2019 | 真实事件改编 | 历史 | 独立 | 圣丹斯电影节

简  介  

  安妮特·贝宁、亚当·德赖弗、乔·哈姆、詹妮弗·莫里森主演新片《酷刑报告》(The Torture Report)新增数名卡司:蒂姆·布雷克·尼尔森、本·麦肯锡、马修·瑞斯、泰德·拉文、迈克尔·C·豪尔。Scott Z. Burns(《副作用》《谍影重重3》)自编自导,聚焦911事件之后,CIA对被拘留者执行的极端审讯计划。美国参议院情报委员会在2016年发布了一份500多页的报告,详细描述了令人震惊的审讯方式。Vice Studios投资制作,将在戛纳寻找买家,上周已在纽约开拍。

获奖情况  

  第77届金球奖(2020)
  电影类 最佳女配角(提名) 安妮特·贝宁

  第18届华盛顿影评人协会奖(2019)
  华盛顿特区最佳写照
  1. Video
  2. ID                                       : 1
  3. Format                                   : HEVC
  4. Format/Info                              : High Efficiency Video Coding
  5. Format profile                           : Main High@L4@Main
  6. HDR format                               : SMPTE ST 2094 App 4, Version 0
  7. Codec ID                                 : V_MPEGH/ISO/HEVC
  8. Duration                                 : 1 h 59 min
  9. Bit rate                                 : 14.6 Mb/s
  10. Width                                    : 3 840 pixels
  11. Height                                   : 1 600 pixels
  12. Display aspect ratio                     : 2.40:1
  13. Frame rate mode                          : Constant
  14. Frame rate                               : 23.976 (24000/1001/189150) FPS
  15. Standard                                 : NTSC
  16. Color space                              : YUV
  17. Chroma subsampling                       : 4:2:0 (Type 2)
  18. Bit depth                                : 10 bits
  19. Bits/(Pixel*Frame)                       : 0.099
  20. Stream size                              : 12.2 GiB (96%)
  21. Default                                  : Yes
  22. Forced                                   : No
  23. Color range                              : Limited
  24. Color primaries                          : BT.2020
  25. Transfer characteristics                 : PQ
  26. Matrix coefficients                      : BT.2020 non-constant
  27. Mastering display color primaries        : Display P3
  28. Mastering display luminance              : min: 0.0001 cd/m2, max: 1000 cd/m2
  29. Maximum Content Light Level              : 881 cd/m2
  30. Maximum Frame-Average Light Level        : 259 cd/m2

  31. Audio
  32. ID                                       : 2
  33. Format                                   : E-AC-3
  34. Format/Info                              : Enhanced AC-3
  35. Commercial name                          : Dolby Digital Plus
  36. Codec ID                                 : A_EAC3
  37. Duration                                 : 1 h 59 min
  38. Bit rate mode                            : Constant
  39. Bit rate                                 : 640 kb/s
  40. Channel(s)                               : 6 channels
  41. Channel layout                           : L R C LFE Ls Rs
  42. Sampling rate                            : 48.0 kHz
  43. Frame rate                               : 31.250 FPS (1536 SPF)
  44. Compression mode                         : Lossy
  45. Stream size                              : 548 MiB (4%)
  46. Title                                    : English
  47. Language                                 : English
  48. Service kind                             : Complete Main
  49. Default                                  : Yes
  50. Forced                                   : No

  51. Text #1
  52. ID                                       : 3
  53. Format                                   : UTF-8
  54. Codec ID                                 : S_TEXT/UTF8
  55. Codec ID/Info                            : UTF-8 Plain Text
  56. Duration                                 : 52 s 928 ms
  57. Bit rate                                 : 26 b/s
  58. Count of elements                        : 8
  59. Stream size                              : 175 Bytes (0%)
  60. Title                                    : English [Forced]
  61. Language                                 : English
  62. Default                                  : No
  63. Forced                                   : Yes

  64. Text #2
  65. ID                                       : 4
  66. Format                                   : UTF-8
  67. Codec ID                                 : S_TEXT/UTF8
  68. Codec ID/Info                            : UTF-8 Plain Text
  69. Duration                                 : 1 h 58 min
  70. Bit rate                                 : 99 b/s
  71. Count of elements                        : 2327
  72. Stream size                              : 86.1 KiB (0%)
  73. Title                                    : English [SDH]
  74. Language                                 : English
  75. Default                                  : No
  76. Forced                                   : No

  77. Text #3
  78. ID                                       : 5
  79. Format                                   : UTF-8
  80. Codec ID                                 : S_TEXT/UTF8
  81. Codec ID/Info                            : UTF-8 Plain Text
  82. Duration                                 : 1 h 52 min
  83. Bit rate                                 : 89 b/s
  84. Count of elements                        : 1757
  85. Stream size                              : 73.6 KiB (0%)
  86. Title                                    : Castilian [Full]
  87. Language                                 : Spanish
  88. Default                                  : No
  89. Forced                                   : No

  90. Text #4
  91. ID                                       : 6
  92. Format                                   : UTF-8
  93. Codec ID                                 : S_TEXT/UTF8
  94. Codec ID/Info                            : UTF-8 Plain Text
  95. Duration                                 : 1 h 52 min
  96. Bit rate                                 : 87 b/s
  97. Count of elements                        : 1798
  98. Stream size                              : 72.0 KiB (0%)
  99. Title                                    : Spanish [Full]
  100. Language                                 : Spanish
  101. Default                                  : No
  102. Forced                                   : No

  103. Text #5
  104. ID                                       : 7
  105. Format                                   : UTF-8
  106. Codec ID                                 : S_TEXT/UTF8
  107. Codec ID/Info                            : UTF-8 Plain Text
  108. Duration                                 : 1 h 54 min
  109. Bit rate                                 : 76 b/s
  110. Count of elements                        : 1862
  111. Stream size                              : 64.0 KiB (0%)
  112. Title                                    : French [Full]
  113. Language                                 : French
  114. Default                                  : No
  115. Forced                                   : No

  116. Text #6
  117. ID                                       : 8
  118. Format                                   : UTF-8
  119. Codec ID                                 : S_TEXT/UTF8
  120. Codec ID/Info                            : UTF-8 Plain Text
  121. Duration                                 : 1 h 55 min
  122. Bit rate                                 : 92 b/s
  123. Count of elements                        : 1642
  124. Stream size                              : 77.7 KiB (0%)
  125. Title                                    : Italian [Full]
  126. Language                                 : Italian
  127. Default                                  : No
  128. Forced                                   : No

  129. Text #7
  130. ID                                       : 9
  131. Format                                   : UTF-8
  132. Codec ID                                 : S_TEXT/UTF8
  133. Codec ID/Info                            : UTF-8 Plain Text
  134. Duration                                 : 1 h 52 min
  135. Bit rate                                 : 77 b/s
  136. Count of elements                        : 1737
  137. Stream size                              : 64.5 KiB (0%)
  138. Title                                    : Brazilian Portuguese [Full]
  139. Language                                 : Portuguese
  140. Default                                  : No
  141. Forced                                   : No

  142. Text #8
  143. ID                                       : 10
  144. Format                                   : UTF-8
  145. Codec ID                                 : S_TEXT/UTF8
  146. Codec ID/Info                            : UTF-8 Plain Text
  147. Duration                                 : 1 h 52 min
  148. Bit rate                                 : 77 b/s
  149. Count of elements                        : 1716
  150. Stream size                              : 64.0 KiB (0%)
  151. Title                                    : Polish [Full]
  152. Language                                 : Polish
  153. Default                                  : No
  154. Forced                                   : No

  155. Text #9
  156. ID                                       : 11
  157. Format                                   : UTF-8
  158. Codec ID                                 : S_TEXT/UTF8
  159. Codec ID/Info                            : UTF-8 Plain Text
  160. Duration                                 : 1 h 52 min
  161. Bit rate                                 : 85 b/s
  162. Count of elements                        : 1758
  163. Stream size                              : 70.4 KiB (0%)
  164. Title                                    : Turkish [Full]
  165. Language                                 : Turkish
  166. Default                                  : No
  167. Forced                                   : No

  168. Text #10
  169. ID                                       : 12
  170. Format                                   : UTF-8
  171. Codec ID                                 : S_TEXT/UTF8
  172. Codec ID/Info                            : UTF-8 Plain Text
  173. Duration                                 : 1 h 52 min
  174. Bit rate                                 : 81 b/s
  175. Count of elements                        : 1656
  176. Stream size                              : 67.6 KiB (0%)
  177. Title                                    : Swedish [Full]
  178. Language                                 : Swedish
  179. Default                                  : No
  180. Forced                                   : No

  181. Text #11
  182. ID                                       : 13
  183. Format                                   : UTF-8
  184. Codec ID                                 : S_TEXT/UTF8
  185. Codec ID/Info                            : UTF-8 Plain Text
  186. Duration                                 : 1 h 52 min
  187. Bit rate                                 : 76 b/s
  188. Count of elements                        : 1703
  189. Stream size                              : 63.6 KiB (0%)
  190. Title                                    : Danish [Full]
  191. Language                                 : Danish
  192. Default                                  : No
  193. Forced                                   : No

  194. Text #12
  195. ID                                       : 14
  196. Format                                   : UTF-8
  197. Codec ID                                 : S_TEXT/UTF8
  198. Codec ID/Info                            : UTF-8 Plain Text
  199. Duration                                 : 1 h 52 min
  200. Bit rate                                 : 91 b/s
  201. Count of elements                        : 1621
  202. Stream size                              : 76.0 KiB (0%)
  203. Title                                    : Finnish [Full]
  204. Language                                 : Finnish
  205. Default                                  : No
  206. Forced                                   : No

  207. Text #13
  208. ID                                       : 15
  209. Format                                   : UTF-8
  210. Codec ID                                 : S_TEXT/UTF8
  211. Codec ID/Info                            : UTF-8 Plain Text
  212. Duration                                 : 1 h 54 min
  213. Bit rate                                 : 72 b/s
  214. Count of elements                        : 1258
  215. Stream size                              : 60.9 KiB (0%)
  216. Title                                    : Dutch [Full]
  217. Language                                 : Dutch
  218. Default                                  : No
  219. Forced                                   : No

  220. Text #14
  221. ID                                       : 16
  222. Format                                   : UTF-8
  223. Codec ID                                 : S_TEXT/UTF8
  224. Codec ID/Info                            : UTF-8 Plain Text
  225. Duration                                 : 1 h 52 min
  226. Bit rate                                 : 76 b/s
  227. Count of elements                        : 1750
  228. Stream size                              : 63.0 KiB (0%)
  229. Title                                    : Norwegian (Bokm?l) [Full]
  230. Language                                 : Norwegian Bokmal
  231. Default                                  : No
  232. Forced                                   : No

  233. Text #15
  234. ID                                       : 17
  235. Format                                   : UTF-8
  236. Codec ID                                 : S_TEXT/UTF8
  237. Codec ID/Info                            : UTF-8 Plain Text
  238. Duration                                 : 1 h 52 min
  239. Bit rate                                 : 147 b/s
  240. Count of elements                        : 1774
  241. Stream size                              : 122 KiB (0%)
  242. Title                                    : Russian [Full]
  243. Language                                 : Russian
  244. Default                                  : No
  245. Forced                                   : No

  246. Text #16
  247. ID                                       : 18
  248. Format                                   : UTF-8
  249. Codec ID                                 : S_TEXT/UTF8
  250. Codec ID/Info                            : UTF-8 Plain Text
  251. Duration                                 : 1 h 52 min
  252. Bit rate                                 : 125 b/s
  253. Count of elements                        : 1765
  254. Stream size                              : 104 KiB (0%)
  255. Title                                    : Hebrew [Full]
  256. Language                                 : Hebrew
  257. Default                                  : No
  258. Forced                                   : No

  259. Text #17
  260. ID                                       : 19
  261. Format                                   : UTF-8
  262. Codec ID                                 : S_TEXT/UTF8
  263. Codec ID/Info                            : UTF-8 Plain Text
  264. Duration                                 : 1 h 52 min
  265. Bit rate                                 : 142 b/s
  266. Count of elements                        : 1776
  267. Stream size                              : 118 KiB (0%)
  268. Title                                    : Arabic [Full]
  269. Language                                 : Arabic
  270. Default                                  : No
  271. Forced                                   : No

  272. Text #18
  273. ID                                       : 20
  274. Format                                   : UTF-8
  275. Codec ID                                 : S_TEXT/UTF8
  276. Codec ID/Info                            : UTF-8 Plain Text
  277. Duration                                 : 1 h 58 min
  278. Bit rate                                 : 213 b/s
  279. Count of elements                        : 1881
  280. Stream size                              : 184 KiB (0%)
  281. Title                                    : Hindi [Full]
  282. Language                                 : Hindi
  283. Default                                  : No
  284. Forced                                   : No

  285. Text #19
  286. ID                                       : 21
  287. Format                                   : UTF-8
  288. Codec ID                                 : S_TEXT/UTF8
  289. Codec ID/Info                            : UTF-8 Plain Text
  290. Duration                                 : 1 h 54 min
  291. Bit rate                                 : 249 b/s
  292. Count of elements                        : 1880
  293. Stream size                              : 210 KiB (0%)
  294. Title                                    : Tamil [Full]
  295. Language                                 : Tamil
  296. Default                                  : No
  297. Forced                                   : No

  298. Text #20
  299. ID                                       : 22
  300. Format                                   : UTF-8
  301. Codec ID                                 : S_TEXT/UTF8
  302. Codec ID/Info                            : UTF-8 Plain Text
  303. Duration                                 : 1 h 58 min
  304. Bit rate                                 : 246 b/s
  305. Count of elements                        : 1889
  306. Stream size                              : 213 KiB (0%)
  307. Title                                    : Telugu [Full]
  308. Language                                 : Telugu
  309. Default                                  : No
  310. Forced                                   : No

  311. Text #21
  312. ID                                       : 23
  313. Format                                   : UTF-8
  314. Codec ID                                 : S_TEXT/UTF8
  315. Codec ID/Info                            : UTF-8 Plain Text
  316. Duration                                 : 1 h 52 min
  317. Bit rate                                 : 87 b/s
  318. Count of elements                        : 1755
  319. Stream size                              : 72.2 KiB (0%)
  320. Title                                    : Indonesian [Full]
  321. Language                                 : Indonesian
  322. Default                                  : No
  323. Forced                                   : No

  324. Text #22
  325. ID                                       : 24
  326. Format                                   : UTF-8
  327. Codec ID                                 : S_TEXT/UTF8
  328. Codec ID/Info                            : UTF-8 Plain Text
  329. Duration                                 : 1 h 52 min
  330. Bit rate                                 : 215 b/s
  331. Count of elements                        : 1774
  332. Stream size                              : 178 KiB (0%)
  333. Title                                    : Thai [Full]
  334. Language                                 : Thai
  335. Default                                  : No
  336. Forced                                   : No

  337. Text #23
  338. ID                                       : 25
  339. Format                                   : UTF-8
  340. Codec ID                                 : S_TEXT/UTF8
  341. Codec ID/Info                            : UTF-8 Plain Text
  342. Duration                                 : 1 h 52 min
  343. Bit rate                                 : 90 b/s
  344. Count of elements                        : 1773
  345. Stream size                              : 74.6 KiB (0%)
  346. Title                                    : Korean [Full]
  347. Language                                 : Korean
  348. Default                                  : No
  349. Forced                                   : No

  350. Text #24
  351. ID                                       : 26
  352. Format                                   : UTF-8
  353. Codec ID                                 : S_TEXT/UTF8
  354. Codec ID/Info                            : UTF-8 Plain Text
  355. Duration                                 : 1 h 52 min
  356. Bit rate                                 : 85 b/s
  357. Count of elements                        : 1777
  358. Stream size                              : 71.0 KiB (0%)
  359. Title                                    : Chinese (Simplified) [Full]
  360. Language                                 : Chinese
  361. Default                                  : No
  362. Forced                                   : No

  363. Text #25
  364. ID                                       : 27
  365. Format                                   : UTF-8
  366. Codec ID                                 : S_TEXT/UTF8
  367. Codec ID/Info                            : UTF-8 Plain Text
  368. Duration                                 : 1 h 52 min
  369. Bit rate                                 : 75 b/s
  370. Count of elements                        : 1774
  371. Stream size                              : 62.5 KiB (0%)
  372. Title                                    : Chinese (Traditional) [Full]
  373. Language                                 : Chinese
  374. Default                                  : No
  375. Forced                                   : No

  376. Menu #1
  377. 00:00:00.000                             : en:Studio Logo
  378. 00:00:54.000                             : en:Acknowledgement
  379. 00:01:02.000                             : en:Dan is interrogated
  380. 00:03:01.000                             : en:A timeline of events
  381. 00:08:33.000                             : en:The new offsite facility
  382. 00:10:46.000                             : en:Counter-terrorism after September 11th
  383. 00:15:09.000                             : en:A new tactic for research
  384. 00:16:40.000                             : en:Learning the best way to find out information
  385. 00:22:28.000                             : en:Different methods of interrogation
  386. 00:27:47.000                             : en:A key change in the investigation
  387. 00:33:34.000                             : en:Redefining torture
  388. 00:36:49.000                             : en:Gul Rahman
  389. 00:41:18.000                             : en:Khaled Sheikh Muhammad
  390. 00:47:14.000                             : en:Seeking justice and protection for the country
  391. 00:52:15.000                             : en:A stop to the program
  392. 00:54:28.000                             : en:The CIA continues to lie
  393. 00:58:08.000                             : en:Muhammad Rahim
  394. 01:01:56.000                             : en:The completion of the report
  395. 01:03:17.000                             : en:A new director of the CIA
  396. 01:08:25.000                             : en:Requests to change the report
  397. 01:13:45.000                             : en:Caroline Krass' confirmation hearing
  398. 01:19:30.000                             : en:The CIA will go to great lengths to silence opposers
  399. 01:27:21.000                             : en:Cleaning up the CIA's mess
  400. 01:33:25.000                             : en:The redacted document
  401. 01:38:43.000                             : en:Stall tactics call for extreme measures
  402. 01:46:36.000                             : en:A release of the report
  403. 01:53:51.000                             : en:End Credits

  404. Menu #2
  405. 00:00:00.000                             : en:1. Studio Logo
  406. 00:00:54.000                             : en:2. Acknowledgement
  407. 00:01:02.000                             : en:3. Dan is interrogated
  408. 00:03:01.000                             : en:4. A timeline of events
  409. 00:08:33.000                             : en:5. The new offsite facility
  410. 00:10:46.000                             : en:6. Counter-terrorism after September 11th
  411. 00:15:09.000                             : en:7. A new tactic for research
  412. 00:16:40.000                             : en:8. Learning the best way to find out information
  413. 00:22:28.000                             : en:9. Different methods of interrogation
  414. 00:27:47.000                             : en:10. A key change in the investigation
  415. 00:33:34.000                             : en:11. Redefining torture
  416. 00:36:49.000                             : en:12. Gul Rahman
  417. 00:41:18.000                             : en:13. Khaled Sheikh Muhammad
  418. 00:47:14.000                             : en:14. Seeking justice and protection for the country
  419. 00:52:15.000                             : en:15. A stop to the program
  420. 00:54:28.000                             : en:16. The CIA continues to lie
  421. 00:58:08.000                             : en:17. Muhammad Rahim
  422. 01:01:56.000                             : en:18. The completion of the report
  423. 01:03:17.000                             : en:19. A new director of the CIA
  424. 01:08:25.000                             : en:20. Requests to change the report
  425. 01:13:45.000                             : en:21. Caroline Krass' confirmation hearing
  426. 01:19:30.000                             : en:22. The CIA will go to great lengths to silence opposers
  427. 01:27:21.000                             : en:23. Cleaning up the CIA's mess
  428. 01:33:25.000                             : en:24. The redacted document
  429. 01:38:43.000                             : en:25. Stall tactics call for extreme measures
  430. 01:46:36.000                             : en:26. A release of the report
  431. 01:53:51.000                             : en:27. End Credits
复制代码

205303kwn5ca7n99cnrsr7.png 酷刑报告 The.Report.2019.HDR.2160p.WEB.h265-WATCHER 12.84GB-3.png 酷刑报告 The.Report.2019.HDR.2160p.WEB.h265-WATCHER 12.84GB-4.png






回复

使用道具 举报

发表于 2020-5-20 00:28:07 | 显示全部楼层
楼主发贴辛苦了,谢谢楼主分享!我觉得蓝光电影网是注册对了!
回复 支持 反对

使用道具 举报

发表于 2020-5-20 07:46:06 | 显示全部楼层
感谢分享!
回复

使用道具 举报

 成长值: 2950

发表于 2020-5-20 11:01:21 | 显示全部楼层
谢谢楼主无私分享。
回复 支持 反对

使用道具 举报

发表于 2020-5-20 12:11:15 | 显示全部楼层

这东西我收了!谢谢楼主!蓝光电影网真好!
回复 支持 反对

使用道具 举报

发表于 2020-5-20 15:45:19 | 显示全部楼层
楼主发贴辛苦了,谢谢楼主分享!我觉得蓝光电影网是注册对了!
回复 支持 反对

使用道具 举报

发表于 2020-5-20 22:59:55 | 显示全部楼层

我看不错噢 谢谢楼主!蓝光电影网越来越好!
回复 支持 反对

使用道具 举报

发表于 2020-5-21 09:47:09 | 显示全部楼层
楼主发贴辛苦了,谢谢楼主分享!我觉得蓝光电影网是注册对了!
回复 支持 反对

使用道具 举报

发表于 2020-5-21 10:00:42 | 显示全部楼层
楼主发贴辛苦了,谢谢楼主分享!我觉得蓝光电影网是注册对了!
回复 支持 反对

使用道具 举报

发表于 2020-5-21 10:48:15 | 显示全部楼层
    这种电影,看了会有阴影的。
回复 支持 反对

使用道具 举报

懒得打字嘛,点击右侧快捷回复 【右侧内容,后台自定义】
您需要登录后才可以回帖 登录 | 立即加入

本版积分规则

现在加入蓝光电影网,注册一个账号
上个主题 下个主题 快速回复 收藏帖子 返回列表 客服中心 搜索

手机版|小黑屋| 蓝光电影网 |网站地图 

Copyright © 2015-2019 Comsenz Inc.  Template by 蓝光电影论坛 All Rights Reserved.

Powered by 蓝光电影网 X3.4

特别声明:本站所有资源均由网上收集而来,版权归原影音公司所有,如果侵犯了你的权益,请通知我们,我们会及时删除侵权内容.

快速回复 返回顶部 返回列表