找回密码

蓝光电影网

查看: 381|回复: 7

[2160p-WEB] 失忆十分钟/终极失忆 10.Minutes.Gone.2019.HDR.2160p.WEB.h265-WATCHER 9.41GB

[复制链接]

 成长值: 26155

发表于 2020-5-19 20:51:05 | 显示全部楼层 |阅读模式
失忆十分钟/终极失忆 10.Minutes.Gone.2019.HDR.2160p.WEB.h265-WATCHER 9.41GB-1.png

译  名 失忆十分钟 / 终极失忆
片  名 10 Minutes Gone
年  代 2019
产  地 美国
类  别 惊悚 / 犯罪
语  言 英语
上映日期 2019-09-27(美国)
IMDb评分  3.6/10 from 1918 users
IMDb链接  https://www.imdb.com/title/tt8809652
豆瓣评分 4.1/10 from 338 users
豆瓣链接 https://movie.douban.com/subject/30308750/
片  长 89分钟
导  演 布莱恩·A·米勒 Brian A Miller
编  剧 Kelvin Mao / Jeff Jingle
主  演 迈克尔·切克利斯 Michael Chiklis
       布鲁斯·威利斯 Bruce Willis
       梅多·威廉姆斯 Meadow Williams
       凯尔·施密德 Kyle Schmid
       特夏斯·巴特尔 Texas Battle
       丽迪雅·赫尔 Lydia Hull
       斯温·特梅尔 Swen Temmel
       John D. Hickman
       Sergio Rizzuto
       Geoff Reeves
       泰勒·乔恩·奥尔森 Tyler Jon Olson
       罗曼·米蒂齐扬 Roman Mitichyan
       Franco Delgado
       Martin Blencowe
       Leslee Emmett
       Megan Neuringer
       拉拉·肯特 Lala Kent
       塔尼娅 Tanya Mityushina
       乔·吉尔希翁 Joe Gelchion
       David Danello


标  签 犯罪 | 美国 | 动作 | 烂片 | 2019 | 布鲁斯·威利斯 | 悬疑 | 抢劫

简  介  

  布鲁斯·威利斯宣布主演犯罪惊悚片《失忆十分钟》。主角由于一宗意外失控的抢劫案而丧失了部分记忆而,为了回忆起自己到底遭受了什么以及幕后真凶,他不得不寻找有关线索来将遗失在犯罪现场的记忆片段慢慢拼凑起来。
  1. Video
  2. ID                                       : 1
  3. Format                                   : HEVC
  4. Format/Info                              : High Efficiency Video Coding
  5. Format profile                           : Main High@L4@Main
  6. HDR format                               : SMPTE ST 2094 App 4, Version 0
  7. Codec ID                                 : V_MPEGH/ISO/HEVC
  8. Duration                                 : 1 h 28 min
  9. Bit rate                                 : 14.5 Mb/s
  10. Width                                    : 3 840 pixels
  11. Height                                   : 2 080 pixels
  12. Display aspect ratio                     : 1.85:1
  13. Frame rate mode                          : Constant
  14. Frame rate                               : 23.976 (24000/1001/189150) FPS
  15. Standard                                 : NTSC
  16. Color space                              : YUV
  17. Chroma subsampling                       : 4:2:0 (Type 2)
  18. Bit depth                                : 10 bits
  19. Bits/(Pixel*Frame)                       : 0.075
  20. Stream size                              : 8.91 GiB (96%)
  21. Default                                  : Yes
  22. Forced                                   : No
  23. Color range                              : Limited
  24. Color primaries                          : BT.2020
  25. Transfer characteristics                 : PQ
  26. Matrix coefficients                      : BT.2020 non-constant
  27. Mastering display color primaries        : Display P3
  28. Mastering display luminance              : min: 0.0001 cd/m2, max: 1000 cd/m2
  29. Maximum Content Light Level              : 2659 cd/m2
  30. Maximum Frame-Average Light Level        : 404 cd/m2

  31. Audio
  32. ID                                       : 2
  33. Format                                   : E-AC-3
  34. Format/Info                              : Enhanced AC-3
  35. Commercial name                          : Dolby Digital Plus
  36. Codec ID                                 : A_EAC3
  37. Duration                                 : 1 h 28 min
  38. Bit rate mode                            : Constant
  39. Bit rate                                 : 640 kb/s
  40. Channel(s)                               : 6 channels
  41. Channel layout                           : L R C LFE Ls Rs
  42. Sampling rate                            : 48.0 kHz
  43. Frame rate                               : 31.250 FPS (1536 SPF)
  44. Compression mode                         : Lossy
  45. Stream size                              : 404 MiB (4%)
  46. Language                                 : English
  47. Service kind                             : Complete Main
  48. Default                                  : Yes
  49. Forced                                   : No

  50. Text
  51. ID                                       : 3
  52. Format                                   : UTF-8
  53. Codec ID                                 : S_TEXT/UTF8
  54. Codec ID/Info                            : UTF-8 Plain Text
  55. Duration                                 : 1 h 26 min
  56. Bit rate                                 : 60 b/s
  57. Count of elements                        : 1277
  58. Stream size                              : 38.8 KiB (0%)
  59. Language                                 : English
  60. Default                                  : No
  61. Forced                                   : No

  62. Menu
  63. 00:00:00.000                             : :1. Studio Logo
  64. 00:01:04.000                             : :2. Acknowledgement
  65. 00:01:15.000                             : :Scene 3
  66. 00:02:46.000                             : :4. Opening Credits
  67. 00:05:39.000                             : :5. Title Sequence
  68. 00:05:51.000                             : :Scene 6
  69. 00:16:30.000                             : :Scene 7
  70. 00:22:22.000                             : :Scene 8
  71. 00:31:53.000                             : :Scene 9
  72. 00:35:18.000                             : :Scene 10
  73. 00:49:04.000                             : :Scene 11
  74. 01:01:45.000                             : :Scene 12
  75. 01:08:30.000                             : :Scene 13
  76. 01:19:48.000                             : :Scene 14
  77. 01:24:09.000                             : :15. End Credits
复制代码

失忆十分钟/终极失忆 10.Minutes.Gone.2019.HDR.2160p.WEB.h265-WATCHER 9.41GB-2.png 失忆十分钟/终极失忆 10.Minutes.Gone.2019.HDR.2160p.WEB.h265-WATCHER 9.41GB-3.png 失忆十分钟/终极失忆 10.Minutes.Gone.2019.HDR.2160p.WEB.h265-WATCHER 9.41GB-4.png






回复

使用道具 举报

发表于 2020-5-19 21:38:46 | 显示全部楼层
感谢楼主分享好电影
回复 支持 反对

使用道具 举报

发表于 2020-5-19 23:10:27 | 显示全部楼层
谢谢分享!
回复

使用道具 举报

发表于 2020-5-19 23:55:58 | 显示全部楼层

这东西我收了!谢谢楼主!蓝光电影网真好!
回复 支持 反对

使用道具 举报

发表于 2020-5-19 23:59:19 | 显示全部楼层
楼主发贴辛苦了,谢谢楼主分享!我觉得蓝光电影网是注册对了!
回复 支持 反对

使用道具 举报

发表于 2020-5-20 03:30:33 | 显示全部楼层
好东西  感谢分享了
回复 支持 反对

使用道具 举报

 成长值: 2970

发表于 2020-5-20 11:02:36 | 显示全部楼层
谢谢楼主无私分享。
回复 支持 反对

使用道具 举报

发表于 2020-5-20 21:47:34 | 显示全部楼层
感谢分享
回复

使用道具 举报

懒得打字嘛,点击右侧快捷回复 【右侧内容,后台自定义】
您需要登录后才可以回帖 登录 | 立即加入

本版积分规则

现在加入蓝光电影网,注册一个账号
上个主题 下个主题 快速回复 收藏帖子 返回列表 客服中心 搜索

手机版|小黑屋| 蓝光电影网 |网站地图 

Copyright © 2015-2019 Comsenz Inc.  Template by 蓝光电影论坛 All Rights Reserved.

Powered by 蓝光电影网 X3.4

特别声明:本站所有资源均由网上收集而来,版权归原影音公司所有,如果侵犯了你的权益,请通知我们,我们会及时删除侵权内容.

快速回复 返回顶部 返回列表