找回密码

蓝光电影网

查看: 327|回复: 20

[REMUX.HEVC] 佐罗的面具/蒙面侠苏洛 The.Mask.of.Zorro.1998.2160p.BluRay.REMUX.HEVC.DTS-HD.MA.TrueHD.7.1.Atmos-FGT 75.83GB

[复制链接]

 成长值: 26125

发表于 2020-5-18 23:10:04 | 显示全部楼层 |阅读模式
佐罗的面具/蒙面侠苏洛 The.Mask.of.Zorro.1998.2160p.BluRay.REMUX.HEVC.DTS-HD.MA.TrueHD.7.1.Atmos-FGT 75.83GB-1.png

译  名 佐罗的面具 / 蒙面侠苏洛 / 黑侠佐罗 / 黑侠梭罗
片  名 The Mask of Zorro
年  代 1998
产  地 美国 / 德国
类  别 动作 / 爱情 / 西部 / 冒险
语  言 英语
上映日期 1998-07-17(美国)
IMDb评分  6.7/10 from 163888 users
IMDb链接  https://www.imdb.com/title/tt0120746
豆瓣评分 7.5/10 from 22830 users
豆瓣链接 https://movie.douban.com/subject/1293225/
片  长 136分钟
导  演 Martin Campbell
编  剧 John Eskow / Ted Elliott / Terry Rossio
主  演 Antonio Banderas
       Anthony Hopkins
       Catherine Zeta-Jones
       Stuart Wilson


标  签 动作 | 美国 | 佐罗 | 美国电影 | 爱情 | 安东尼奥·班德拉斯 | AntonioBanderas | 英雄

简  介  

  蒙面英雄佐罗(安东尼?霍普金斯 Anthony Hopkins 饰)为了阻止西班牙总督蒙特罗滥杀无辜,突然从天而降,劫走了准备行刑的犯人,从而与蒙特罗结下深仇。随后,蒙特罗派部队跟踪了佐罗。在一片混战中,佐罗的妻子被杀死,还在襁褓中的女儿被虐走,佐罗也被投入了监牢。一晃眼二十年过去了,为了让自己的事业后继有人,佐罗带上面具逃出了监狱。蒙特罗这时仍然在作恶,他计划买下加利福尼亚的所有权。佐罗找到了年轻的盗贼马瑞塔(安东尼奥?班德拉斯 Antonio Banderas 饰),将毕生所学都传授了给他,希望马瑞塔能够阻止蒙特罗的阴谋。马瑞塔继承了佐罗的面具,然而当他找到蒙特罗时,发现拦在他面前的凶狠的西班牙公主(凯瑟琳?泽塔-琼斯 Catherine Zeta-Jones 饰)竟然就是当年老佐罗的女儿!

获奖情况  

  第71届奥斯卡金像奖(1999)
  最佳音效剪辑(提名) Dave McMoyler
  最佳音响(提名) 格雷格· P·罗素 / 凯文·奥康奈尔 / Pud Cusack

  第56届金球奖(1999)
  电影类 最佳音乐/喜剧片(提名)
  电影类 音乐/喜剧片最佳男主角(提名) 安东尼奥·班德拉斯
  1. Video
  2. ID                                       : 1
  3. ID in the original source medium         : 4113 (0x1011)
  4. Format                                   : HEVC
  5. Format/Info                              : High Efficiency Video Coding
  6. Format profile                           : Main High@L4@High
  7. HDR format                               : SMPTE ST 2086, HDR10 compatible
  8. Codec ID                                 : V_MPEGH/ISO/HEVC
  9. Duration                                 : 2 h 17 min
  10. Bit rate                                 : 55.8 Mb/s
  11. Width                                    : 3 840 pixels
  12. Height                                   : 2 160 pixels
  13. Display aspect ratio                     : 16:9
  14. Frame rate mode                          : Constant
  15. Frame rate                               : 23.976 (24000/1001/189150) FPS
  16. Color space                              : YUV
  17. Chroma subsampling                       : 4:2:0 (Type 2)
  18. Bit depth                                : 10 bits
  19. Bits/(Pixel*Frame)                       : 0.281
  20. Stream size                              : 53.7 GiB (71%)
  21. Title                                    : The.Mask.of.Zorro.1998.2160p.BluRay.REMUX.HEVC.DTS-HD.MA.TrueHD.7.1.Atmos-FGT
  22. Language                                 : English
  23. Default                                  : No
  24. Forced                                   : No
  25. Color range                              : Limited
  26. Color primaries                          : BT.2020
  27. Transfer characteristics                 : PQ
  28. Matrix coefficients                      : BT.2020 non-constant
  29. Mastering display color primaries        : Display P3
  30. Mastering display luminance              : min: 0.0050 cd/m2, max: 4000 cd/m2
  31. Maximum Content Light Level              : 10000 cd/m2
  32. Maximum Frame-Average Light Level        : 2179 cd/m2
  33. Original source medium                   : Blu-ray

  34. Audio #1
  35. ID                                       : 2
  36. ID in the original source medium         : 4352 (0x1100)
  37. Format                                   : MLP FBA 16-ch
  38. Format/Info                              : Meridian Lossless Packing FBA with 16-channel presentation
  39. Commercial name                          : Dolby TrueHD with Dolby Atmos
  40. Codec ID                                 : A_TRUEHD
  41. Duration                                 : 2 h 17 min
  42. Bit rate mode                            : Variable
  43. Bit rate                                 : 3 738 kb/s
  44. Maximum bit rate                         : 5 808 kb/s
  45. Channel(s)                               : 8 channels
  46. Channel layout                           : L R C LFE Ls Rs Lb Rb
  47. Sampling rate                            : 48.0 kHz
  48. Frame rate                               : 1 200.000 FPS (40 SPF)
  49. Compression mode                         : Lossless
  50. Stream size                              : 3.59 GiB (5%)
  51. Title                                    : The.Mask.of.Zorro.1998.2160p.BluRay.REMUX.HEVC.DTS-HD.MA.TrueHD.7.1.Atmos-FGT
  52. Language                                 : English
  53. Default                                  : Yes
  54. Forced                                   : No
  55. Original source medium                   : Blu-ray
  56. Number of dynamic objects                : 11
  57. Bed channel count                        : 1 channel
  58. Bed channel configuration                : LFE

  59. Audio #2
  60. ID                                       : 3
  61. Format                                   : DTS XLL
  62. Format/Info                              : Digital Theater Systems
  63. Commercial name                          : DTS-HD Master Audio
  64. Codec ID                                 : A_DTS
  65. Duration                                 : 2 h 17 min
  66. Bit rate mode                            : Variable
  67. Bit rate                                 : 4 030 kb/s
  68. Channel(s)                               : 8 channels
  69. Channel layout                           : C L R LFE Lb Rb Lss Rss
  70. Sampling rate                            : 48.0 kHz
  71. Frame rate                               : 93.750 FPS (512 SPF)
  72. Bit depth                                : 24 bits
  73. Compression mode                         : Lossless
  74. Stream size                              : 3.87 GiB (5%)
  75. Title                                    : The.Mask.of.Zorro.1998.2160p.BluRay.REMUX.HEVC.DTS-HD.MA.TrueHD.7.1.Atmos-FGT
  76. Language                                 : English
  77. Default                                  : No
  78. Forced                                   : No

  79. Audio #3
  80. ID                                       : 4
  81. ID in the original source medium         : 4352 (0x1100)
  82. Format                                   : AC-3
  83. Format/Info                              : Audio Coding 3
  84. Commercial name                          : Dolby Digital
  85. Codec ID                                 : A_AC3
  86. Duration                                 : 2 h 17 min
  87. Bit rate mode                            : Constant
  88. Bit rate                                 : 640 kb/s
  89. Channel(s)                               : 6 channels
  90. Channel layout                           : L R C LFE Ls Rs
  91. Sampling rate                            : 48.0 kHz
  92. Frame rate                               : 31.250 FPS (1536 SPF)
  93. Bit depth                                : 16 bits
  94. Compression mode                         : Lossy
  95. Stream size                              : 630 MiB (1%)
  96. Title                                    : The.Mask.of.Zorro.1998.2160p.BluRay.REMUX.HEVC.DTS-HD.MA.TrueHD.7.1.Atmos-FGT
  97. Language                                 : English
  98. Service kind                             : Complete Main
  99. Default                                  : No
  100. Forced                                   : No
  101. Original source medium                   : Blu-ray

  102. Audio #4
  103. ID                                       : 5
  104. ID in the original source medium         : 4354 (0x1102)
  105. Format                                   : AC-3
  106. Format/Info                              : Audio Coding 3
  107. Commercial name                          : Dolby Digital
  108. Codec ID                                 : A_AC3
  109. Duration                                 : 2 h 17 min
  110. Bit rate mode                            : Constant
  111. Bit rate                                 : 640 kb/s
  112. Channel(s)                               : 6 channels
  113. Channel layout                           : L R C LFE Ls Rs
  114. Sampling rate                            : 48.0 kHz
  115. Frame rate                               : 31.250 FPS (1536 SPF)
  116. Bit depth                                : 16 bits
  117. Compression mode                         : Lossy
  118. Stream size                              : 630 MiB (1%)
  119. Title                                    : The.Mask.of.Zorro.1998.2160p.BluRay.REMUX.HEVC.DTS-HD.MA.TrueHD.7.1.Atmos-FGT
  120. Language                                 : Czech
  121. Service kind                             : Complete Main
  122. Default                                  : No
  123. Forced                                   : No
  124. Original source medium                   : Blu-ray

  125. Audio #5
  126. ID                                       : 6
  127. ID in the original source medium         : 4355 (0x1103)
  128. Format                                   : DTS XLL
  129. Format/Info                              : Digital Theater Systems
  130. Commercial name                          : DTS-HD Master Audio
  131. Codec ID                                 : A_DTS
  132. Duration                                 : 2 h 17 min
  133. Bit rate mode                            : Variable
  134. Bit rate                                 : 2 274 kb/s
  135. Channel(s)                               : 6 channels
  136. Channel layout                           : C L R Ls Rs LFE
  137. Sampling rate                            : 48.0 kHz
  138. Frame rate                               : 93.750 FPS (512 SPF)
  139. Bit depth                                : 16 bits
  140. Compression mode                         : Lossless
  141. Stream size                              : 2.19 GiB (3%)
  142. Title                                    : The.Mask.of.Zorro.1998.2160p.BluRay.REMUX.HEVC.DTS-HD.MA.TrueHD.7.1.Atmos-FGT
  143. Language                                 : French
  144. Default                                  : No
  145. Forced                                   : No
  146. Original source medium                   : Blu-ray

  147. Audio #6
  148. ID                                       : 7
  149. ID in the original source medium         : 4356 (0x1104)
  150. Format                                   : DTS XLL
  151. Format/Info                              : Digital Theater Systems
  152. Commercial name                          : DTS-HD Master Audio
  153. Codec ID                                 : A_DTS
  154. Duration                                 : 2 h 17 min
  155. Bit rate mode                            : Variable
  156. Bit rate                                 : 2 284 kb/s
  157. Channel(s)                               : 6 channels
  158. Channel layout                           : C L R Ls Rs LFE
  159. Sampling rate                            : 48.0 kHz
  160. Frame rate                               : 93.750 FPS (512 SPF)
  161. Bit depth                                : 16 bits
  162. Compression mode                         : Lossless
  163. Stream size                              : 2.20 GiB (3%)
  164. Title                                    : The.Mask.of.Zorro.1998.2160p.BluRay.REMUX.HEVC.DTS-HD.MA.TrueHD.7.1.Atmos-FGT
  165. Language                                 : German
  166. Default                                  : No
  167. Forced                                   : No
  168. Original source medium                   : Blu-ray

  169. Audio #7
  170. ID                                       : 8
  171. ID in the original source medium         : 4357 (0x1105)
  172. Format                                   : AC-3
  173. Format/Info                              : Audio Coding 3
  174. Commercial name                          : Dolby Digital
  175. Codec ID                                 : A_AC3
  176. Duration                                 : 2 h 17 min
  177. Bit rate mode                            : Constant
  178. Bit rate                                 : 640 kb/s
  179. Channel(s)                               : 6 channels
  180. Channel layout                           : L R C LFE Ls Rs
  181. Sampling rate                            : 48.0 kHz
  182. Frame rate                               : 31.250 FPS (1536 SPF)
  183. Bit depth                                : 16 bits
  184. Compression mode                         : Lossy
  185. Stream size                              : 630 MiB (1%)
  186. Title                                    : The.Mask.of.Zorro.1998.2160p.BluRay.REMUX.HEVC.DTS-HD.MA.TrueHD.7.1.Atmos-FGT
  187. Language                                 : Hindi
  188. Service kind                             : Complete Main
  189. Default                                  : No
  190. Forced                                   : No
  191. Original source medium                   : Blu-ray

  192. Audio #8
  193. ID                                       : 9
  194. ID in the original source medium         : 4358 (0x1106)
  195. Format                                   : AC-3
  196. Format/Info                              : Audio Coding 3
  197. Commercial name                          : Dolby Digital
  198. Codec ID                                 : A_AC3
  199. Duration                                 : 2 h 17 min
  200. Bit rate mode                            : Constant
  201. Bit rate                                 : 640 kb/s
  202. Channel(s)                               : 6 channels
  203. Channel layout                           : L R C LFE Ls Rs
  204. Sampling rate                            : 48.0 kHz
  205. Frame rate                               : 31.250 FPS (1536 SPF)
  206. Bit depth                                : 16 bits
  207. Compression mode                         : Lossy
  208. Stream size                              : 630 MiB (1%)
  209. Title                                    : The.Mask.of.Zorro.1998.2160p.BluRay.REMUX.HEVC.DTS-HD.MA.TrueHD.7.1.Atmos-FGT
  210. Language                                 : Hungarian
  211. Service kind                             : Complete Main
  212. Default                                  : No
  213. Forced                                   : No
  214. Original source medium                   : Blu-ray

  215. Audio #9
  216. ID                                       : 10
  217. ID in the original source medium         : 4359 (0x1107)
  218. Format                                   : DTS XLL
  219. Format/Info                              : Digital Theater Systems
  220. Commercial name                          : DTS-HD Master Audio
  221. Codec ID                                 : A_DTS
  222. Duration                                 : 2 h 17 min
  223. Bit rate mode                            : Variable
  224. Bit rate                                 : 2 325 kb/s
  225. Channel(s)                               : 6 channels
  226. Channel layout                           : C L R Ls Rs LFE
  227. Sampling rate                            : 48.0 kHz
  228. Frame rate                               : 93.750 FPS (512 SPF)
  229. Bit depth                                : 16 bits
  230. Compression mode                         : Lossless
  231. Stream size                              : 2.23 GiB (3%)
  232. Title                                    : The.Mask.of.Zorro.1998.2160p.BluRay.REMUX.HEVC.DTS-HD.MA.TrueHD.7.1.Atmos-FGT
  233. Language                                 : Italian
  234. Default                                  : No
  235. Forced                                   : No
  236. Original source medium                   : Blu-ray

  237. Audio #10
  238. ID                                       : 11
  239. ID in the original source medium         : 4360 (0x1108)
  240. Format                                   : AC-3
  241. Format/Info                              : Audio Coding 3
  242. Commercial name                          : Dolby Digital
  243. Codec ID                                 : A_AC3
  244. Duration                                 : 2 h 17 min
  245. Bit rate mode                            : Constant
  246. Bit rate                                 : 640 kb/s
  247. Channel(s)                               : 6 channels
  248. Channel layout                           : L R C LFE Ls Rs
  249. Sampling rate                            : 48.0 kHz
  250. Frame rate                               : 31.250 FPS (1536 SPF)
  251. Bit depth                                : 16 bits
  252. Compression mode                         : Lossy
  253. Stream size                              : 630 MiB (1%)
  254. Title                                    : The.Mask.of.Zorro.1998.2160p.BluRay.REMUX.HEVC.DTS-HD.MA.TrueHD.7.1.Atmos-FGT
  255. Language                                 : Portuguese
  256. Service kind                             : Complete Main
  257. Default                                  : No
  258. Forced                                   : No
  259. Original source medium                   : Blu-ray

  260. Audio #11
  261. ID                                       : 12
  262. ID in the original source medium         : 4361 (0x1109)
  263. Format                                   : AC-3
  264. Format/Info                              : Audio Coding 3
  265. Commercial name                          : Dolby Digital
  266. Codec ID                                 : A_AC3
  267. Duration                                 : 2 h 17 min
  268. Bit rate mode                            : Constant
  269. Bit rate                                 : 640 kb/s
  270. Channel(s)                               : 6 channels
  271. Channel layout                           : L R C LFE Ls Rs
  272. Sampling rate                            : 48.0 kHz
  273. Frame rate                               : 31.250 FPS (1536 SPF)
  274. Bit depth                                : 16 bits
  275. Compression mode                         : Lossy
  276. Stream size                              : 630 MiB (1%)
  277. Title                                    : The.Mask.of.Zorro.1998.2160p.BluRay.REMUX.HEVC.DTS-HD.MA.TrueHD.7.1.Atmos-FGT
  278. Language                                 : Russian
  279. Service kind                             : Complete Main
  280. Default                                  : No
  281. Forced                                   : No
  282. Original source medium                   : Blu-ray

  283. Audio #12
  284. ID                                       : 13
  285. ID in the original source medium         : 4362 (0x110A)
  286. Format                                   : DTS XLL
  287. Format/Info                              : Digital Theater Systems
  288. Commercial name                          : DTS-HD Master Audio
  289. Codec ID                                 : A_DTS
  290. Duration                                 : 2 h 17 min
  291. Bit rate mode                            : Variable
  292. Bit rate                                 : 2 354 kb/s
  293. Channel(s)                               : 6 channels
  294. Channel layout                           : C L R Ls Rs LFE
  295. Sampling rate                            : 48.0 kHz
  296. Frame rate                               : 93.750 FPS (512 SPF)
  297. Bit depth                                : 16 bits
  298. Compression mode                         : Lossless
  299. Stream size                              : 2.26 GiB (3%)
  300. Title                                    : The.Mask.of.Zorro.1998.2160p.BluRay.REMUX.HEVC.DTS-HD.MA.TrueHD.7.1.Atmos-FGT
  301. Language                                 : Spanish
  302. Default                                  : No
  303. Forced                                   : No
  304. Original source medium                   : Blu-ray

  305. Audio #13
  306. ID                                       : 14
  307. ID in the original source medium         : 4363 (0x110B)
  308. Format                                   : AC-3
  309. Format/Info                              : Audio Coding 3
  310. Commercial name                          : Dolby Digital
  311. Codec ID                                 : A_AC3
  312. Duration                                 : 2 h 17 min
  313. Bit rate mode                            : Constant
  314. Bit rate                                 : 640 kb/s
  315. Channel(s)                               : 6 channels
  316. Channel layout                           : L R C LFE Ls Rs
  317. Sampling rate                            : 48.0 kHz
  318. Frame rate                               : 31.250 FPS (1536 SPF)
  319. Bit depth                                : 16 bits
  320. Compression mode                         : Lossy
  321. Stream size                              : 630 MiB (1%)
  322. Title                                    : The.Mask.of.Zorro.1998.2160p.BluRay.REMUX.HEVC.DTS-HD.MA.TrueHD.7.1.Atmos-FGT
  323. Language                                 : Spanish
  324. Service kind                             : Complete Main
  325. Default                                  : No
  326. Forced                                   : No
  327. Original source medium                   : Blu-ray

  328. Audio #14
  329. ID                                       : 15
  330. ID in the original source medium         : 4364 (0x110C)
  331. Format                                   : AC-3
  332. Format/Info                              : Audio Coding 3
  333. Commercial name                          : Dolby Digital
  334. Codec ID                                 : A_AC3
  335. Duration                                 : 2 h 17 min
  336. Bit rate mode                            : Constant
  337. Bit rate                                 : 640 kb/s
  338. Channel(s)                               : 6 channels
  339. Channel layout                           : L R C LFE Ls Rs
  340. Sampling rate                            : 48.0 kHz
  341. Frame rate                               : 31.250 FPS (1536 SPF)
  342. Bit depth                                : 16 bits
  343. Compression mode                         : Lossy
  344. Stream size                              : 630 MiB (1%)
  345. Title                                    : The.Mask.of.Zorro.1998.2160p.BluRay.REMUX.HEVC.DTS-HD.MA.TrueHD.7.1.Atmos-FGT
  346. Language                                 : Thai
  347. Service kind                             : Complete Main
  348. Default                                  : No
  349. Forced                                   : No
  350. Original source medium                   : Blu-ray

  351. Audio #15
  352. ID                                       : 16
  353. ID in the original source medium         : 4365 (0x110D)
  354. Format                                   : AC-3
  355. Format/Info                              : Audio Coding 3
  356. Commercial name                          : Dolby Digital
  357. Codec ID                                 : A_AC3
  358. Duration                                 : 2 h 17 min
  359. Bit rate mode                            : Constant
  360. Bit rate                                 : 640 kb/s
  361. Channel(s)                               : 6 channels
  362. Channel layout                           : L R C LFE Ls Rs
  363. Sampling rate                            : 48.0 kHz
  364. Frame rate                               : 31.250 FPS (1536 SPF)
  365. Bit depth                                : 16 bits
  366. Compression mode                         : Lossy
  367. Stream size                              : 630 MiB (1%)
  368. Title                                    : The.Mask.of.Zorro.1998.2160p.BluRay.REMUX.HEVC.DTS-HD.MA.TrueHD.7.1.Atmos-FGT
  369. Language                                 : Turkish
  370. Service kind                             : Complete Main
  371. Default                                  : No
  372. Forced                                   : No
  373. Original source medium                   : Blu-ray

  374. Text #1
  375. ID                                       : 17
  376. Format                                   : UTF-8
  377. Codec ID                                 : S_TEXT/UTF8
  378. Codec ID/Info                            : UTF-8 Plain Text
  379. Duration                                 : 2 h 8 min
  380. Bit rate                                 : 34 b/s
  381. Count of elements                        : 1008
  382. Stream size                              : 32.2 KiB (0%)
  383. Title                                    : English-SRT
  384. Language                                 : English
  385. Default                                  : Yes
  386. Forced                                   : No

  387. Text #2
  388. ID                                       : 18
  389. Format                                   : UTF-8
  390. Codec ID                                 : S_TEXT/UTF8
  391. Codec ID/Info                            : UTF-8 Plain Text
  392. Duration                                 : 2 h 14 min
  393. Bit rate                                 : 35 b/s
  394. Count of elements                        : 1247
  395. Stream size                              : 34.7 KiB (0%)
  396. Title                                    : English-SDH-SRT
  397. Language                                 : English
  398. Default                                  : No
  399. Forced                                   : No

  400. Text #3
  401. ID                                       : 19
  402. ID in the original source medium         : 4768 (0x12A0)
  403. Format                                   : PGS
  404. Muxing mode                              : zlib
  405. Codec ID                                 : S_HDMV/PGS
  406. Codec ID/Info                            : Picture based subtitle format used on BDs/HD-DVDs
  407. Duration                                 : 2 h 14 min
  408. Bit rate                                 : 21.5 kb/s
  409. Count of elements                        : 2505
  410. Stream size                              : 20.7 MiB (0%)
  411. Title                                    : English-SDH-PGS
  412. Language                                 : English
  413. Default                                  : No
  414. Forced                                   : No
  415. Original source medium                   : Blu-ray

  416. Text #4
  417. ID                                       : 20
  418. ID in the original source medium         : 4769 (0x12A1)
  419. Format                                   : PGS
  420. Muxing mode                              : zlib
  421. Codec ID                                 : S_HDMV/PGS
  422. Codec ID/Info                            : Picture based subtitle format used on BDs/HD-DVDs
  423. Duration                                 : 2 h 8 min
  424. Bit rate                                 : 19.2 kb/s
  425. Count of elements                        : 1690
  426. Stream size                              : 17.6 MiB (0%)
  427. Title                                    : English-PGS
  428. Language                                 : English
  429. Default                                  : No
  430. Forced                                   : No
  431. Original source medium                   : Blu-ray

  432. Text #5
  433. ID                                       : 21
  434. ID in the original source medium         : 4769 (0x12A1)
  435. Format                                   : PGS
  436. Muxing mode                              : zlib
  437. Codec ID                                 : S_HDMV/PGS
  438. Codec ID/Info                            : Picture based subtitle format used on BDs/HD-DVDs
  439. Duration                                 : 5 s 401 ms
  440. Bit rate                                 : 59.1 kb/s
  441. Count of elements                        : 4
  442. Stream size                              : 39.0 KiB (0%)
  443. Title                                    : English-SDH-PGS
  444. Language                                 : English
  445. Default                                  : No
  446. Forced                                   : No
  447. Original source medium                   : Blu-ray

  448. Text #6
  449. ID                                       : 22
  450. ID in the original source medium         : 4770 (0x12A2)
  451. Format                                   : PGS
  452. Muxing mode                              : zlib
  453. Codec ID                                 : S_HDMV/PGS
  454. Codec ID/Info                            : Picture based subtitle format used on BDs/HD-DVDs
  455. Duration                                 : 2 h 14 min
  456. Bit rate                                 : 21.5 kb/s
  457. Count of elements                        : 2505
  458. Stream size                              : 20.7 MiB (0%)
  459. Title                                    : English-PGS
  460. Language                                 : English
  461. Default                                  : No
  462. Forced                                   : No
  463. Original source medium                   : Blu-ray

  464. Text #7
  465. ID                                       : 23
  466. ID in the original source medium         : 4772 (0x12A4)
  467. Format                                   : PGS
  468. Muxing mode                              : zlib
  469. Codec ID                                 : S_HDMV/PGS
  470. Codec ID/Info                            : Picture based subtitle format used on BDs/HD-DVDs
  471. Duration                                 : 2 h 9 min
  472. Bit rate                                 : 8 558 b/s
  473. Count of elements                        : 1372
  474. Stream size                              : 7.90 MiB (0%)
  475. Title                                    : Arabic-PGS
  476. Language                                 : Arabic
  477. Default                                  : No
  478. Forced                                   : No
  479. Original source medium                   : Blu-ray

  480. Text #8
  481. ID                                       : 24
  482. ID in the original source medium         : 4772 (0x12A4)
  483. Format                                   : PGS
  484. Muxing mode                              : zlib
  485. Codec ID                                 : S_HDMV/PGS
  486. Codec ID/Info                            : Picture based subtitle format used on BDs/HD-DVDs
  487. Duration                                 : 5 s 110 ms
  488. Bit rate                                 : 9 518 b/s
  489. Count of elements                        : 2
  490. Stream size                              : 5.94 KiB (0%)
  491. Title                                    : Arabic-FORCED-PGS
  492. Language                                 : Arabic
  493. Default                                  : No
  494. Forced                                   : No
  495. Original source medium                   : Blu-ray

  496. Text #9
  497. ID                                       : 25
  498. ID in the original source medium         : 4773 (0x12A5)
  499. Format                                   : PGS
  500. Muxing mode                              : zlib
  501. Codec ID                                 : S_HDMV/PGS
  502. Codec ID/Info                            : Picture based subtitle format used on BDs/HD-DVDs
  503. Duration                                 : 2 h 16 min
  504. Bit rate                                 : 12.8 kb/s
  505. Count of elements                        : 1554
  506. Stream size                              : 12.5 MiB (0%)
  507. Title                                    : Chinese-PGS
  508. Language                                 : Chinese
  509. Default                                  : No
  510. Forced                                   : No
  511. Original source medium                   : Blu-ray

  512. Text #10
  513. ID                                       : 26
  514. ID in the original source medium         : 4774 (0x12A6)
  515. Format                                   : PGS
  516. Muxing mode                              : zlib
  517. Codec ID                                 : S_HDMV/PGS
  518. Codec ID/Info                            : Picture based subtitle format used on BDs/HD-DVDs
  519. Duration                                 : 2 h 8 min
  520. Bit rate                                 : 13.3 kb/s
  521. Count of elements                        : 1552
  522. Stream size                              : 12.3 MiB (0%)
  523. Title                                    : Chinese-PGS
  524. Language                                 : Chinese
  525. Default                                  : No
  526. Forced                                   : No
  527. Original source medium                   : Blu-ray

  528. Text #11
  529. ID                                       : 27
  530. ID in the original source medium         : 4774 (0x12A6)
  531. Format                                   : PGS
  532. Muxing mode                              : zlib
  533. Codec ID                                 : S_HDMV/PGS
  534. Codec ID/Info                            : Picture based subtitle format used on BDs/HD-DVDs
  535. Duration                                 : 24 s 670 ms
  536. Bit rate                                 : 54.4 kb/s
  537. Count of elements                        : 18
  538. Stream size                              : 164 KiB (0%)
  539. Title                                    : Chinese-PGS
  540. Language                                 : Chinese
  541. Default                                  : No
  542. Forced                                   : No
  543. Original source medium                   : Blu-ray

  544. Text #12
  545. ID                                       : 28
  546. ID in the original source medium         : 4775 (0x12A7)
  547. Format                                   : PGS
  548. Muxing mode                              : zlib
  549. Codec ID                                 : S_HDMV/PGS
  550. Codec ID/Info                            : Picture based subtitle format used on BDs/HD-DVDs
  551. Duration                                 : 2 h 16 min
  552. Bit rate                                 : 14.5 kb/s
  553. Count of elements                        : 1566
  554. Stream size                              : 14.2 MiB (0%)
  555. Title                                    : Croatian-PGS
  556. Language                                 : Croatian
  557. Default                                  : No
  558. Forced                                   : No
  559. Original source medium                   : Blu-ray

  560. Text #13
  561. ID                                       : 29
  562. ID in the original source medium         : 4775 (0x12A7)
  563. Format                                   : PGS
  564. Muxing mode                              : zlib
  565. Codec ID                                 : S_HDMV/PGS
  566. Codec ID/Info                            : Picture based subtitle format used on BDs/HD-DVDs
  567. Duration                                 : 5 s 109 ms
  568. Bit rate                                 : 27.9 kb/s
  569. Count of elements                        : 2
  570. Stream size                              : 17.4 KiB (0%)
  571. Title                                    : Croatian-FORCED-PGS
  572. Language                                 : Croatian
  573. Default                                  : No
  574. Forced                                   : No
  575. Original source medium                   : Blu-ray

  576. Text #14
  577. ID                                       : 30
  578. ID in the original source medium         : 4776 (0x12A8)
  579. Format                                   : PGS
  580. Muxing mode                              : zlib
  581. Codec ID                                 : S_HDMV/PGS
  582. Codec ID/Info                            : Picture based subtitle format used on BDs/HD-DVDs
  583. Duration                                 : 2 h 9 min
  584. Bit rate                                 : 15.7 kb/s
  585. Count of elements                        : 1556
  586. Stream size                              : 14.5 MiB (0%)
  587. Title                                    : Czech-PGS
  588. Language                                 : Czech
  589. Default                                  : No
  590. Forced                                   : No
  591. Original source medium                   : Blu-ray

  592. Text #15
  593. ID                                       : 31
  594. ID in the original source medium         : 4776 (0x12A8)
  595. Format                                   : PGS
  596. Muxing mode                              : zlib
  597. Codec ID                                 : S_HDMV/PGS
  598. Codec ID/Info                            : Picture based subtitle format used on BDs/HD-DVDs
  599. Duration                                 : 18 min 47 s
  600. Bit rate                                 : 2 050 b/s
  601. Count of elements                        : 26
  602. Stream size                              : 282 KiB (0%)
  603. Title                                    : Czech-FORCED-PGS
  604. Language                                 : Czech
  605. Default                                  : No
  606. Forced                                   : No
  607. Original source medium                   : Blu-ray

  608. Text #16
  609. ID                                       : 32
  610. ID in the original source medium         : 4777 (0x12A9)
  611. Format                                   : PGS
  612. Muxing mode                              : zlib
  613. Codec ID                                 : S_HDMV/PGS
  614. Codec ID/Info                            : Picture based subtitle format used on BDs/HD-DVDs
  615. Duration                                 : 2 h 9 min
  616. Bit rate                                 : 15.8 kb/s
  617. Count of elements                        : 1364
  618. Stream size                              : 14.6 MiB (0%)
  619. Title                                    : Danish-PGS
  620. Language                                 : Danish
  621. Default                                  : No
  622. Forced                                   : No
  623. Original source medium                   : Blu-ray

  624. Text #17
  625. ID                                       : 33
  626. ID in the original source medium         : 4778 (0x12AA)
  627. Format                                   : PGS
  628. Muxing mode                              : zlib
  629. Codec ID                                 : S_HDMV/PGS
  630. Codec ID/Info                            : Picture based subtitle format used on BDs/HD-DVDs
  631. Duration                                 : 2 h 16 min
  632. Bit rate                                 : 16.1 kb/s
  633. Count of elements                        : 1424
  634. Stream size                              : 15.7 MiB (0%)
  635. Title                                    : Dutch-PGS
  636. Language                                 : Dutch
  637. Default                                  : No
  638. Forced                                   : No
  639. Original source medium                   : Blu-ray

  640. Text #18
  641. ID                                       : 34
  642. ID in the original source medium         : 4779 (0x12AB)
  643. Format                                   : PGS
  644. Muxing mode                              : zlib
  645. Codec ID                                 : S_HDMV/PGS
  646. Codec ID/Info                            : Picture based subtitle format used on BDs/HD-DVDs
  647. Duration                                 : 2 h 8 min
  648. Bit rate                                 : 16.6 kb/s
  649. Count of elements                        : 1362
  650. Stream size                              : 15.3 MiB (0%)
  651. Title                                    : Finnish-PGS
  652. Language                                 : Finnish
  653. Default                                  : No
  654. Forced                                   : No
  655. Original source medium                   : Blu-ray

  656. Text #19
  657. ID                                       : 35
  658. ID in the original source medium         : 4779 (0x12AB)
  659. Format                                   : PGS
  660. Muxing mode                              : zlib
  661. Codec ID                                 : S_HDMV/PGS
  662. Codec ID/Info                            : Picture based subtitle format used on BDs/HD-DVDs
  663. Duration                                 : 5 s 26 ms
  664. Bit rate                                 : 26.9 kb/s
  665. Count of elements                        : 2
  666. Stream size                              : 16.5 KiB (0%)
  667. Title                                    : Finnish-FORCED-PGS
  668. Language                                 : Finnish
  669. Default                                  : No
  670. Forced                                   : No
  671. Original source medium                   : Blu-ray

  672. Text #20
  673. ID                                       : 36
  674. ID in the original source medium         : 4780 (0x12AC)
  675. Format                                   : PGS
  676. Muxing mode                              : zlib
  677. Codec ID                                 : S_HDMV/PGS
  678. Codec ID/Info                            : Picture based subtitle format used on BDs/HD-DVDs
  679. Duration                                 : 2 h 16 min
  680. Bit rate                                 : 17.3 kb/s
  681. Count of elements                        : 1670
  682. Stream size                              : 16.9 MiB (0%)
  683. Title                                    : French-PGS
  684. Language                                 : French
  685. Default                                  : No
  686. Forced                                   : No
  687. Original source medium                   : Blu-ray

  688. Text #21
  689. ID                                       : 37
  690. ID in the original source medium         : 4780 (0x12AC)
  691. Format                                   : PGS
  692. Muxing mode                              : zlib
  693. Codec ID                                 : S_HDMV/PGS
  694. Codec ID/Info                            : Picture based subtitle format used on BDs/HD-DVDs
  695. Duration                                 : 2 h 16 min
  696. Bit rate                                 : 298 b/s
  697. Count of elements                        : 24
  698. Stream size                              : 298 KiB (0%)
  699. Title                                    : French-FORCED-PGS
  700. Language                                 : French
  701. Default                                  : No
  702. Forced                                   : No
  703. Original source medium                   : Blu-ray

  704. Text #22
  705. ID                                       : 38
  706. ID in the original source medium         : 4781 (0x12AD)
  707. Format                                   : PGS
  708. Muxing mode                              : zlib
  709. Codec ID                                 : S_HDMV/PGS
  710. Codec ID/Info                            : Picture based subtitle format used on BDs/HD-DVDs
  711. Duration                                 : 2 h 9 min
  712. Bit rate                                 : 19.2 kb/s
  713. Count of elements                        : 1546
  714. Stream size                              : 17.7 MiB (0%)
  715. Title                                    : German-PGS
  716. Language                                 : German
  717. Default                                  : No
  718. Forced                                   : No
  719. Original source medium                   : Blu-ray

  720. Text #23
  721. ID                                       : 39
  722. ID in the original source medium         : 4781 (0x12AD)
  723. Format                                   : PGS
  724. Muxing mode                              : zlib
  725. Codec ID                                 : S_HDMV/PGS
  726. Codec ID/Info                            : Picture based subtitle format used on BDs/HD-DVDs
  727. Duration                                 : 18 min 47 s
  728. Bit rate                                 : 1 933 b/s
  729. Count of elements                        : 24
  730. Stream size                              : 266 KiB (0%)
  731. Title                                    : German-FORCED-PGS
  732. Language                                 : German
  733. Default                                  : No
  734. Forced                                   : No
  735. Original source medium                   : Blu-ray

  736. Text #24
  737. ID                                       : 40
  738. ID in the original source medium         : 4782 (0x12AE)
  739. Format                                   : PGS
  740. Muxing mode                              : zlib
  741. Codec ID                                 : S_HDMV/PGS
  742. Codec ID/Info                            : Picture based subtitle format used on BDs/HD-DVDs
  743. Duration                                 : 2 h 9 min
  744. Bit rate                                 : 16.2 kb/s
  745. Count of elements                        : 1478
  746. Stream size                              : 15.0 MiB (0%)
  747. Title                                    : Greek-PGS
  748. Language                                 : Greek
  749. Default                                  : No
  750. Forced                                   : No
  751. Original source medium                   : Blu-ray

  752. Text #25
  753. ID                                       : 41
  754. ID in the original source medium         : 4783 (0x12AF)
  755. Format                                   : PGS
  756. Muxing mode                              : zlib
  757. Codec ID                                 : S_HDMV/PGS
  758. Codec ID/Info                            : Picture based subtitle format used on BDs/HD-DVDs
  759. Duration                                 : 2 h 16 min
  760. Bit rate                                 : 11.9 kb/s
  761. Count of elements                        : 1564
  762. Stream size                              : 11.7 MiB (0%)
  763. Title                                    : Hindi-PGS
  764. Language                                 : Hindi
  765. Default                                  : No
  766. Forced                                   : No
  767. Original source medium                   : Blu-ray

  768. Text #26
  769. ID                                       : 42
  770. ID in the original source medium         : 4783 (0x12AF)
  771. Format                                   : PGS
  772. Muxing mode                              : zlib
  773. Codec ID                                 : S_HDMV/PGS
  774. Codec ID/Info                            : Picture based subtitle format used on BDs/HD-DVDs
  775. Duration                                 : 2 h 6 min
  776. Bit rate                                 : 78 b/s
  777. Count of elements                        : 8
  778. Stream size                              : 72.7 KiB (0%)
  779. Title                                    : Hindi-FORCED-PGS
  780. Language                                 : Hindi
  781. Default                                  : No
  782. Forced                                   : No
  783. Original source medium                   : Blu-ray

  784. Text #27
  785. ID                                       : 43
  786. ID in the original source medium         : 4784 (0x12B0)
  787. Format                                   : PGS
  788. Muxing mode                              : zlib
  789. Codec ID                                 : S_HDMV/PGS
  790. Codec ID/Info                            : Picture based subtitle format used on BDs/HD-DVDs
  791. Duration                                 : 2 h 9 min
  792. Bit rate                                 : 17.5 kb/s
  793. Count of elements                        : 1562
  794. Stream size                              : 16.1 MiB (0%)
  795. Title                                    : Hungarian-PGS
  796. Language                                 : Hungarian
  797. Default                                  : No
  798. Forced                                   : No
  799. Original source medium                   : Blu-ray

  800. Text #28
  801. ID                                       : 44
  802. ID in the original source medium         : 4784 (0x12B0)
  803. Format                                   : PGS
  804. Muxing mode                              : zlib
  805. Codec ID                                 : S_HDMV/PGS
  806. Codec ID/Info                            : Picture based subtitle format used on BDs/HD-DVDs
  807. Duration                                 : 18 min 47 s
  808. Bit rate                                 : 1 903 b/s
  809. Count of elements                        : 26
  810. Stream size                              : 262 KiB (0%)
  811. Title                                    : Hungarian-FORCED-PGS
  812. Language                                 : Hungarian
  813. Default                                  : No
  814. Forced                                   : No
  815. Original source medium                   : Blu-ray

  816. Text #29
  817. ID                                       : 45
  818. ID in the original source medium         : 4785 (0x12B1)
  819. Format                                   : PGS
  820. Muxing mode                              : zlib
  821. Codec ID                                 : S_HDMV/PGS
  822. Codec ID/Info                            : Picture based subtitle format used on BDs/HD-DVDs
  823. Duration                                 : 2 h 9 min
  824. Bit rate                                 : 17.0 kb/s
  825. Count of elements                        : 1560
  826. Stream size                              : 15.7 MiB (0%)
  827. Title                                    : Italian-PGS
  828. Language                                 : Italian
  829. Default                                  : No
  830. Forced                                   : No
  831. Original source medium                   : Blu-ray

  832. Text #30
  833. ID                                       : 46
  834. ID in the original source medium         : 4785 (0x12B1)
  835. Format                                   : PGS
  836. Muxing mode                              : zlib
  837. Codec ID                                 : S_HDMV/PGS
  838. Codec ID/Info                            : Picture based subtitle format used on BDs/HD-DVDs
  839. Duration                                 : 18 min 47 s
  840. Bit rate                                 : 2 643 b/s
  841. Count of elements                        : 26
  842. Stream size                              : 364 KiB (0%)
  843. Title                                    : Italian-FORCED-PGS
  844. Language                                 : Italian
  845. Default                                  : No
  846. Forced                                   : No
  847. Original source medium                   : Blu-ray

  848. Text #31
  849. ID                                       : 47
  850. ID in the original source medium         : 4786 (0x12B2)
  851. Format                                   : PGS
  852. Muxing mode                              : zlib
  853. Codec ID                                 : S_HDMV/PGS
  854. Codec ID/Info                            : Picture based subtitle format used on BDs/HD-DVDs
  855. Duration                                 : 2 h 9 min
  856. Bit rate                                 : 14.7 kb/s
  857. Count of elements                        : 1448
  858. Stream size                              : 13.5 MiB (0%)
  859. Title                                    : Korean-PGS
  860. Language                                 : Korean
  861. Default                                  : No
  862. Forced                                   : No
  863. Original source medium                   : Blu-ray

  864. Text #32
  865. ID                                       : 48
  866. ID in the original source medium         : 4787 (0x12B3)
  867. Format                                   : PGS
  868. Muxing mode                              : zlib
  869. Codec ID                                 : S_HDMV/PGS
  870. Codec ID/Info                            : Picture based subtitle format used on BDs/HD-DVDs
  871. Duration                                 : 2 h 16 min
  872. Bit rate                                 : 15.2 kb/s
  873. Count of elements                        : 1410
  874. Stream size                              : 14.9 MiB (0%)
  875. Title                                    : Norwegian-PGS
  876. Language                                 : Norwegian
  877. Default                                  : No
  878. Forced                                   : No
  879. Original source medium                   : Blu-ray

  880. Text #33
  881. ID                                       : 49
  882. ID in the original source medium         : 4787 (0x12B3)
  883. Format                                   : PGS
  884. Muxing mode                              : zlib
  885. Codec ID                                 : S_HDMV/PGS
  886. Codec ID/Info                            : Picture based subtitle format used on BDs/HD-DVDs
  887. Duration                                 : 5 s 151 ms
  888. Bit rate                                 : 14.1 kb/s
  889. Count of elements                        : 2
  890. Stream size                              : 8.85 KiB (0%)
  891. Title                                    : Norwegian-FORCED-PGS
  892. Language                                 : Norwegian
  893. Default                                  : No
  894. Forced                                   : No
  895. Original source medium                   : Blu-ray

  896. Text #34
  897. ID                                       : 50
  898. ID in the original source medium         : 4788 (0x12B4)
  899. Format                                   : PGS
  900. Muxing mode                              : zlib
  901. Codec ID                                 : S_HDMV/PGS
  902. Codec ID/Info                            : Picture based subtitle format used on BDs/HD-DVDs
  903. Duration                                 : 2 h 9 min
  904. Bit rate                                 : 17.2 kb/s
  905. Count of elements                        : 1536
  906. Stream size                              : 15.8 MiB (0%)
  907. Title                                    : Polish-PGS
  908. Language                                 : Polish
  909. Default                                  : No
  910. Forced                                   : No
  911. Original source medium                   : Blu-ray

  912. Text #35
  913. ID                                       : 51
  914. ID in the original source medium         : 4788 (0x12B4)
  915. Format                                   : PGS
  916. Muxing mode                              : zlib
  917. Codec ID                                 : S_HDMV/PGS
  918. Codec ID/Info                            : Picture based subtitle format used on BDs/HD-DVDs
  919. Duration                                 : 5 s 276 ms
  920. Bit rate                                 : 45.2 kb/s
  921. Count of elements                        : 4
  922. Stream size                              : 29.1 KiB (0%)
  923. Title                                    : Polish-FORCED-PGS
  924. Language                                 : Polish
  925. Default                                  : No
  926. Forced                                   : No
  927. Original source medium                   : Blu-ray

  928. Text #36
  929. ID                                       : 52
  930. ID in the original source medium         : 4789 (0x12B5)
  931. Format                                   : PGS
  932. Muxing mode                              : zlib
  933. Codec ID                                 : S_HDMV/PGS
  934. Codec ID/Info                            : Picture based subtitle format used on BDs/HD-DVDs
  935. Duration                                 : 2 h 9 min
  936. Bit rate                                 : 18.3 kb/s
  937. Count of elements                        : 1718
  938. Stream size                              : 16.9 MiB (0%)
  939. Title                                    : Portuguese-PGS
  940. Language                                 : Portuguese
  941. Default                                  : No
  942. Forced                                   : No
  943. Original source medium                   : Blu-ray

  944. Text #37
  945. ID                                       : 53
  946. ID in the original source medium         : 4789 (0x12B5)
  947. Format                                   : PGS
  948. Muxing mode                              : zlib
  949. Codec ID                                 : S_HDMV/PGS
  950. Codec ID/Info                            : Picture based subtitle format used on BDs/HD-DVDs
  951. Duration                                 : 18 min 46 s
  952. Bit rate                                 : 1 931 b/s
  953. Count of elements                        : 26
  954. Stream size                              : 266 KiB (0%)
  955. Title                                    : Portuguese-FORCED-PGS
  956. Language                                 : Portuguese
  957. Default                                  : No
  958. Forced                                   : No
  959. Original source medium                   : Blu-ray

  960. Text #38
  961. ID                                       : 54
  962. ID in the original source medium         : 4790 (0x12B6)
  963. Format                                   : PGS
  964. Muxing mode                              : zlib
  965. Codec ID                                 : S_HDMV/PGS
  966. Codec ID/Info                            : Picture based subtitle format used on BDs/HD-DVDs
  967. Duration                                 : 2 h 9 min
  968. Bit rate                                 : 17.3 kb/s
  969. Count of elements                        : 1494
  970. Stream size                              : 15.9 MiB (0%)
  971. Title                                    : Portuguese-PGS
  972. Language                                 : Portuguese
  973. Default                                  : No
  974. Forced                                   : No
  975. Original source medium                   : Blu-ray

  976. Text #39
  977. ID                                       : 55
  978. ID in the original source medium         : 4790 (0x12B6)
  979. Format                                   : PGS
  980. Muxing mode                              : zlib
  981. Codec ID                                 : S_HDMV/PGS
  982. Codec ID/Info                            : Picture based subtitle format used on BDs/HD-DVDs
  983. Duration                                 : 5 s 110 ms
  984. Bit rate                                 : 20.6 kb/s
  985. Count of elements                        : 2
  986. Stream size                              : 12.8 KiB (0%)
  987. Title                                    : Portuguese-FORCED-PGS
  988. Language                                 : Portuguese
  989. Default                                  : No
  990. Forced                                   : No
  991. Original source medium                   : Blu-ray

  992. Text #40
  993. ID                                       : 56
  994. ID in the original source medium         : 4791 (0x12B7)
  995. Format                                   : PGS
  996. Muxing mode                              : zlib
  997. Codec ID                                 : S_HDMV/PGS
  998. Codec ID/Info                            : Picture based subtitle format used on BDs/HD-DVDs
  999. Duration                                 : 2 h 16 min
  1000. Bit rate                                 : 15.5 kb/s
  1001. Count of elements                        : 1564
  1002. Stream size                              : 15.2 MiB (0%)
  1003. Title                                    : Romanian-PGS
  1004. Language                                 : Romanian
  1005. Default                                  : No
  1006. Forced                                   : No
  1007. Original source medium                   : Blu-ray

  1008. Text #41
  1009. ID                                       : 57
  1010. ID in the original source medium         : 4791 (0x12B7)
  1011. Format                                   : PGS
  1012. Muxing mode                              : zlib
  1013. Codec ID                                 : S_HDMV/PGS
  1014. Codec ID/Info                            : Picture based subtitle format used on BDs/HD-DVDs
  1015. Duration                                 : 5 s 110 ms
  1016. Bit rate                                 : 18.4 kb/s
  1017. Count of elements                        : 2
  1018. Stream size                              : 11.5 KiB (0%)
  1019. Title                                    : Romanian-FORCED-PGS
  1020. Language                                 : Romanian
  1021. Default                                  : No
  1022. Forced                                   : No
  1023. Original source medium                   : Blu-ray

  1024. Text #42
  1025. ID                                       : 58
  1026. ID in the original source medium         : 4792 (0x12B8)
  1027. Format                                   : PGS
  1028. Muxing mode                              : zlib
  1029. Codec ID                                 : S_HDMV/PGS
  1030. Codec ID/Info                            : Picture based subtitle format used on BDs/HD-DVDs
  1031. Duration                                 : 2 h 9 min
  1032. Bit rate                                 : 16.3 kb/s
  1033. Count of elements                        : 1552
  1034. Stream size                              : 15.1 MiB (0%)
  1035. Title                                    : Russian-PGS
  1036. Language                                 : Russian
  1037. Default                                  : No
  1038. Forced                                   : No
  1039. Original source medium                   : Blu-ray

  1040. Text #43
  1041. ID                                       : 59
  1042. ID in the original source medium         : 4792 (0x12B8)
  1043. Format                                   : PGS
  1044. Muxing mode                              : zlib
  1045. Codec ID                                 : S_HDMV/PGS
  1046. Codec ID/Info                            : Picture based subtitle format used on BDs/HD-DVDs
  1047. Duration                                 : 18 min 46 s
  1048. Bit rate                                 : 1 811 b/s
  1049. Count of elements                        : 18
  1050. Stream size                              : 249 KiB (0%)
  1051. Title                                    : Russian-FORCED-PGS
  1052. Language                                 : Russian
  1053. Default                                  : No
  1054. Forced                                   : No
  1055. Original source medium                   : Blu-ray

  1056. Text #44
  1057. ID                                       : 60
  1058. ID in the original source medium         : 4793 (0x12B9)
  1059. Format                                   : PGS
  1060. Muxing mode                              : zlib
  1061. Codec ID                                 : S_HDMV/PGS
  1062. Codec ID/Info                            : Picture based subtitle format used on BDs/HD-DVDs
  1063. Duration                                 : 2 h 16 min
  1064. Bit rate                                 : 15.8 kb/s
  1065. Count of elements                        : 1562
  1066. Stream size                              : 15.4 MiB (0%)
  1067. Title                                    : Slovak-PGS
  1068. Language                                 : Slovak
  1069. Default                                  : No
  1070. Forced                                   : No
  1071. Original source medium                   : Blu-ray

  1072. Text #45
  1073. ID                                       : 61
  1074. ID in the original source medium         : 4794 (0x12BA)
  1075. Format                                   : PGS
  1076. Muxing mode                              : zlib
  1077. Codec ID                                 : S_HDMV/PGS
  1078. Codec ID/Info                            : Picture based subtitle format used on BDs/HD-DVDs
  1079. Duration                                 : 2 h 16 min
  1080. Bit rate                                 : 14.7 kb/s
  1081. Count of elements                        : 1564
  1082. Stream size                              : 14.3 MiB (0%)
  1083. Title                                    : Slovenian-PGS
  1084. Language                                 : Slovenian
  1085. Default                                  : No
  1086. Forced                                   : No
  1087. Original source medium                   : Blu-ray

  1088. Text #46
  1089. ID                                       : 62
  1090. ID in the original source medium         : 4795 (0x12BB)
  1091. Format                                   : PGS
  1092. Muxing mode                              : zlib
  1093. Codec ID                                 : S_HDMV/PGS
  1094. Codec ID/Info                            : Picture based subtitle format used on BDs/HD-DVDs
  1095. Duration                                 : 2 h 9 min
  1096. Bit rate                                 : 16.8 kb/s
  1097. Count of elements                        : 1454
  1098. Stream size                              : 15.5 MiB (0%)
  1099. Title                                    : Spanish-PGS
  1100. Language                                 : Spanish
  1101. Default                                  : No
  1102. Forced                                   : No
  1103. Original source medium                   : Blu-ray

  1104. Text #47
  1105. ID                                       : 63
  1106. ID in the original source medium         : 4795 (0x12BB)
  1107. Format                                   : PGS
  1108. Muxing mode                              : zlib
  1109. Codec ID                                 : S_HDMV/PGS
  1110. Codec ID/Info                            : Picture based subtitle format used on BDs/HD-DVDs
  1111. Duration                                 : 18 min 47 s
  1112. Bit rate                                 : 1 985 b/s
  1113. Count of elements                        : 18
  1114. Stream size                              : 273 KiB (0%)
  1115. Title                                    : Spanish-FORCED-PGS
  1116. Language                                 : Spanish
  1117. Default                                  : No
  1118. Forced                                   : No
  1119. Original source medium                   : Blu-ray

  1120. Text #48
  1121. ID                                       : 64
  1122. ID in the original source medium         : 4796 (0x12BC)
  1123. Format                                   : PGS
  1124. Muxing mode                              : zlib
  1125. Codec ID                                 : S_HDMV/PGS
  1126. Codec ID/Info                            : Picture based subtitle format used on BDs/HD-DVDs
  1127. Duration                                 : 2 h 9 min
  1128. Bit rate                                 : 19.3 kb/s
  1129. Count of elements                        : 2148
  1130. Stream size                              : 17.9 MiB (0%)
  1131. Title                                    : Spanish-PGS
  1132. Language                                 : Spanish
  1133. Default                                  : No
  1134. Forced                                   : No
  1135. Original source medium                   : Blu-ray

  1136. Text #49
  1137. ID                                       : 65
  1138. ID in the original source medium         : 4797 (0x12BD)
  1139. Format                                   : PGS
  1140. Muxing mode                              : zlib
  1141. Codec ID                                 : S_HDMV/PGS
  1142. Codec ID/Info                            : Picture based subtitle format used on BDs/HD-DVDs
  1143. Duration                                 : 2 h 16 min
  1144. Bit rate                                 : 15.5 kb/s
  1145. Count of elements                        : 1526
  1146. Stream size                              : 15.2 MiB (0%)
  1147. Title                                    : Swedish-PGS
  1148. Language                                 : Swedish
  1149. Default                                  : No
  1150. Forced                                   : No
  1151. Original source medium                   : Blu-ray

  1152. Text #50
  1153. ID                                       : 66
  1154. ID in the original source medium         : 4798 (0x12BE)
  1155. Format                                   : PGS
  1156. Muxing mode                              : zlib
  1157. Codec ID                                 : S_HDMV/PGS
  1158. Codec ID/Info                            : Picture based subtitle format used on BDs/HD-DVDs
  1159. Duration                                 : 2 h 8 min
  1160. Bit rate                                 : 16.9 kb/s
  1161. Count of elements                        : 1554
  1162. Stream size                              : 15.6 MiB (0%)
  1163. Title                                    : Thai-PGS
  1164. Language                                 : Thai
  1165. Default                                  : No
  1166. Forced                                   : No
  1167. Original source medium                   : Blu-ray

  1168. Text #51
  1169. ID                                       : 67
  1170. ID in the original source medium         : 4798 (0x12BE)
  1171. Format                                   : PGS
  1172. Muxing mode                              : zlib
  1173. Codec ID                                 : S_HDMV/PGS
  1174. Codec ID/Info                            : Picture based subtitle format used on BDs/HD-DVDs
  1175. Duration                                 : 5 s 109 ms
  1176. Bit rate                                 : 11.1 kb/s
  1177. Count of elements                        : 2
  1178. Stream size                              : 6.95 KiB (0%)
  1179. Title                                    : Thai-FORCED-PGS
  1180. Language                                 : Thai
  1181. Default                                  : No
  1182. Forced                                   : No
  1183. Original source medium                   : Blu-ray

  1184. Text #52
  1185. ID                                       : 68
  1186. ID in the original source medium         : 4799 (0x12BF)
  1187. Format                                   : PGS
  1188. Muxing mode                              : zlib
  1189. Codec ID                                 : S_HDMV/PGS
  1190. Codec ID/Info                            : Picture based subtitle format used on BDs/HD-DVDs
  1191. Duration                                 : 2 h 9 min
  1192. Bit rate                                 : 17.3 kb/s
  1193. Count of elements                        : 1556
  1194. Stream size                              : 15.9 MiB (0%)
  1195. Title                                    : Turkish-PGS
  1196. Language                                 : Turkish
  1197. Default                                  : No
  1198. Forced                                   : No
  1199. Original source medium                   : Blu-ray

  1200. Text #53
  1201. ID                                       : 69
  1202. ID in the original source medium         : 4799 (0x12BF)
  1203. Format                                   : PGS
  1204. Muxing mode                              : zlib
  1205. Codec ID                                 : S_HDMV/PGS
  1206. Codec ID/Info                            : Picture based subtitle format used on BDs/HD-DVDs
  1207. Duration                                 : 5 s 276 ms
  1208. Bit rate                                 : 63.0 kb/s
  1209. Count of elements                        : 4
  1210. Stream size                              : 40.6 KiB (0%)
  1211. Title                                    : Turkish-FORCED-PGS
  1212. Language                                 : Turkish
  1213. Default                                  : No
  1214. Forced                                   : No
  1215. Original source medium                   : Blu-ray

  1216. Menu
  1217. 00:00:00.000                             : en:Chapter 01
  1218. 00:09:53.384                             : en:Chapter 02
  1219. 00:14:03.884                             : en:Chapter 03
  1220. 00:27:00.285                             : en:Chapter 04
  1221. 00:32:53.888                             : en:Chapter 05
  1222. 00:37:08.434                             : en:Chapter 06
  1223. 00:42:49.233                             : en:Chapter 07
  1224. 00:51:58.198                             : en:Chapter 08
  1225. 01:02:13.062                             : en:Chapter 09
  1226. 01:09:05.766                             : en:Chapter 10
  1227. 01:15:40.661                             : en:Chapter 11
  1228. 01:31:09.630                             : en:Chapter 12
  1229. 01:41:00.012                             : en:Chapter 13
  1230. 01:46:26.129                             : en:Chapter 14
  1231. 01:52:12.016                             : en:Chapter 15
  1232. 02:04:20.119                             : en:Chapter 16
复制代码

佐罗的面具/蒙面侠苏洛 The.Mask.of.Zorro.1998.2160p.BluRay.REMUX.HEVC.DTS-HD.MA.TrueHD.7.1.Atmos-FGT 75.83GB-2.png 佐罗的面具/蒙面侠苏洛 The.Mask.of.Zorro.1998.2160p.BluRay.REMUX.HEVC.DTS-HD.MA.TrueHD.7.1.Atmos-FGT 75.83GB-3.png 佐罗的面具/蒙面侠苏洛 The.Mask.of.Zorro.1998.2160p.BluRay.REMUX.HEVC.DTS-HD.MA.TrueHD.7.1.Atmos-FGT 75.83GB-4.png







回复

使用道具 举报

发表于 2020-5-19 00:21:48 | 显示全部楼层
感谢分享,乐于分享!
回复 支持 反对

使用道具 举报

发表于 2020-5-19 05:03:54 | 显示全部楼层

楼主太厉害了!楼主,电影应该很好看我觉得蓝光电影网真是个好地方!
回复 支持 反对

使用道具 举报

发表于 2020-5-19 07:39:47 | 显示全部楼层
楼主发贴辛苦了,谢谢楼主分享!我觉得蓝光电影网是注册对了!
回复 支持 反对

使用道具 举报

发表于 2020-5-19 09:10:58 | 显示全部楼层
楼主发贴辛苦了,谢谢楼主分享!我觉得蓝光电影网是注册对了!
回复 支持 反对

使用道具 举报

 成长值: 2950

发表于 2020-5-19 09:55:59 | 显示全部楼层
谢谢楼主无私分享。
回复 支持 反对

使用道具 举报

发表于 2020-5-19 12:25:02 | 显示全部楼层

其实我一直觉得楼主的品味不错!呵呵!蓝光电影网太棒了!
回复 支持 反对

使用道具 举报

发表于 2020-5-19 13:11:17 | 显示全部楼层

谢谢楼主无私分享。
回复 支持 反对

使用道具 举报

发表于 2020-5-19 13:40:53 | 显示全部楼层

楼主,大恩不言谢了!蓝光电影网是最棒的!
回复 支持 反对

使用道具 举报

发表于 2020-5-19 15:07:43 | 显示全部楼层
男男女女女女女女女
回复 支持 反对

使用道具 举报

懒得打字嘛,点击右侧快捷回复 【右侧内容,后台自定义】
您需要登录后才可以回帖 登录 | 立即加入

本版积分规则

现在加入蓝光电影网,注册一个账号
上个主题 下个主题 快速回复 收藏帖子 返回列表 客服中心 搜索

手机版|小黑屋| 蓝光电影网 |网站地图 

Copyright © 2015-2019 Comsenz Inc.  Template by 蓝光电影论坛 All Rights Reserved.

Powered by 蓝光电影网 X3.4

特别声明:本站所有资源均由网上收集而来,版权归原影音公司所有,如果侵犯了你的权益,请通知我们,我们会及时删除侵权内容.

快速回复 返回顶部 返回列表