找回密码

蓝光电影网

查看: 225|回复: 9

[10bit.SDR] 1/2的魔法 Onward.2020.2160p.BluRay.x265.10bit.SDR.DTS-HD.MA.TrueHD.7.1.Atmos-SWTYBLZ 23.55GB

[复制链接]

 成长值: 26155

发表于 2020-5-17 22:11:37 | 显示全部楼层 |阅读模式
1/2的魔法 Onward.2020.2160p.BluRay.x265.10bit.SDR.DTS-HD.MA.TrueHD.7.1.Atmos-SWTYBLZ 23.55GB-1.png

译  名 1 / 2的魔法 / ?的魔法 / 二分之一的魔法 / 勇往直前 / 向前 / 觅法奇程 / 魔法环游记
片  名 Onward
年  代 2020
产  地 美国
类  别 喜剧 / 动画 / 奇幻 / 冒险
语  言 英语
上映日期 2020-02-21(柏林电影节) / 2020-03-06(美国)
IMDb评分  7.5/10 from 52609 users
IMDb链接  https://www.imdb.com/title/tt7146812
豆瓣评分 7.9/10 from 22403 users
豆瓣链接 https://movie.douban.com/subject/30401849/
片  长 102分钟
导  演 丹·斯坎隆 Dan Scanlon
编  剧 丹·斯坎隆 Dan Scanlon / 基思·布宁 Keith Bunin
主  演 汤姆·赫兰德 Tom Holland
       克里斯·帕拉特 Chris Pratt
       茱莉亚·路易斯-德瑞弗斯 Julia Louis-Dreyfus
       奥克塔维亚·斯宾瑟 Octavia Spencer
       梅尔·罗德里格斯 Mel Rodriguez
       凯尔·柏海莫 Kyle Bornheimer
       丽娜·维特 Lena Waithe
       黄阿丽 Ali Wong
       格蕾·德丽斯勒 Grey DeLisle
       崔茜·尤玛 Tracey Ullman
       维尔摩·瓦尔德拉玛 Wilmer Valderrama
       乔治·普萨拉 George Psarras
       约翰·拉岑贝格 John Ratzenberger


标  签 动画 | 皮克斯 | 迪士尼 | 美国 | 魔法 | 奇幻 | 2020 | 魔幻

简  介  

  影片设定在一个由精灵、巨魔和灵魂等组成的郊外幻想世界,在那里独角兽在垃圾桶中穿行,像是有着糖果条纹的负鼠。影片提供了一个前提,即魔法是真实的,但它早已被现代技术所遗忘和取代。一对十几岁的兄弟,在他们尚不更事时父亲便已离世,他们决定进入这个幻想世界,与父亲共度最后一个神奇的日子。霍兰德配音弟弟伊安、帕拉特配音聒噪的哥哥、德瑞弗斯配音兄弟二人的母亲、斯宾瑟则会利用其声线的优势。
  1. Video
  2. ID                                       : 1
  3. Format                                   : HEVC
  4. Format/Info                              : High Efficiency Video Coding
  5. Format profile                           : Main High@L4@High
  6. Codec ID                                 : V_MPEGH/ISO/HEVC
  7. Duration                                 : 1 h 42 min
  8. Bit rate                                 : 20.3 Mb/s
  9. Width                                    : 3 840 pixels
  10. Height                                   : 1 608 pixels
  11. Display aspect ratio                     : 2.40:1
  12. Frame rate mode                          : Constant
  13. Frame rate                               : 23.976 (24000/1001/189150) FPS
  14. Color space                              : YUV
  15. Chroma subsampling                       : 4:2:0
  16. Bit depth                                : 10 bits
  17. Bits/(Pixel*Frame)                       : 0.137
  18. Stream size                              : 14.5 GiB (62%)
  19. Title                                    : Onward.2020.2160p.BluRay.x265.10bit.SDR.DTS-HD.MA.TrueHD.7.1.Atmos-SWTYBLZ
  20. Writing library                          : x265 3.0ed72af837053:[Windows][GCC 8.2.0][64 bit] 10bit
  21. Encoding settings                        : cpuid=1111039 / frame-threads=6 / numa-pools=40 / wpp / no-pmode / no-pme / no-psnr / no-ssim / log-level=2 / input-csp=1 / input-res=3840x1608 / interlace=0 / total-frames=147246 / level-idc=51 / high-tier=1 / uhd-bd=0 / ref=3 / no-allow-non-conformance / repeat-headers / annexb / aud / hrd / info / hash=0 / no-temporal-layers / no-open-gop / min-keyint=1 / keyint=24 / gop-lookahead=0 / bframes=6 / b-adapt=2 / b-pyramid / bframe-bias=0 / rc-lookahead=25 / lookahead-slices=4 / scenecut=40 / radl=0 / no-splice / no-intra-refresh / ctu=64 / min-cu-size=8 / no-rect / no-amp / max-tu-size=32 / tu-inter-depth=1 / tu-intra-depth=1 / limit-tu=0 / rdoq-level=0 / dynamic-rd=0.00 / no-ssim-rd / signhide / no-tskip / nr-intra=0 / nr-inter=0 / no-constrained-intra / strong-intra-smoothing / max-merge=2 / limit-refs=3 / no-limit-modes / me=1 / subme=2 / merange=57 / temporal-mvp / weightp / no-weightb / no-analyze-src-pics / deblock=1:1 / no-sao / no-sao-non-deblock / rd=3 / no-early-skip / rskip / no-fast-intra / no-tskip-fast / no-cu-lossless / no-b-intra / no-splitrd-skip / rdpenalty=0 / psy-rd=0.40 / psy-rdoq=0.00 / no-rd-refine / no-lossless / cbqpoffs=0 / crqpoffs=0 / rc=crf / crf=14.0 / qcomp=0.60 / qpstep=4 / stats-write=0 / stats-read=0 / vbv-maxrate=160000 / vbv-bufsize=160000 / vbv-init=0.9 / crf-max=0.0 / crf-min=0.0 / ipratio=1.40 / pbratio=1.30 / aq-mode=1 / aq-strength=0.40 / cutree / zone-count=0 / no-strict-cbr / qg-size=32 / no-rc-grain / qpmax=69 / qpmin=0 / no-const-vbv / sar=1 / overscan=0 / videoformat=5 / range=0 / colorprim=2 / transfer=2 / colormatrix=2 / chromaloc=0 / display-window=0 / max-cll=0,0 / min-luma=0 / max-luma=1023 / log2-max-poc-lsb=8 / vui-timing-info / vui-hrd-info / slices=1 / opt-qp-pps / opt-ref-list-length-pps / no-multi-pass-opt-rps / scenecut-bias=0.05 / no-opt-cu-delta-qp / no-aq-motion / no-hdr / no-hdr-opt / no-dhdr10-opt / no-idr-recovery-sei / analysis-reuse-level=5 / scale-factor=0 / refine-intra=0 / refine-inter=0 / refine-mv=0 / refine-ctu-distortion=0 / no-limit-sao / ctu-info=0 / no-lowpass-dct / refine-analysis-type=0 / copy-pic=1 / max-ausize-factor=1.0 / no-dynamic-refine / no-single-sei / no-hevc-aq / qp-adaptation-range=1.00
  22. Default                                  : Yes
  23. Forced                                   : No

  24. Audio #1
  25. ID                                       : 2
  26. Format                                   : MLP FBA 16-ch
  27. Format/Info                              : Meridian Lossless Packing FBA with 16-channel presentation
  28. Commercial name                          : Dolby TrueHD with Dolby Atmos
  29. Codec ID                                 : A_TRUEHD
  30. Duration                                 : 1 h 42 min
  31. Bit rate mode                            : Variable
  32. Bit rate                                 : 7 021 kb/s
  33. Maximum bit rate                         : 10.9 Mb/s
  34. Channel(s)                               : 8 channels
  35. Channel layout                           : L R C LFE Ls Rs Lb Rb
  36. Sampling rate                            : 48.0 kHz
  37. Frame rate                               : 1 200.000 FPS (40 SPF)
  38. Compression mode                         : Lossless
  39. Stream size                              : 5.02 GiB (21%)
  40. Title                                    : Onward.2020.2160p.BluRay.x265.10bit.SDR.DTS-HD.MA.TrueHD.7.1.Atmos-SWTYBLZ
  41. Language                                 : English
  42. Default                                  : Yes
  43. Forced                                   : No
  44. Number of dynamic objects                : 13
  45. Bed channel count                        : 1 channel
  46. Bed channel configuration                : LFE

  47. Audio #2
  48. ID                                       : 3
  49. Format                                   : DTS XLL
  50. Format/Info                              : Digital Theater Systems
  51. Commercial name                          : DTS-HD Master Audio
  52. Codec ID                                 : A_DTS
  53. Duration                                 : 1 h 42 min
  54. Bit rate mode                            : Variable
  55. Bit rate                                 : 4 700 kb/s
  56. Channel(s)                               : 8 channels
  57. Channel layout                           : C L R LFE Lb Rb Lss Rss
  58. Sampling rate                            : 48.0 kHz
  59. Frame rate                               : 93.750 FPS (512 SPF)
  60. Bit depth                                : 24 bits
  61. Compression mode                         : Lossless
  62. Stream size                              : 3.36 GiB (14%)
  63. Title                                    : Onward.2020.2160p.BluRay.x265.10bit.SDR.DTS-HD.MA.TrueHD.7.1.Atmos-SWTYBLZ
  64. Language                                 : English
  65. Default                                  : No
  66. Forced                                   : No

  67. Audio #3
  68. ID                                       : 4
  69. Format                                   : AC-3
  70. Format/Info                              : Audio Coding 3
  71. Commercial name                          : Dolby Digital
  72. Codec ID                                 : A_AC3
  73. Duration                                 : 1 h 42 min
  74. Bit rate mode                            : Constant
  75. Bit rate                                 : 640 kb/s
  76. Channel(s)                               : 6 channels
  77. Channel layout                           : L R C LFE Ls Rs
  78. Sampling rate                            : 48.0 kHz
  79. Frame rate                               : 31.250 FPS (1536 SPF)
  80. Bit depth                                : 16 bits
  81. Compression mode                         : Lossy
  82. Stream size                              : 469 MiB (2%)
  83. Title                                    : Onward.2020.2160p.BluRay.x265.10bit.SDR.DTS-HD.MA.TrueHD.7.1.Atmos-SWTYBLZ
  84. Language                                 : English
  85. Service kind                             : Complete Main
  86. Default                                  : No
  87. Forced                                   : No

  88. Text #1
  89. ID                                       : 5
  90. Format                                   : UTF-8
  91. Codec ID                                 : S_TEXT/UTF8
  92. Codec ID/Info                            : UTF-8 Plain Text
  93. Duration                                 : 1 h 35 min
  94. Bit rate                                 : 68 b/s
  95. Count of elements                        : 1631
  96. Stream size                              : 47.7 KiB (0%)
  97. Title                                    : English-SRT
  98. Language                                 : English
  99. Default                                  : Yes
  100. Forced                                   : No

  101. Text #2
  102. ID                                       : 6
  103. Format                                   : PGS
  104. Muxing mode                              : zlib
  105. Codec ID                                 : S_HDMV/PGS
  106. Codec ID/Info                            : Picture based subtitle format used on BDs/HD-DVDs
  107. Duration                                 : 1 h 31 min
  108. Bit rate                                 : 41.5 kb/s
  109. Count of elements                        : 2716
  110. Stream size                              : 27.2 MiB (0%)
  111. Title                                    : English-PGS
  112. Language                                 : English
  113. Default                                  : No
  114. Forced                                   : No

  115. Text #3
  116. ID                                       : 7
  117. Format                                   : PGS
  118. Muxing mode                              : zlib
  119. Codec ID                                 : S_HDMV/PGS
  120. Codec ID/Info                            : Picture based subtitle format used on BDs/HD-DVDs
  121. Duration                                 : 1 h 41 min
  122. Bit rate                                 : 47.4 kb/s
  123. Count of elements                        : 3814
  124. Stream size                              : 34.3 MiB (0%)
  125. Title                                    : English-SDH-PGS
  126. Language                                 : English
  127. Default                                  : No
  128. Forced                                   : No

  129. Text #4
  130. ID                                       : 8
  131. Format                                   : PGS
  132. Muxing mode                              : zlib
  133. Codec ID                                 : S_HDMV/PGS
  134. Codec ID/Info                            : Picture based subtitle format used on BDs/HD-DVDs
  135. Duration                                 : 1 h 41 min
  136. Bit rate                                 : 40.6 kb/s
  137. Count of elements                        : 2824
  138. Stream size                              : 29.4 MiB (0%)
  139. Title                                    : French-PGS
  140. Language                                 : French
  141. Default                                  : No
  142. Forced                                   : No

  143. Text #5
  144. ID                                       : 9
  145. Format                                   : PGS
  146. Muxing mode                              : zlib
  147. Codec ID                                 : S_HDMV/PGS
  148. Codec ID/Info                            : Picture based subtitle format used on BDs/HD-DVDs
  149. Duration                                 : 1 h 41 min
  150. Bit rate                                 : 36.7 kb/s
  151. Count of elements                        : 2788
  152. Stream size                              : 26.6 MiB (0%)
  153. Title                                    : Spanish-PGS
  154. Language                                 : Spanish
  155. Default                                  : No
  156. Forced                                   : No

  157. Menu
  158. 00:00:00.000                             : en:Chapter 01
  159. 00:02:30.025                             : en:Chapter 02
  160. 00:07:06.384                             : en:Chapter 03
  161. 00:08:14.327                             : en:Chapter 04
  162. 00:12:45.014                             : en:Chapter 05
  163. 00:14:53.726                             : en:Chapter 06
  164. 00:19:21.035                             : en:Chapter 07
  165. 00:23:46.049                             : en:Chapter 08
  166. 00:25:34.741                             : en:Chapter 09
  167. 00:26:11.111                             : en:Chapter 10
  168. 00:27:25.435                             : en:Chapter 11
  169. 00:30:02.133                             : en:Chapter 12
  170. 00:32:49.134                             : en:Chapter 13
  171. 00:34:43.623                             : en:Chapter 14
  172. 00:36:40.782                             : en:Chapter 15
  173. 00:40:41.981                             : en:Chapter 16
  174. 00:42:48.732                             : en:Chapter 17
  175. 00:44:02.139                             : en:Chapter 18
  176. 00:45:41.113                             : en:Chapter 19
  177. 00:47:49.158                             : en:Chapter 20
  178. 00:52:01.368                             : en:Chapter 21
  179. 00:55:12.142                             : en:Chapter 22
  180. 00:57:23.940                             : en:Chapter 23
  181. 01:02:23.322                             : en:Chapter 24
  182. 01:04:02.964                             : en:Chapter 25
  183. 01:07:13.070                             : en:Chapter 26
  184. 01:08:49.041                             : en:Chapter 27
  185. 01:10:06.160                             : en:Chapter 28
  186. 01:11:12.267                             : en:Chapter 29
  187. 01:13:13.055                             : en:Chapter 30
  188. 01:15:58.720                             : en:Chapter 31
  189. 01:17:37.027                             : en:Chapter 32
  190. 01:20:26.321                             : en:Chapter 33
  191. 01:25:01.262                             : en:Chapter 34
  192. 01:26:59.589                             : en:Chapter 35
  193. 01:30:10.780                             : en:Chapter 36
  194. 01:32:51.899                             : en:Chapter 37
复制代码

1/2的魔法 Onward.2020.2160p.BluRay.x265.10bit.SDR.DTS-HD.MA.TrueHD.7.1.Atmos-SWTYBLZ 23.55GB-2.png 1/2的魔法 Onward.2020.2160p.BluRay.x265.10bit.SDR.DTS-HD.MA.TrueHD.7.1.Atmos-SWTYBLZ 23.55GB-3.png 1/2的魔法 Onward.2020.2160p.BluRay.x265.10bit.SDR.DTS-HD.MA.TrueHD.7.1.Atmos-SWTYBLZ 23.55GB-4.png 1/2的魔法 Onward.2020.2160p.BluRay.x265.10bit.SDR.DTS-HD.MA.TrueHD.7.1.Atmos-SWTYBLZ 23.55GB-5.png 1/2的魔法 Onward.2020.2160p.BluRay.x265.10bit.SDR.DTS-HD.MA.TrueHD.7.1.Atmos-SWTYBLZ 23.55GB-6.png 1/2的魔法 Onward.2020.2160p.BluRay.x265.10bit.SDR.DTS-HD.MA.TrueHD.7.1.Atmos-SWTYBLZ 23.55GB-7.png 1/2的魔法 Onward.2020.2160p.BluRay.x265.10bit.SDR.DTS-HD.MA.TrueHD.7.1.Atmos-SWTYBLZ 23.55GB-8.png







回复

使用道具 举报

发表于 2020-5-18 02:15:56 | 显示全部楼层
楼主发贴辛苦了,谢谢楼主分享!我觉得蓝光电影网是注册对了!
回复 支持 反对

使用道具 举报

发表于 2020-5-18 07:59:49 | 显示全部楼层

楼主太厉害了!楼主,电影应该很好看我觉得蓝光电影网真是个好地方!
回复 支持 反对

使用道具 举报

发表于 2020-5-18 10:46:26 | 显示全部楼层

楼主太厉害了!楼主,电影应该很好看我觉得蓝光电影网真是个好地方!
回复 支持 反对

使用道具 举报

发表于 2020-5-18 11:06:51 | 显示全部楼层
   我晕,是动画片啊。。
回复 支持 反对

使用道具 举报

发表于 2020-5-18 11:47:26 | 显示全部楼层
楼主发贴辛苦了,谢谢楼主分享!我觉得蓝光电影网是注册对了!
回复 支持 反对

使用道具 举报

发表于 2020-5-18 17:46:32 | 显示全部楼层

这个帖子不回对不起自己!我想我是一天也不能离开蓝光电影网
回复 支持 反对

使用道具 举报

发表于 2020-5-18 21:58:33 | 显示全部楼层
楼主发贴辛苦了,谢谢楼主分享!我觉得蓝光电影网是注册对了!
回复 支持 反对

使用道具 举报

发表于 2020-5-19 01:01:46 | 显示全部楼层
楼主发贴辛苦了,谢谢楼主分享!我觉得蓝光电影网是注册对了!
回复 支持 反对

使用道具 举报

发表于 2020-5-19 08:16:29 | 显示全部楼层

这个帖子不回对不起自己!我想我是一天也不能离开蓝光电影网
回复 支持 反对

使用道具 举报

懒得打字嘛,点击右侧快捷回复 【右侧内容,后台自定义】
您需要登录后才可以回帖 登录 | 立即加入

本版积分规则

现在加入蓝光电影网,注册一个账号
上个主题 下个主题 快速回复 收藏帖子 返回列表 客服中心 搜索

手机版|小黑屋| 蓝光电影网 |网站地图 

Copyright © 2015-2019 Comsenz Inc.  Template by 蓝光电影论坛 All Rights Reserved.

Powered by 蓝光电影网 X3.4

特别声明:本站所有资源均由网上收集而来,版权归原影音公司所有,如果侵犯了你的权益,请通知我们,我们会及时删除侵权内容.

快速回复 返回顶部 返回列表