找回密码

蓝光电影网

查看: 194|回复: 6

[REMUX.HEVC] 1/2的魔法 Onward.2020.2160p.BluRay.REMUX.HEVC.DTS-HD.MA.TrueHD.7.1.Atmos-FGT 41.64GB

[复制链接]

 成长值: 26125

发表于 2020-5-17 22:09:57 | 显示全部楼层 |阅读模式
1/2的魔法 Onward.2020.2160p.BluRay.REMUX.HEVC.DTS-HD.MA.TrueHD.7.1.Atmos-FGT 41.64GB-1.png

译  名 1 / 2的魔法 / ?的魔法 / 二分之一的魔法 / 勇往直前 / 向前 / 觅法奇程 / 魔法环游记
片  名 Onward
年  代 2020
产  地 美国
类  别 喜剧 / 动画 / 奇幻 / 冒险
语  言 英语
上映日期 2020-02-21(柏林电影节) / 2020-03-06(美国)
IMDb评分  7.5/10 from 52609 users
IMDb链接  https://www.imdb.com/title/tt7146812
豆瓣评分 7.9/10 from 22403 users
豆瓣链接 https://movie.douban.com/subject/30401849/
片  长 102分钟
导  演 丹·斯坎隆 Dan Scanlon
编  剧 丹·斯坎隆 Dan Scanlon / 基思·布宁 Keith Bunin
主  演 汤姆·赫兰德 Tom Holland
       克里斯·帕拉特 Chris Pratt
       茱莉亚·路易斯-德瑞弗斯 Julia Louis-Dreyfus
       奥克塔维亚·斯宾瑟 Octavia Spencer
       梅尔·罗德里格斯 Mel Rodriguez
       凯尔·柏海莫 Kyle Bornheimer
       丽娜·维特 Lena Waithe
       黄阿丽 Ali Wong
       格蕾·德丽斯勒 Grey DeLisle
       崔茜·尤玛 Tracey Ullman
       维尔摩·瓦尔德拉玛 Wilmer Valderrama
       乔治·普萨拉 George Psarras
       约翰·拉岑贝格 John Ratzenberger


标  签 动画 | 皮克斯 | 迪士尼 | 美国 | 魔法 | 奇幻 | 2020 | 魔幻

简  介  

  影片设定在一个由精灵、巨魔和灵魂等组成的郊外幻想世界,在那里独角兽在垃圾桶中穿行,像是有着糖果条纹的负鼠。影片提供了一个前提,即魔法是真实的,但它早已被现代技术所遗忘和取代。一对十几岁的兄弟,在他们尚不更事时父亲便已离世,他们决定进入这个幻想世界,与父亲共度最后一个神奇的日子。霍兰德配音弟弟伊安、帕拉特配音聒噪的哥哥、德瑞弗斯配音兄弟二人的母亲、斯宾瑟则会利用其声线的优势。
  1. Video
  2. ID                                       : 1
  3. ID in the original source medium         : 4113 (0x1011)
  4. Format                                   : HEVC
  5. Format/Info                              : High Efficiency Video Coding
  6. Format profile                           : Main High@L4@High
  7. HDR format                               : SMPTE ST 2086, HDR10 compatible
  8. Codec ID                                 : V_MPEGH/ISO/HEVC
  9. Duration                                 : 1 h 42 min
  10. Bit rate                                 : 40.3 Mb/s
  11. Width                                    : 3 840 pixels
  12. Height                                   : 2 160 pixels
  13. Display aspect ratio                     : 16:9
  14. Frame rate mode                          : Constant
  15. Frame rate                               : 23.976 (24000/1001/189150) FPS
  16. Color space                              : YUV
  17. Chroma subsampling                       : 4:2:0 (Type 2)
  18. Bit depth                                : 10 bits
  19. Bits/(Pixel*Frame)                       : 0.202
  20. Stream size                              : 28.8 GiB (69%)
  21. Title                                    : Onward.2020.2160p.BluRay.REMUX.HEVC.DTS-HD.MA.TrueHD.7.1.Atmos-FGT
  22. Writing library                          : ATEME Titan File 3.9.0 (4.9.0.0)        
  23. Language                                 : English
  24. Default                                  : No
  25. Forced                                   : No
  26. Color range                              : Limited
  27. Color primaries                          : BT.2020
  28. Transfer characteristics                 : PQ
  29. Matrix coefficients                      : BT.2020 non-constant
  30. Mastering display color primaries        : Display P3
  31. Mastering display luminance              : min: 0.0000 cd/m2, max: 1000 cd/m2
  32. Original source medium                   : Blu-ray

  33. Audio #1
  34. ID                                       : 2
  35. ID in the original source medium         : 4352 (0x1100)
  36. Format                                   : MLP FBA 16-ch
  37. Format/Info                              : Meridian Lossless Packing FBA with 16-channel presentation
  38. Commercial name                          : Dolby TrueHD with Dolby Atmos
  39. Codec ID                                 : A_TRUEHD
  40. Duration                                 : 1 h 42 min
  41. Bit rate mode                            : Variable
  42. Bit rate                                 : 7 021 kb/s
  43. Maximum bit rate                         : 10.9 Mb/s
  44. Channel(s)                               : 8 channels
  45. Channel layout                           : L R C LFE Ls Rs Lb Rb
  46. Sampling rate                            : 48.0 kHz
  47. Frame rate                               : 1 200.000 FPS (40 SPF)
  48. Compression mode                         : Lossless
  49. Stream size                              : 5.02 GiB (12%)
  50. Title                                    : Onward.2020.2160p.BluRay.REMUX.HEVC.DTS-HD.MA.TrueHD.7.1.Atmos-FGT
  51. Language                                 : English
  52. Default                                  : Yes
  53. Forced                                   : No
  54. Original source medium                   : Blu-ray
  55. Number of dynamic objects                : 13
  56. Bed channel count                        : 1 channel
  57. Bed channel configuration                : LFE

  58. Audio #2
  59. ID                                       : 3
  60. Format                                   : DTS XLL
  61. Format/Info                              : Digital Theater Systems
  62. Commercial name                          : DTS-HD Master Audio
  63. Codec ID                                 : A_DTS
  64. Duration                                 : 1 h 42 min
  65. Bit rate mode                            : Variable
  66. Bit rate                                 : 4 700 kb/s
  67. Channel(s)                               : 8 channels
  68. Channel layout                           : C L R LFE Lb Rb Lss Rss
  69. Sampling rate                            : 48.0 kHz
  70. Frame rate                               : 93.750 FPS (512 SPF)
  71. Bit depth                                : 24 bits
  72. Compression mode                         : Lossless
  73. Stream size                              : 3.36 GiB (8%)
  74. Title                                    : Onward.2020.2160p.BluRay.REMUX.HEVC.DTS-HD.MA.TrueHD.7.1.Atmos-FGT
  75. Language                                 : English
  76. Default                                  : No
  77. Forced                                   : No

  78. Audio #3
  79. ID                                       : 4
  80. ID in the original source medium         : 4352 (0x1100)
  81. Format                                   : AC-3
  82. Format/Info                              : Audio Coding 3
  83. Commercial name                          : Dolby Digital
  84. Codec ID                                 : A_AC3
  85. Duration                                 : 1 h 42 min
  86. Bit rate mode                            : Constant
  87. Bit rate                                 : 640 kb/s
  88. Channel(s)                               : 6 channels
  89. Channel layout                           : L R C LFE Ls Rs
  90. Sampling rate                            : 48.0 kHz
  91. Frame rate                               : 31.250 FPS (1536 SPF)
  92. Bit depth                                : 16 bits
  93. Compression mode                         : Lossy
  94. Stream size                              : 469 MiB (1%)
  95. Title                                    : Onward.2020.2160p.BluRay.REMUX.HEVC.DTS-HD.MA.TrueHD.7.1.Atmos-FGT
  96. Language                                 : English
  97. Service kind                             : Complete Main
  98. Default                                  : No
  99. Forced                                   : No
  100. Original source medium                   : Blu-ray

  101. Audio #4
  102. ID                                       : 5
  103. Format                                   : E-AC-3
  104. Format/Info                              : Enhanced AC-3
  105. Commercial name                          : Dolby Digital Plus
  106. Format profile                           : Blu-ray Disc
  107. Codec ID                                 : A_EAC3
  108. Duration                                 : 1 h 42 min
  109. Bit rate mode                            : Constant
  110. Bit rate                                 : 1 024 kb/s
  111. Channel(s)                               : 8 channels
  112. Channel layout                           : L R C LFE Ls Rs Lb Rb
  113. Sampling rate                            : 48.0 kHz
  114. Frame rate                               : 31.250 FPS (1536 SPF)
  115. Compression mode                         : Lossy
  116. Stream size                              : 750 MiB (2%)
  117. Title                                    : Onward.2020.2160p.BluRay.REMUX.HEVC.DTS-HD.MA.TrueHD.7.1.Atmos-FGT
  118. Language                                 : English
  119. Service kind                             : Complete Main
  120. Default                                  : No
  121. Forced                                   : No

  122. Audio #5
  123. ID                                       : 6
  124. ID in the original source medium         : 4354 (0x1102)
  125. Format                                   : AC-3
  126. Format/Info                              : Audio Coding 3
  127. Commercial name                          : Dolby Digital
  128. Codec ID                                 : A_AC3
  129. Duration                                 : 1 h 42 min
  130. Bit rate mode                            : Constant
  131. Bit rate                                 : 640 kb/s
  132. Channel(s)                               : 6 channels
  133. Channel layout                           : L R C LFE Ls Rs
  134. Sampling rate                            : 48.0 kHz
  135. Frame rate                               : 31.250 FPS (1536 SPF)
  136. Bit depth                                : 16 bits
  137. Compression mode                         : Lossy
  138. Stream size                              : 469 MiB (1%)
  139. Title                                    : Onward.2020.2160p.BluRay.REMUX.HEVC.DTS-HD.MA.TrueHD.7.1.Atmos-FGT
  140. Language                                 : English
  141. Service kind                             : Complete Main
  142. Default                                  : No
  143. Forced                                   : No
  144. Original source medium                   : Blu-ray

  145. Audio #6
  146. ID                                       : 7
  147. ID in the original source medium         : 4355 (0x1103)
  148. Format                                   : AC-3
  149. Format/Info                              : Audio Coding 3
  150. Commercial name                          : Dolby Digital
  151. Codec ID                                 : A_AC3
  152. Duration                                 : 1 h 42 min
  153. Bit rate mode                            : Constant
  154. Bit rate                                 : 320 kb/s
  155. Channel(s)                               : 2 channels
  156. Channel layout                           : L R
  157. Sampling rate                            : 48.0 kHz
  158. Frame rate                               : 31.250 FPS (1536 SPF)
  159. Bit depth                                : 16 bits
  160. Compression mode                         : Lossy
  161. Stream size                              : 234 MiB (1%)
  162. Title                                    : Onward.2020.2160p.BluRay.REMUX.HEVC.DTS-HD.MA.TrueHD.7.1.Atmos-FGT
  163. Language                                 : English
  164. Service kind                             : Complete Main
  165. Default                                  : No
  166. Forced                                   : No
  167. Original source medium                   : Blu-ray

  168. Audio #7
  169. ID                                       : 8
  170. ID in the original source medium         : 4356 (0x1104)
  171. Format                                   : AC-3
  172. Format/Info                              : Audio Coding 3
  173. Commercial name                          : Dolby Digital
  174. Codec ID                                 : A_AC3
  175. Duration                                 : 1 h 42 min
  176. Bit rate mode                            : Constant
  177. Bit rate                                 : 320 kb/s
  178. Channel(s)                               : 2 channels
  179. Channel layout                           : L R
  180. Sampling rate                            : 48.0 kHz
  181. Frame rate                               : 31.250 FPS (1536 SPF)
  182. Bit depth                                : 16 bits
  183. Compression mode                         : Lossy
  184. Stream size                              : 234 MiB (1%)
  185. Title                                    : Onward.2020.2160p.BluRay.REMUX.HEVC.DTS-HD.MA.TrueHD.7.1.Atmos-FGT
  186. Language                                 : English
  187. Service kind                             : Complete Main
  188. Default                                  : No
  189. Forced                                   : No
  190. Original source medium                   : Blu-ray

  191. Audio #8
  192. ID                                       : 9
  193. Format                                   : E-AC-3
  194. Format/Info                              : Enhanced AC-3
  195. Commercial name                          : Dolby Digital Plus
  196. Format profile                           : Blu-ray Disc
  197. Codec ID                                 : A_EAC3
  198. Duration                                 : 1 h 42 min
  199. Bit rate mode                            : Constant
  200. Bit rate                                 : 1 024 kb/s
  201. Channel(s)                               : 8 channels
  202. Channel layout                           : L R C LFE Ls Rs Lb Rb
  203. Sampling rate                            : 48.0 kHz
  204. Frame rate                               : 31.250 FPS (1536 SPF)
  205. Compression mode                         : Lossy
  206. Stream size                              : 750 MiB (2%)
  207. Title                                    : Onward.2020.2160p.BluRay.REMUX.HEVC.DTS-HD.MA.TrueHD.7.1.Atmos-FGT
  208. Language                                 : French
  209. Service kind                             : Complete Main
  210. Default                                  : No
  211. Forced                                   : No

  212. Audio #9
  213. ID                                       : 10
  214. ID in the original source medium         : 4357 (0x1105)
  215. Format                                   : AC-3
  216. Format/Info                              : Audio Coding 3
  217. Commercial name                          : Dolby Digital
  218. Codec ID                                 : A_AC3
  219. Duration                                 : 1 h 42 min
  220. Bit rate mode                            : Constant
  221. Bit rate                                 : 576 kb/s
  222. Channel(s)                               : 6 channels
  223. Channel layout                           : L R C LFE Ls Rs
  224. Sampling rate                            : 48.0 kHz
  225. Frame rate                               : 31.250 FPS (1536 SPF)
  226. Bit depth                                : 16 bits
  227. Compression mode                         : Lossy
  228. Stream size                              : 422 MiB (1%)
  229. Title                                    : Onward.2020.2160p.BluRay.REMUX.HEVC.DTS-HD.MA.TrueHD.7.1.Atmos-FGT
  230. Language                                 : French
  231. Service kind                             : Complete Main
  232. Default                                  : No
  233. Forced                                   : No
  234. Original source medium                   : Blu-ray

  235. Audio #10
  236. ID                                       : 11
  237. Format                                   : E-AC-3
  238. Format/Info                              : Enhanced AC-3
  239. Commercial name                          : Dolby Digital Plus
  240. Format profile                           : Blu-ray Disc
  241. Codec ID                                 : A_EAC3
  242. Duration                                 : 1 h 42 min
  243. Bit rate mode                            : Constant
  244. Bit rate                                 : 1 024 kb/s
  245. Channel(s)                               : 8 channels
  246. Channel layout                           : L R C LFE Ls Rs Lb Rb
  247. Sampling rate                            : 48.0 kHz
  248. Frame rate                               : 31.250 FPS (1536 SPF)
  249. Compression mode                         : Lossy
  250. Stream size                              : 750 MiB (2%)
  251. Title                                    : Onward.2020.2160p.BluRay.REMUX.HEVC.DTS-HD.MA.TrueHD.7.1.Atmos-FGT
  252. Language                                 : Spanish
  253. Service kind                             : Complete Main
  254. Default                                  : No
  255. Forced                                   : No

  256. Audio #11
  257. ID                                       : 12
  258. ID in the original source medium         : 4358 (0x1106)
  259. Format                                   : AC-3
  260. Format/Info                              : Audio Coding 3
  261. Commercial name                          : Dolby Digital
  262. Codec ID                                 : A_AC3
  263. Duration                                 : 1 h 42 min
  264. Bit rate mode                            : Constant
  265. Bit rate                                 : 576 kb/s
  266. Channel(s)                               : 6 channels
  267. Channel layout                           : L R C LFE Ls Rs
  268. Sampling rate                            : 48.0 kHz
  269. Frame rate                               : 31.250 FPS (1536 SPF)
  270. Bit depth                                : 16 bits
  271. Compression mode                         : Lossy
  272. Stream size                              : 422 MiB (1%)
  273. Title                                    : Onward.2020.2160p.BluRay.REMUX.HEVC.DTS-HD.MA.TrueHD.7.1.Atmos-FGT
  274. Language                                 : Spanish
  275. Service kind                             : Complete Main
  276. Default                                  : No
  277. Forced                                   : No
  278. Original source medium                   : Blu-ray

  279. Text #1
  280. ID                                       : 13
  281. Format                                   : UTF-8
  282. Codec ID                                 : S_TEXT/UTF8
  283. Codec ID/Info                            : UTF-8 Plain Text
  284. Duration                                 : 1 h 35 min
  285. Bit rate                                 : 68 b/s
  286. Count of elements                        : 1631
  287. Stream size                              : 47.7 KiB (0%)
  288. Title                                    : English-SRT
  289. Language                                 : English
  290. Default                                  : Yes
  291. Forced                                   : No

  292. Text #2
  293. ID                                       : 14
  294. ID in the original source medium         : 4768 (0x12A0)
  295. Format                                   : PGS
  296. Muxing mode                              : zlib
  297. Codec ID                                 : S_HDMV/PGS
  298. Codec ID/Info                            : Picture based subtitle format used on BDs/HD-DVDs
  299. Duration                                 : 1 h 41 min
  300. Bit rate                                 : 47.4 kb/s
  301. Count of elements                        : 3814
  302. Stream size                              : 34.3 MiB (0%)
  303. Title                                    : English-PGS
  304. Language                                 : English
  305. Default                                  : No
  306. Forced                                   : No
  307. Original source medium                   : Blu-ray

  308. Text #3
  309. ID                                       : 15
  310. ID in the original source medium         : 4769 (0x12A1)
  311. Format                                   : PGS
  312. Muxing mode                              : zlib
  313. Codec ID                                 : S_HDMV/PGS
  314. Codec ID/Info                            : Picture based subtitle format used on BDs/HD-DVDs
  315. Duration                                 : 1 h 41 min
  316. Bit rate                                 : 40.6 kb/s
  317. Count of elements                        : 2824
  318. Stream size                              : 29.4 MiB (0%)
  319. Title                                    : French-PGS
  320. Language                                 : French
  321. Default                                  : No
  322. Forced                                   : No
  323. Original source medium                   : Blu-ray

  324. Text #4
  325. ID                                       : 16
  326. ID in the original source medium         : 4770 (0x12A2)
  327. Format                                   : PGS
  328. Muxing mode                              : zlib
  329. Codec ID                                 : S_HDMV/PGS
  330. Codec ID/Info                            : Picture based subtitle format used on BDs/HD-DVDs
  331. Duration                                 : 1 h 41 min
  332. Bit rate                                 : 36.7 kb/s
  333. Count of elements                        : 2788
  334. Stream size                              : 26.6 MiB (0%)
  335. Title                                    : Spanish-PGS
  336. Language                                 : Spanish
  337. Default                                  : No
  338. Forced                                   : No
  339. Original source medium                   : Blu-ray

  340. Menu
  341. 00:00:00.000                             : en:Chapter 01
  342. 00:02:29.941                             : en:Chapter 02
  343. 00:07:06.259                             : en:Chapter 03
  344. 00:08:13.993                             : en:Chapter 04
  345. 00:12:44.805                             : en:Chapter 05
  346. 00:14:53.475                             : en:Chapter 06
  347. 00:19:20.659                             : en:Chapter 07
  348. 00:23:46.049                             : en:Chapter 08
  349. 00:25:34.741                             : en:Chapter 09
  350. 00:26:11.111                             : en:Chapter 10
  351. 00:27:25.435                             : en:Chapter 11
  352. 00:30:01.883                             : en:Chapter 12
  353. 00:32:49.133                             : en:Chapter 13
  354. 00:34:43.623                             : en:Chapter 14
  355. 00:36:40.740                             : en:Chapter 15
  356. 00:40:41.981                             : en:Chapter 16
  357. 00:42:48.607                             : en:Chapter 17
  358. 00:44:02.139                             : en:Chapter 18
  359. 00:45:40.904                             : en:Chapter 19
  360. 00:47:49.157                             : en:Chapter 20
  361. 00:52:01.243                             : en:Chapter 21
  362. 00:55:12.142                             : en:Chapter 22
  363. 00:57:23.565                             : en:Chapter 23
  364. 01:02:23.281                             : en:Chapter 24
  365. 01:04:02.964                             : en:Chapter 25
  366. 01:07:13.070                             : en:Chapter 26
  367. 01:08:49.041                             : en:Chapter 27
  368. 01:10:05.784                             : en:Chapter 28
  369. 01:11:12.142                             : en:Chapter 29
  370. 01:13:13.055                             : en:Chapter 30
  371. 01:15:58.720                             : en:Chapter 31
  372. 01:17:37.027                             : en:Chapter 32
  373. 01:20:26.321                             : en:Chapter 33
  374. 01:25:00.929                             : en:Chapter 34
  375. 01:26:59.589                             : en:Chapter 35
  376. 01:30:10.738                             : en:Chapter 36
  377. 01:32:51.899                             : en:Chapter 37
复制代码

1/2的魔法 Onward.2020.2160p.BluRay.REMUX.HEVC.DTS-HD.MA.TrueHD.7.1.Atmos-FGT 41.64GB-2.png 1/2的魔法 Onward.2020.2160p.BluRay.REMUX.HEVC.DTS-HD.MA.TrueHD.7.1.Atmos-FGT 41.64GB-3.png 221002dz48jjzja66jiqnq.png







回复

使用道具 举报

发表于 2020-5-18 02:18:26 | 显示全部楼层
楼主发贴辛苦了,谢谢楼主分享!我觉得蓝光电影网是注册对了!
回复 支持 反对

使用道具 举报

 成长值: 2950

发表于 2020-5-18 09:17:00 | 显示全部楼层
谢谢楼主无私分享。
回复 支持 反对

使用道具 举报

发表于 2020-5-18 11:42:08 | 显示全部楼层
楼主发贴辛苦了,谢谢楼主分享!我觉得蓝光电影网是注册对了!
回复 支持 反对

使用道具 举报

 成长值: 1600

发表于 2020-5-18 15:49:59 | 显示全部楼层

我看不错噢 谢谢楼主!蓝光电影网越来越好!
回复 支持 反对

使用道具 举报

发表于 2020-5-19 19:17:28 | 显示全部楼层
感谢楼主分享
回复 支持 反对

使用道具 举报

发表于 2020-5-19 21:53:00 | 显示全部楼层
楼主发贴辛苦了,谢谢楼主分享!我觉得蓝光电影网是注册对了!
回复 支持 反对

使用道具 举报

懒得打字嘛,点击右侧快捷回复 【右侧内容,后台自定义】
您需要登录后才可以回帖 登录 | 立即加入

本版积分规则

现在加入蓝光电影网,注册一个账号
上个主题 下个主题 快速回复 收藏帖子 返回列表 客服中心 搜索

手机版|小黑屋| 蓝光电影网 |网站地图 

Copyright © 2015-2019 Comsenz Inc.  Template by 蓝光电影论坛 All Rights Reserved.

Powered by 蓝光电影网 X3.4

特别声明:本站所有资源均由网上收集而来,版权归原影音公司所有,如果侵犯了你的权益,请通知我们,我们会及时删除侵权内容.

快速回复 返回顶部 返回列表