找回密码

蓝光电影网

查看: 439|回复: 14

[2160p-WEB] 摩天轮/奇幻摩天轮 Wonder.Wheel.2017.HDR.2160p.WEB.h265-WATCHER 10.67GB

[复制链接]

 成长值: 26125

发表于 2020-5-16 22:12:54 | 显示全部楼层 |阅读模式
摩天轮/奇幻摩天轮 Wonder.Wheel.2017.HDR.2160p.WEB.h265-WATCHER 10.67GB-1.png

译  名 摩天轮 / 奇幻摩天轮(港) / 奇迹摩天轮 / 摩天轮奇缘 / 爱情摩天轮(台)
片  名 Wonder Wheel
年  代 2017
产  地 美国
类  别 剧情
语  言 英语
上映日期 2017-10-14(纽约电影节) / 2017-12-01(美国)
IMDb评分  6.2/10 from 23177 users
IMDb链接  https://www.imdb.com/title/tt5825380
豆瓣评分 7.2/10 from 23073 users
豆瓣链接 https://movie.douban.com/subject/26822230/
片  长 101分钟
导  演 伍迪·艾伦 Woody Allen
编  剧 伍迪·艾伦 Woody Allen
主  演 凯特·温丝莱特 Kate Winslet
       贾斯汀·汀布莱克 Justin Timberlake
       詹姆斯·贝鲁什 James Belushi
       朱诺·坦普尔 Juno Temple
       马克斯·凯塞拉 Max Casella
       杰克·戈尔 Jack Gore
       大卫·克鲁霍尔特兹 David Krumholtz
       罗伯特·C·柯克 Robert C. Kirk
       汤米·诺伊利 Tommy Nohilly
       托尼·西里科 Tony Sirico
       史蒂夫·石林帕 Steve Schirripa
       约翰·多马尼安 John Doumanian
       汤姆·盖里 Tom Guiry
       格雷戈瑞·丹恩 Gregory Dann
       鲍比·斯雷顿 Bobby Slayton
       迈克尔·泽加斯基 Michael Zegarski
       吉内瓦·卡尔 Geneva Carr
       艾德·朱厄特 Ed Jewett
       黛比·玛扎 Debi Mazar
       达尼埃尔·费兰 Danielle Ferland
       麦迪·科尔曼 Maddie Corman
       雅各布·伯杰 Jacob Berger
       珍娜·斯特恩 Jenna Stern
       迈克尔·斯特里亚诺 Michael Striano
       约翰·麦尼尔利 John Mainieri


标  签 美国 | 伍迪.艾伦 | 爱情 | 剧情 | 2017 | 文艺 | woodyallen | 黑色幽默

简  介  

  哈姆迪(吉姆·贝鲁什 Jim Belushi 饰)和妻子金妮(凯特·温丝莱特 Kate Winslet 饰)一起在游乐场生活和工作,金妮有过一段婚姻,两人共同抚养着金妮和前夫所生的孩子。一天,哈姆迪的女儿卡洛琳娜(朱诺·坦普尔 Juno Temple 饰)找到了父亲,她曾经执意嫁给黑帮大佬,如今正在遭受黑帮的追杀。
  虽然女儿从前的所作所为令哈姆迪十分生气,但卡洛琳娜的浪子回头显然让哈姆迪开始想要修复这段破碎的父女关系。与此同时,金妮邂逅了海滩救生员米奇(贾斯汀·汀布莱克 Justin Timberlake 饰),两人之间碰撞出了爱情的火花。金妮想要抛弃一切同米奇在一起,然而,在看到了卡洛琳娜之后,米奇不可自持的移情别恋了。

获奖情况  

  第21届好莱坞电影奖(2017)
  年度女主角 凯特·温丝莱特
  1. Video
  2. ID                                       : 1
  3. Format                                   : HEVC
  4. Format/Info                              : High Efficiency Video Coding
  5. Format profile                           : Main High@L4@Main
  6. HDR format                               : SMPTE ST 2094 App 4, Version 0
  7. Codec ID                                 : V_MPEGH/ISO/HEVC
  8. Duration                                 : 1 h 40 min
  9. Bit rate                                 : 14.5 Mb/s
  10. Width                                    : 3 840 pixels
  11. Height                                   : 1 920 pixels
  12. Display aspect ratio                     : 2.000
  13. Frame rate mode                          : Constant
  14. Frame rate                               : 23.976 (24000/1001/189150) FPS
  15. Standard                                 : NTSC
  16. Color space                              : YUV
  17. Chroma subsampling                       : 4:2:0 (Type 2)
  18. Bit depth                                : 10 bits
  19. Bits/(Pixel*Frame)                       : 0.082
  20. Stream size                              : 10.2 GiB (96%)
  21. Default                                  : Yes
  22. Forced                                   : No
  23. Color range                              : Limited
  24. Color primaries                          : BT.2020
  25. Transfer characteristics                 : PQ
  26. Matrix coefficients                      : BT.2020 non-constant
  27. Mastering display color primaries        : Display P3
  28. Mastering display luminance              : min: 0.0001 cd/m2, max: 1000 cd/m2
  29. Maximum Content Light Level              : 959 cd/m2
  30. Maximum Frame-Average Light Level        : 113 cd/m2

  31. Audio
  32. ID                                       : 2
  33. Format                                   : E-AC-3
  34. Format/Info                              : Enhanced AC-3
  35. Commercial name                          : Dolby Digital Plus
  36. Codec ID                                 : A_EAC3
  37. Duration                                 : 1 h 40 min
  38. Bit rate mode                            : Constant
  39. Bit rate                                 : 640 kb/s
  40. Channel(s)                               : 6 channels
  41. Channel layout                           : L R C LFE Ls Rs
  42. Sampling rate                            : 48.0 kHz
  43. Frame rate                               : 31.250 FPS (1536 SPF)
  44. Compression mode                         : Lossy
  45. Stream size                              : 462 MiB (4%)
  46. Title                                    : English
  47. Language                                 : English
  48. Service kind                             : Complete Main
  49. Default                                  : Yes
  50. Forced                                   : No

  51. Text
  52. ID                                       : 3
  53. Format                                   : UTF-8
  54. Codec ID                                 : S_TEXT/UTF8
  55. Codec ID/Info                            : UTF-8 Plain Text
  56. Duration                                 : 1 h 40 min
  57. Bit rate                                 : 98 b/s
  58. Count of elements                        : 2316
  59. Stream size                              : 72.6 KiB (0%)
  60. Title                                    : English [SDH]
  61. Language                                 : English
  62. Default                                  : No
  63. Forced                                   : No

  64. Menu
  65. 00:00:00.000                             : en:Amazon Original
  66. 00:00:21.000                             : en:Opening Credits
  67. 00:01:03.000                             : en:In walks Carolina
  68. 00:12:21.000                             : en:Ginny asks Humpty how long Carolina is staying
  69. 00:14:20.000                             : en:Richie's problem with matches
  70. 00:16:14.000                             : en:Ginny tells Richie about her early schooling days
  71. 00:17:52.000                             : en:How Mickey met Ginny
  72. 00:21:55.000                             : en:Ginny prepares herself to tell Mickey the truth
  73. 00:28:01.000                             : en:One thing leads to another
  74. 00:30:53.000                             : en:Two men ask Humpty about Carolina's whereabouts
  75. 00:33:54.000                             : en:The two men head West while Carolina continues life on the boardwalk
  76. 00:35:28.000                             : en:Life continues on the pier
  77. 00:40:06.000                             : en:Carolina asks Mickey about a book
  78. 00:42:01.000                             : en:Ginny learns of Carolina's new crush
  79. 00:44:22.000                             : en:Ginny warns Mickey of Carolina
  80. 00:46:11.000                             : en:Mickey gives Carolina a lift to work
  81. 00:51:53.000                             : en:Ginny's tombstone birthday
  82. 01:02:59.000                             : en:Ginny asks Humpty for money
  83. 01:05:18.000                             : en:Ginny makes her jealousy apparent to Mickey
  84. 01:07:54.000                             : en:Mickey looks to his friend Jake for advice
  85. 01:09:38.000                             : en:Ginny gets Mickey a birthday gift
  86. 01:15:38.000                             : en:Ginny spirals out of control back at home
  87. 01:17:58.000                             : en:Ginny spots danger from afar
  88. 01:20:43.000                             : en:Carolina and Mickey have their pizza date
  89. 01:24:01.000                             : en:Humpty asks Mickey where Carolina is
  90. 01:25:35.000                             : en:Humpty lets out his frustration on Ginny
  91. 01:28:38.000                             : en:Mickey confronts Ginny
  92. 01:38:06.000                             : en:End Credits
复制代码

摩天轮/奇幻摩天轮 Wonder.Wheel.2017.HDR.2160p.WEB.h265-WATCHER 10.67GB-2.png 摩天轮/奇幻摩天轮 Wonder.Wheel.2017.HDR.2160p.WEB.h265-WATCHER 10.67GB-3.png 摩天轮/奇幻摩天轮 Wonder.Wheel.2017.HDR.2160p.WEB.h265-WATCHER 10.67GB-4.png







回复

使用道具 举报

发表于 2020-5-16 23:00:23 | 显示全部楼层
不知道好看不
回复 支持 反对

使用道具 举报

 成长值: 3385

发表于 2020-5-16 23:40:28 | 显示全部楼层
楼主发贴辛苦了,谢谢楼主分享!我觉得蓝光电影网是注册对了!
回复 支持 反对

使用道具 举报

发表于 2020-5-17 00:02:56 | 显示全部楼层
楼主发贴辛苦了,谢谢楼主分享!我觉得蓝光电影网是注册对了!
回复 支持 反对

使用道具 举报

发表于 2020-5-17 01:52:12 | 显示全部楼层

其实我一直觉得楼主的品味不错!呵呵!蓝光电影网太棒了!
回复 支持 反对

使用道具 举报

发表于 2020-5-17 08:14:02 | 显示全部楼层
楼主发贴辛苦了,谢谢楼主分享!我觉得蓝光电影网是注册对了!
回复 支持 反对

使用道具 举报

发表于 2020-5-17 08:17:14 | 显示全部楼层
楼主发贴辛苦了,谢谢楼主分享!我觉得蓝光电影网是注册对了!
回复 支持 反对

使用道具 举报

发表于 2020-5-17 09:56:29 | 显示全部楼层
楼主发贴辛苦了,谢谢楼主分享!我觉得蓝光电影网是注册对了!
回复 支持 反对

使用道具 举报

发表于 2020-5-17 11:15:17 | 显示全部楼层
楼主发贴辛苦了,谢谢楼主分享!我觉得蓝光电影网是注册对了!
回复 支持 反对

使用道具 举报

发表于 2020-5-17 18:48:33 | 显示全部楼层
奇迹摩天轮奇迹摩天轮奇迹摩天轮
回复 支持 反对

使用道具 举报

懒得打字嘛,点击右侧快捷回复 【右侧内容,后台自定义】
您需要登录后才可以回帖 登录 | 立即加入

本版积分规则

现在加入蓝光电影网,注册一个账号
上个主题 下个主题 快速回复 收藏帖子 返回列表 客服中心 搜索

手机版|小黑屋| 蓝光电影网 |网站地图 

Copyright © 2015-2019 Comsenz Inc.  Template by 蓝光电影论坛 All Rights Reserved.

Powered by 蓝光电影网 X3.4

特别声明:本站所有资源均由网上收集而来,版权归原影音公司所有,如果侵犯了你的权益,请通知我们,我们会及时删除侵权内容.

快速回复 返回顶部 返回列表