找回密码

蓝光电影网

查看: 478|回复: 9

[8bit.SDR] 刺猬索尼克/超音鼠大电影 Sonic.the.Hedgehog.2020.2160p.BluRay.x264.8bit.SDR.DTS-HD.MA.TrueHD.7.1.Atmos-SWTYBLZ 22.76GB

[复制链接]

 成长值: 26125

发表于 2020-5-16 18:59:57 | 显示全部楼层 |阅读模式
刺猬索尼克/超音鼠大电影 Sonic.the.Hedgehog.2020.2160p.BluRay.x264.8bit.SDR.DTS-HD.MA.TrueHD.7.1.Atmos-SWTYBLZ 22.76GB-1.png

译  名 刺猬索尼克 / 超音鼠大电影(港) / 音速小子(台)
片  名 Sonic the Hedgehog
年  代 2020
产  地 加拿大 / 日本 / 美国
类  别 喜剧 / 动作 / 动画 / 冒险
语  言 英语
上映日期 2020(中国大陆) / 2020-02-14(美国)
IMDb评分  6.6/10 from 54920 users
IMDb链接  https://www.imdb.com/title/tt3794354
豆瓣评分 6.1/10 from 13688 users
豆瓣链接 https://movie.douban.com/subject/25905044/
片  长 99分钟
导  演 杰夫·福勒 Jeff Fowler
编  剧 范·罗比查乌克斯 Van Robichaux / 埃文·萨瑟 Evan Susser / 乔什·米勒 Josh Miller / Patrick Casey / 奥伦·尤济尔 Oren Uziel / 中裕司 Yuji Naka / Naoto Ohshima / Hirokazu Yasuhara
主  演 詹姆斯·麦斯登 James Marsden
       金·凯瑞 Jim Carrey
       本·施瓦茨 Ben Schwartz
       提卡·森普特 Tika Sumpter
       娜塔莎·罗斯韦尔 Natasha Rothwell
       亚当·佩里 Adam Pally
       李·马贾道布 Lee Majdoub
       尼尔·麦克唐纳 Neal McDonough
       汤姆·巴特勒 Tom Butler
       弗兰克·C·特纳 Frank C. Turner
       梅洛德·诺西普·尼曼 Melody Nosipho Niemann
       珊农·陈-肯特 Shannon Chan-Kent
       布拉德·凯利 Brad Kelly
       尔芬娜·卢克 Elfina Luk
       加里·切克 Gary Chalk
       迈克尔·霍根 Michael Hogan
       珍妮·克鲁蒂尔 Jeanie Cloutier
       贝利·斯科德里 Bailey Skodje
       杰夫·桑卡 Jeff Sanca
       丽莎·钱德勒 Lisa Chandler
       科琳·欧肖内希 Colleen O'Shaughnessey
       利安娜·拉普 Leanne Lapp


标  签 游戏改编 | 动画 | 美国 | 喜剧 | 科幻 | 2020 | 索尼克 | 游戏

简  介  

  改编自世嘉公司出品的风靡全球的电子游戏。电影讲述了拥有音速奔跑能力的刺猬索尼克在地球上展开新生活的故事。索尼克和他的新朋友汤姆(詹姆斯·麦斯登 饰)联手保护地球,阻止邪恶的蛋头博士(金·凯瑞 饰)统治世界的计划。这部适合全家观看的电影还邀请了迪卡·桑普特参演,本·施瓦茨为索尼克配音。
  1. Video
  2. ID                                       : 1
  3. Format                                   : AVC
  4. Format/Info                              : Advanced Video Codec
  5. Format profile                           : High@L4
  6. Format settings                          : CABAC / 5 Ref Frames
  7. Format settings, CABAC                   : Yes
  8. Format settings, Reference frames        : 5 frames
  9. Codec ID                                 : V_MPEG4/ISO/AVC
  10. Duration                                 : 1 h 38 min
  11. Bit rate                                 : 22.9 Mb/s
  12. Width                                    : 3 840 pixels
  13. Height                                   : 1 608 pixels
  14. Display aspect ratio                     : 2.40:1
  15. Frame rate mode                          : Constant
  16. Frame rate                               : 23.976 (24000/1001/189150) FPS
  17. Color space                              : YUV
  18. Chroma subsampling                       : 4:2:0
  19. Bit depth                                : 8 bits
  20. Scan type                                : Progressive
  21. Bits/(Pixel*Frame)                       : 0.155
  22. Stream size                              : 15.9 GiB (70%)
  23. Title                                    : Sonic.the.Hedgehog.2020.2160p.BluRay.x264.8bit.SDR.DTS-HD.MA.TrueHD.7.1.Atmos-SWTYBLZ
  24. Writing library                          : x264 core 157 r2935 545de2f
  25. Encoding settings                        : cabac=1 / ref=5 / deblock=1:-1:-1 / analyse=0x3:0x113 / me=umh / subme=10 / psy=1 / psy_rd=1.00:0.15 / mixed_ref=1 / me_range=48 / chroma_me=1 / trellis=2 / 8x8dct=1 / cqm=0 / deadzone=21,11 / fast_pskip=1 / chroma_qp_offset=-3 / threads=48 / lookahead_threads=4 / sliced_threads=0 / nr=0 / decimate=0 / interlaced=0 / bluray_compat=0 / constrained_intra=0 / bframes=3 / b_pyramid=2 / b_adapt=2 / b_bias=0 / direct=3 / weightb=1 / open_gop=0 / weightp=2 / keyint=250 / keyint_min=23 / scenecut=40 / intra_refresh=0 / rc_lookahead=50 / rc=crf / mbtree=1 / crf=18.0 / qcomp=0.60 / qpmin=0 / qpmax=69 / qpstep=4 / ip_ratio=1.40 / aq=1:1.00
  26. Default                                  : Yes
  27. Forced                                   : No

  28. Audio #1
  29. ID                                       : 2
  30. Format                                   : DTS XLL
  31. Format/Info                              : Digital Theater Systems
  32. Commercial name                          : DTS-HD Master Audio
  33. Codec ID                                 : A_DTS
  34. Duration                                 : 1 h 38 min
  35. Bit rate mode                            : Variable
  36. Bit rate                                 : 4 188 kb/s
  37. Channel(s)                               : 8 channels
  38. Channel layout                           : C L R LFE Lb Rb Lss Rss
  39. Sampling rate                            : 48.0 kHz
  40. Frame rate                               : 93.750 FPS (512 SPF)
  41. Bit depth                                : 24 bits
  42. Compression mode                         : Lossless
  43. Stream size                              : 2.89 GiB (13%)
  44. Title                                    : Sonic.the.Hedgehog.2020.2160p.BluRay.x264.8bit.SDR.DTS-HD.MA.TrueHD.7.1.Atmos-SWTYBLZ
  45. Language                                 : English
  46. Default                                  : No
  47. Forced                                   : No

  48. Audio #2
  49. ID                                       : 3
  50. Format                                   : MLP FBA 16-ch
  51. Format/Info                              : Meridian Lossless Packing FBA with 16-channel presentation
  52. Commercial name                          : Dolby TrueHD with Dolby Atmos
  53. Codec ID                                 : A_TRUEHD
  54. Duration                                 : 1 h 38 min
  55. Bit rate mode                            : Variable
  56. Bit rate                                 : 4 434 kb/s
  57. Maximum bit rate                         : 7 872 kb/s
  58. Channel(s)                               : 8 channels
  59. Channel layout                           : L R C LFE Ls Rs Lb Rb
  60. Sampling rate                            : 48.0 kHz
  61. Frame rate                               : 1 200.000 FPS (40 SPF)
  62. Compression mode                         : Lossless
  63. Stream size                              : 3.06 GiB (14%)
  64. Title                                    : Sonic.the.Hedgehog.2020.2160p.BluRay.x264.8bit.SDR.DTS-HD.MA.TrueHD.7.1.Atmos-SWTYBLZ
  65. Language                                 : English
  66. Default                                  : Yes
  67. Forced                                   : No
  68. Number of dynamic objects                : 11
  69. Bed channel count                        : 1 channel
  70. Bed channel configuration                : LFE

  71. Audio #3
  72. ID                                       : 4
  73. Format                                   : AC-3
  74. Format/Info                              : Audio Coding 3
  75. Commercial name                          : Dolby Digital
  76. Codec ID                                 : A_AC3
  77. Duration                                 : 1 h 38 min
  78. Bit rate mode                            : Constant
  79. Bit rate                                 : 640 kb/s
  80. Channel(s)                               : 6 channels
  81. Channel layout                           : L R C LFE Ls Rs
  82. Sampling rate                            : 48.0 kHz
  83. Frame rate                               : 31.250 FPS (1536 SPF)
  84. Bit depth                                : 16 bits
  85. Compression mode                         : Lossy
  86. Stream size                              : 453 MiB (2%)
  87. Title                                    : Sonic.the.Hedgehog.2020.2160p.BluRay.x264.8bit.SDR.DTS-HD.MA.TrueHD.7.1.Atmos-SWTYBLZ
  88. Language                                 : English
  89. Service kind                             : Complete Main
  90. Default                                  : No
  91. Forced                                   : No

  92. Text #1
  93. ID                                       : 5
  94. Format                                   : UTF-8
  95. Codec ID                                 : S_TEXT/UTF8
  96. Codec ID/Info                            : UTF-8 Plain Text
  97. Duration                                 : 1 h 31 min
  98. Bit rate                                 : 65 b/s
  99. Count of elements                        : 1276
  100. Stream size                              : 43.8 KiB (0%)
  101. Title                                    : English-SRT
  102. Language                                 : English
  103. Default                                  : Yes
  104. Forced                                   : No

  105. Text #2
  106. ID                                       : 6
  107. Format                                   : PGS
  108. Muxing mode                              : zlib
  109. Codec ID                                 : S_HDMV/PGS
  110. Codec ID/Info                            : Picture based subtitle format used on BDs/HD-DVDs
  111. Duration                                 : 1 h 31 min
  112. Bit rate                                 : 45.2 kb/s
  113. Count of elements                        : 2564
  114. Stream size                              : 29.6 MiB (0%)
  115. Title                                    : English-PGS
  116. Language                                 : English
  117. Default                                  : No
  118. Forced                                   : No

  119. Text #3
  120. ID                                       : 7
  121. Format                                   : PGS
  122. Muxing mode                              : zlib
  123. Codec ID                                 : S_HDMV/PGS
  124. Codec ID/Info                            : Picture based subtitle format used on BDs/HD-DVDs
  125. Duration                                 : 1 h 32 min
  126. Bit rate                                 : 51.8 kb/s
  127. Count of elements                        : 3184
  128. Stream size                              : 34.3 MiB (0%)
  129. Title                                    : English-SDH-PGS
  130. Language                                 : English
  131. Default                                  : No
  132. Forced                                   : No

  133. Text #4
  134. ID                                       : 8
  135. Format                                   : PGS
  136. Muxing mode                              : zlib
  137. Codec ID                                 : S_HDMV/PGS
  138. Codec ID/Info                            : Picture based subtitle format used on BDs/HD-DVDs
  139. Duration                                 : 1 h 37 min
  140. Bit rate                                 : 32.0 kb/s
  141. Count of elements                        : 2588
  142. Stream size                              : 22.3 MiB (0%)
  143. Title                                    : Chinese-PGS
  144. Language                                 : Chinese
  145. Default                                  : No
  146. Forced                                   : No

  147. Text #5
  148. ID                                       : 9
  149. Format                                   : PGS
  150. Muxing mode                              : zlib
  151. Codec ID                                 : S_HDMV/PGS
  152. Codec ID/Info                            : Picture based subtitle format used on BDs/HD-DVDs
  153. Duration                                 : 1 h 37 min
  154. Bit rate                                 : 30.0 kb/s
  155. Count of elements                        : 2624
  156. Stream size                              : 20.9 MiB (0%)
  157. Title                                    : Chinese-PGS
  158. Language                                 : Chinese
  159. Default                                  : No
  160. Forced                                   : No

  161. Text #6
  162. ID                                       : 10
  163. Format                                   : PGS
  164. Muxing mode                              : zlib
  165. Codec ID                                 : S_HDMV/PGS
  166. Codec ID/Info                            : Picture based subtitle format used on BDs/HD-DVDs
  167. Duration                                 : 1 h 37 min
  168. Bit rate                                 : 36.4 kb/s
  169. Count of elements                        : 2540
  170. Stream size                              : 25.4 MiB (0%)
  171. Title                                    : Czech-PGS
  172. Language                                 : Czech
  173. Default                                  : No
  174. Forced                                   : No

  175. Text #7
  176. ID                                       : 11
  177. Format                                   : PGS
  178. Muxing mode                              : zlib
  179. Codec ID                                 : S_HDMV/PGS
  180. Codec ID/Info                            : Picture based subtitle format used on BDs/HD-DVDs
  181. Duration                                 : 1 h 37 min
  182. Bit rate                                 : 36.0 kb/s
  183. Count of elements                        : 2512
  184. Stream size                              : 25.1 MiB (0%)
  185. Title                                    : Danish-PGS
  186. Language                                 : Danish
  187. Default                                  : No
  188. Forced                                   : No

  189. Text #8
  190. ID                                       : 12
  191. Format                                   : PGS
  192. Muxing mode                              : zlib
  193. Codec ID                                 : S_HDMV/PGS
  194. Codec ID/Info                            : Picture based subtitle format used on BDs/HD-DVDs
  195. Duration                                 : 1 h 37 min
  196. Bit rate                                 : 34.5 kb/s
  197. Count of elements                        : 2466
  198. Stream size                              : 24.1 MiB (0%)
  199. Title                                    : Dutch-PGS
  200. Language                                 : Dutch
  201. Default                                  : No
  202. Forced                                   : No

  203. Text #9
  204. ID                                       : 13
  205. Format                                   : PGS
  206. Muxing mode                              : zlib
  207. Codec ID                                 : S_HDMV/PGS
  208. Codec ID/Info                            : Picture based subtitle format used on BDs/HD-DVDs
  209. Duration                                 : 1 h 37 min
  210. Bit rate                                 : 36.8 kb/s
  211. Count of elements                        : 2618
  212. Stream size                              : 25.7 MiB (0%)
  213. Title                                    : Finnish-PGS
  214. Language                                 : Finnish
  215. Default                                  : No
  216. Forced                                   : No

  217. Text #10
  218. ID                                       : 14
  219. Format                                   : PGS
  220. Muxing mode                              : zlib
  221. Codec ID                                 : S_HDMV/PGS
  222. Codec ID/Info                            : Picture based subtitle format used on BDs/HD-DVDs
  223. Duration                                 : 1 h 37 min
  224. Bit rate                                 : 44.1 kb/s
  225. Count of elements                        : 2594
  226. Stream size                              : 30.8 MiB (0%)
  227. Title                                    : French-PGS
  228. Language                                 : French
  229. Default                                  : No
  230. Forced                                   : No

  231. Text #11
  232. ID                                       : 15
  233. Format                                   : PGS
  234. Muxing mode                              : zlib
  235. Codec ID                                 : S_HDMV/PGS
  236. Codec ID/Info                            : Picture based subtitle format used on BDs/HD-DVDs
  237. Duration                                 : 1 h 37 min
  238. Bit rate                                 : 32.9 kb/s
  239. Count of elements                        : 2468
  240. Stream size                              : 23.0 MiB (0%)
  241. Title                                    : French-PGS
  242. Language                                 : French
  243. Default                                  : No
  244. Forced                                   : No

  245. Text #12
  246. ID                                       : 16
  247. Format                                   : PGS
  248. Muxing mode                              : zlib
  249. Codec ID                                 : S_HDMV/PGS
  250. Codec ID/Info                            : Picture based subtitle format used on BDs/HD-DVDs
  251. Duration                                 : 1 h 37 min
  252. Bit rate                                 : 41.7 kb/s
  253. Count of elements                        : 2494
  254. Stream size                              : 29.1 MiB (0%)
  255. Title                                    : German-PGS
  256. Language                                 : German
  257. Default                                  : No
  258. Forced                                   : No

  259. Text #13
  260. ID                                       : 17
  261. Format                                   : PGS
  262. Muxing mode                              : zlib
  263. Codec ID                                 : S_HDMV/PGS
  264. Codec ID/Info                            : Picture based subtitle format used on BDs/HD-DVDs
  265. Duration                                 : 1 h 37 min
  266. Bit rate                                 : 40.9 kb/s
  267. Count of elements                        : 2252
  268. Stream size                              : 28.5 MiB (0%)
  269. Title                                    : Greek-PGS
  270. Language                                 : Greek
  271. Default                                  : No
  272. Forced                                   : No

  273. Text #14
  274. ID                                       : 18
  275. Format                                   : PGS
  276. Muxing mode                              : zlib
  277. Codec ID                                 : S_HDMV/PGS
  278. Codec ID/Info                            : Picture based subtitle format used on BDs/HD-DVDs
  279. Duration                                 : 1 h 37 min
  280. Bit rate                                 : 39.2 kb/s
  281. Count of elements                        : 2572
  282. Stream size                              : 27.4 MiB (0%)
  283. Title                                    : Italian-PGS
  284. Language                                 : Italian
  285. Default                                  : No
  286. Forced                                   : No

  287. Text #15
  288. ID                                       : 19
  289. Format                                   : PGS
  290. Muxing mode                              : zlib
  291. Codec ID                                 : S_HDMV/PGS
  292. Codec ID/Info                            : Picture based subtitle format used on BDs/HD-DVDs
  293. Duration                                 : 1 h 31 min
  294. Bit rate                                 : 26.5 kb/s
  295. Count of elements                        : 2410
  296. Stream size                              : 17.4 MiB (0%)
  297. Title                                    : Japanese-PGS
  298. Language                                 : Japanese
  299. Default                                  : No
  300. Forced                                   : No

  301. Text #16
  302. ID                                       : 20
  303. Format                                   : PGS
  304. Muxing mode                              : zlib
  305. Codec ID                                 : S_HDMV/PGS
  306. Codec ID/Info                            : Picture based subtitle format used on BDs/HD-DVDs
  307. Duration                                 : 1 h 37 min
  308. Bit rate                                 : 23.6 kb/s
  309. Count of elements                        : 2630
  310. Stream size                              : 16.5 MiB (0%)
  311. Title                                    : Korean-PGS
  312. Language                                 : Korean
  313. Default                                  : No
  314. Forced                                   : No

  315. Text #17
  316. ID                                       : 21
  317. Format                                   : PGS
  318. Muxing mode                              : zlib
  319. Codec ID                                 : S_HDMV/PGS
  320. Codec ID/Info                            : Picture based subtitle format used on BDs/HD-DVDs
  321. Duration                                 : 1 h 37 min
  322. Bit rate                                 : 47.9 kb/s
  323. Count of elements                        : 2614
  324. Stream size                              : 33.5 MiB (0%)
  325. Title                                    : Malay-PGS
  326. Language                                 : Malay
  327. Default                                  : No
  328. Forced                                   : No

  329. Text #18
  330. ID                                       : 22
  331. Format                                   : PGS
  332. Muxing mode                              : zlib
  333. Codec ID                                 : S_HDMV/PGS
  334. Codec ID/Info                            : Picture based subtitle format used on BDs/HD-DVDs
  335. Duration                                 : 1 h 37 min
  336. Bit rate                                 : 34.5 kb/s
  337. Count of elements                        : 2584
  338. Stream size                              : 24.1 MiB (0%)
  339. Title                                    : Norwegian-PGS
  340. Language                                 : Norwegian
  341. Default                                  : No
  342. Forced                                   : No

  343. Text #19
  344. ID                                       : 23
  345. Format                                   : PGS
  346. Muxing mode                              : zlib
  347. Codec ID                                 : S_HDMV/PGS
  348. Codec ID/Info                            : Picture based subtitle format used on BDs/HD-DVDs
  349. Duration                                 : 1 h 37 min
  350. Bit rate                                 : 37.2 kb/s
  351. Count of elements                        : 2572
  352. Stream size                              : 26.0 MiB (0%)
  353. Title                                    : Romanian-PGS
  354. Language                                 : Romanian
  355. Default                                  : No
  356. Forced                                   : No

  357. Text #20
  358. ID                                       : 24
  359. Format                                   : PGS
  360. Muxing mode                              : zlib
  361. Codec ID                                 : S_HDMV/PGS
  362. Codec ID/Info                            : Picture based subtitle format used on BDs/HD-DVDs
  363. Duration                                 : 1 h 37 min
  364. Bit rate                                 : 33.3 kb/s
  365. Count of elements                        : 2510
  366. Stream size                              : 23.2 MiB (0%)
  367. Title                                    : Portuguese-PGS
  368. Language                                 : Portuguese
  369. Default                                  : No
  370. Forced                                   : No

  371. Text #21
  372. ID                                       : 25
  373. Format                                   : PGS
  374. Muxing mode                              : zlib
  375. Codec ID                                 : S_HDMV/PGS
  376. Codec ID/Info                            : Picture based subtitle format used on BDs/HD-DVDs
  377. Duration                                 : 1 h 37 min
  378. Bit rate                                 : 38.2 kb/s
  379. Count of elements                        : 2588
  380. Stream size                              : 26.7 MiB (0%)
  381. Title                                    : Russian-PGS
  382. Language                                 : Russian
  383. Default                                  : No
  384. Forced                                   : No

  385. Text #22
  386. ID                                       : 26
  387. Format                                   : PGS
  388. Muxing mode                              : zlib
  389. Codec ID                                 : S_HDMV/PGS
  390. Codec ID/Info                            : Picture based subtitle format used on BDs/HD-DVDs
  391. Duration                                 : 1 h 37 min
  392. Bit rate                                 : 38.6 kb/s
  393. Count of elements                        : 2528
  394. Stream size                              : 26.9 MiB (0%)
  395. Title                                    : Spanish-PGS
  396. Language                                 : Spanish
  397. Default                                  : No
  398. Forced                                   : No

  399. Text #23
  400. ID                                       : 27
  401. Format                                   : PGS
  402. Muxing mode                              : zlib
  403. Codec ID                                 : S_HDMV/PGS
  404. Codec ID/Info                            : Picture based subtitle format used on BDs/HD-DVDs
  405. Duration                                 : 1 h 37 min
  406. Bit rate                                 : 40.7 kb/s
  407. Count of elements                        : 2618
  408. Stream size                              : 28.4 MiB (0%)
  409. Title                                    : Spanish-PGS
  410. Language                                 : Spanish
  411. Default                                  : No
  412. Forced                                   : No

  413. Text #24
  414. ID                                       : 28
  415. Format                                   : PGS
  416. Muxing mode                              : zlib
  417. Codec ID                                 : S_HDMV/PGS
  418. Codec ID/Info                            : Picture based subtitle format used on BDs/HD-DVDs
  419. Duration                                 : 1 h 37 min
  420. Bit rate                                 : 36.1 kb/s
  421. Count of elements                        : 2578
  422. Stream size                              : 25.2 MiB (0%)
  423. Title                                    : Swedish-PGS
  424. Language                                 : Swedish
  425. Default                                  : No
  426. Forced                                   : No

  427. Text #25
  428. ID                                       : 29
  429. Format                                   : PGS
  430. Muxing mode                              : zlib
  431. Codec ID                                 : S_HDMV/PGS
  432. Codec ID/Info                            : Picture based subtitle format used on BDs/HD-DVDs
  433. Duration                                 : 1 h 37 min
  434. Bit rate                                 : 33.5 kb/s
  435. Count of elements                        : 2630
  436. Stream size                              : 23.4 MiB (0%)
  437. Title                                    : Thai-PGS
  438. Language                                 : Thai
  439. Default                                  : No
  440. Forced                                   : No

  441. Text #26
  442. ID                                       : 30
  443. Format                                   : PGS
  444. Muxing mode                              : zlib
  445. Codec ID                                 : S_HDMV/PGS
  446. Codec ID/Info                            : Picture based subtitle format used on BDs/HD-DVDs
  447. Duration                                 : 1 h 37 min
  448. Bit rate                                 : 42.7 kb/s
  449. Count of elements                        : 2588
  450. Stream size                              : 29.8 MiB (0%)
  451. Title                                    : Turkish-PGS
  452. Language                                 : Turkish
  453. Default                                  : No
  454. Forced                                   : No

  455. Menu
  456. 00:00:00.000                             : en:Chapter 1
  457. 00:03:51.857                             : en:Chapter 2
  458. 00:09:32.989                             : en:Chapter 3
  459. 00:12:45.974                             : en:Chapter 4
  460. 00:18:09.422                             : en:Chapter 5
  461. 00:22:20.339                             : en:Chapter 6
  462. 00:27:33.694                             : en:Chapter 7
  463. 00:35:09.316                             : en:Chapter 8
  464. 00:41:37.328                             : en:Chapter 9
  465. 00:51:24.623                             : en:Chapter 10
  466. 01:01:04.828                             : en:Chapter 11
  467. 01:04:38.208                             : en:Chapter 12
  468. 01:10:20.341                             : en:Chapter 13
  469. 01:18:54.021                             : en:Chapter 14
  470. 01:25:38.717                             : en:Chapter 15
  471. 01:30:27.297                             : en:Chapter 16
复制代码

刺猬索尼克/超音鼠大电影 Sonic.the.Hedgehog.2020.2160p.BluRay.x264.8bit.SDR.DTS-HD.MA.TrueHD.7.1.Atmos-SWTYBLZ 22.76GB-2.png 刺猬索尼克/超音鼠大电影 Sonic.the.Hedgehog.2020.2160p.BluRay.x264.8bit.SDR.DTS-HD.MA.TrueHD.7.1.Atmos-SWTYBLZ 22.76GB-3.png 刺猬索尼克/超音鼠大电影 Sonic.the.Hedgehog.2020.2160p.BluRay.x264.8bit.SDR.DTS-HD.MA.TrueHD.7.1.Atmos-SWTYBLZ 22.76GB-4.png 刺猬索尼克/超音鼠大电影 Sonic.the.Hedgehog.2020.2160p.BluRay.x264.8bit.SDR.DTS-HD.MA.TrueHD.7.1.Atmos-SWTYBLZ 22.76GB-5.png 190021zzity219tnd86q4v.png 刺猬索尼克/超音鼠大电影 Sonic.the.Hedgehog.2020.2160p.BluRay.x264.8bit.SDR.DTS-HD.MA.TrueHD.7.1.Atmos-SWTYBLZ 22.76GB-7.png







回复

使用道具 举报

发表于 2020-5-16 21:03:50 | 显示全部楼层

楼主太厉害了!楼主,电影应该很好看我觉得蓝光电影网真是个好地方!
回复 支持 反对

使用道具 举报

发表于 2020-5-16 22:34:53 | 显示全部楼层
感谢分享
回复

使用道具 举报

发表于 2020-5-16 23:00:33 | 显示全部楼层
重制后萌多了
回复 支持 反对

使用道具 举报

发表于 2020-5-17 08:23:24 | 显示全部楼层
楼主发贴辛苦了,谢谢楼主分享!我觉得蓝光电影网是注册对了!
回复 支持 反对

使用道具 举报

发表于 2020-5-17 09:42:18 | 显示全部楼层

这东西我收了!谢谢楼主!蓝光电影网真好!
回复 支持 反对

使用道具 举报

发表于 2020-5-17 14:44:50 | 显示全部楼层
楼主发贴辛苦了,谢谢楼主分享!我觉得蓝光电影网是注册对了!
回复 支持 反对

使用道具 举报

发表于 2020-5-18 20:55:52 | 显示全部楼层
谢谢分享
,一般4K电视带的动么
回复 支持 反对

使用道具 举报

发表于 2020-5-18 21:24:06 | 显示全部楼层
谢谢分享
回复

使用道具 举报

发表于 2020-5-19 17:31:50 | 显示全部楼层

我看不错噢 谢谢楼主!蓝光电影网越来越好!
回复 支持 反对

使用道具 举报

懒得打字嘛,点击右侧快捷回复 【右侧内容,后台自定义】
您需要登录后才可以回帖 登录 | 立即加入

本版积分规则

现在加入蓝光电影网,注册一个账号
上个主题 下个主题 快速回复 收藏帖子 返回列表 客服中心 搜索

手机版|小黑屋| 蓝光电影网 |网站地图 

Copyright © 2015-2019 Comsenz Inc.  Template by 蓝光电影论坛 All Rights Reserved.

Powered by 蓝光电影网 X3.4

特别声明:本站所有资源均由网上收集而来,版权归原影音公司所有,如果侵犯了你的权益,请通知我们,我们会及时删除侵权内容.

快速回复 返回顶部 返回列表