找回密码

蓝光电影网

查看: 255|回复: 8

[10bit.HDR] 刺猬索尼克/超音鼠大电影 Sonic.the.Hedgehog.2020.2160p.UHD.BluRay.x265.10bit.HDR.DTS-HD.MA.TrueHD.7.1.Atmos-SWTYBLZ 15.97GB

[复制链接]

 成长值: 26125

发表于 2020-5-16 18:58:02 | 显示全部楼层 |阅读模式
刺猬索尼克/超音鼠大电影 Sonic.the.Hedgehog.2020.2160p.UHD.BluRay.x265.10bit.HDR.DTS-HD.MA.TrueHD.7.1.Atmos-SWTYBLZ 15.97GB-1.png

译  名 刺猬索尼克 / 超音鼠大电影(港) / 音速小子(台)
片  名 Sonic the Hedgehog
年  代 2020
产  地 加拿大 / 日本 / 美国
类  别 喜剧 / 动作 / 动画 / 冒险
语  言 英语
上映日期 2020(中国大陆) / 2020-02-14(美国)
IMDb评分  6.6/10 from 54920 users
IMDb链接  https://www.imdb.com/title/tt3794354
豆瓣评分 6.1/10 from 13688 users
豆瓣链接 https://movie.douban.com/subject/25905044/
片  长 99分钟
导  演 杰夫·福勒 Jeff Fowler
编  剧 范·罗比查乌克斯 Van Robichaux / 埃文·萨瑟 Evan Susser / 乔什·米勒 Josh Miller / Patrick Casey / 奥伦·尤济尔 Oren Uziel / 中裕司 Yuji Naka / Naoto Ohshima / Hirokazu Yasuhara
主  演 詹姆斯·麦斯登 James Marsden
       金·凯瑞 Jim Carrey
       本·施瓦茨 Ben Schwartz
       提卡·森普特 Tika Sumpter
       娜塔莎·罗斯韦尔 Natasha Rothwell
       亚当·佩里 Adam Pally
       李·马贾道布 Lee Majdoub
       尼尔·麦克唐纳 Neal McDonough
       汤姆·巴特勒 Tom Butler
       弗兰克·C·特纳 Frank C. Turner
       梅洛德·诺西普·尼曼 Melody Nosipho Niemann
       珊农·陈-肯特 Shannon Chan-Kent
       布拉德·凯利 Brad Kelly
       尔芬娜·卢克 Elfina Luk
       加里·切克 Gary Chalk
       迈克尔·霍根 Michael Hogan
       珍妮·克鲁蒂尔 Jeanie Cloutier
       贝利·斯科德里 Bailey Skodje
       杰夫·桑卡 Jeff Sanca
       丽莎·钱德勒 Lisa Chandler
       科琳·欧肖内希 Colleen O'Shaughnessey
       利安娜·拉普 Leanne Lapp


标  签 游戏改编 | 动画 | 美国 | 喜剧 | 科幻 | 2020 | 索尼克 | 游戏

简  介  

  改编自世嘉公司出品的风靡全球的电子游戏。电影讲述了拥有音速奔跑能力的刺猬索尼克在地球上展开新生活的故事。索尼克和他的新朋友汤姆(詹姆斯·麦斯登 饰)联手保护地球,阻止邪恶的蛋头博士(金·凯瑞 饰)统治世界的计划。这部适合全家观看的电影还邀请了迪卡·桑普特参演,本·施瓦茨为索尼克配音。

  1. Video
  2. ID                                       : 1
  3. Format                                   : HEVC
  4. Format/Info                              : High Efficiency Video Coding
  5. Format profile                           : Main 10@L5.1@High
  6. HDR format                               : SMPTE ST 2086, HDR10 compatible
  7. Codec ID                                 : V_MPEGH/ISO/HEVC
  8. Duration                                 : 1 h 38 min
  9. Bit rate                                 : 13.2 Mb/s
  10. Width                                    : 3 840 pixels
  11. Height                                   : 1 608 pixels
  12. Display aspect ratio                     : 2.40:1
  13. Frame rate mode                          : Constant
  14. Frame rate                               : 23.976 (24000/1001/45165) FPS
  15. Color space                              : YUV
  16. Chroma subsampling                       : 4:2:0 (Type 2)
  17. Bit depth                                : 10 bits
  18. Bits/(Pixel*Frame)                       : 0.089
  19. Stream size                              : 9.12 GiB (57%)
  20. Title                                    : Sonic.the.Hedgehog.2020.2160p.UHD.BluRay.x265.10bit.HDR.DTS-HD.MA.TrueHD.7.1.Atmos-SWTYBLZ
  21. Writing library                          : x265 3.0_Au+10-74a8672ea4f7:[Windows][GCC 8.2.1][64 bit] 10bit
  22. Encoding settings                        : cpuid=1111039 / frame-threads=6 / numa-pools=24,24,24,24 / wpp / no-pmode / no-pme / no-psnr / no-ssim / log-level=2 / input-csp=1 / input-res=3840x1608 / interlace=0 / total-frames=0 / level-idc=51 / high-tier=1 / uhd-bd=0 / ref=3 / no-allow-non-conformance / repeat-headers / annexb / aud / hrd / info / hash=0 / no-temporal-layers / no-open-gop / min-keyint=1 / keyint=24 / gop-lookahead=0 / bframes=4 / b-adapt=2 / b-pyramid / bframe-bias=0 / rc-lookahead=25 / lookahead-slices=4 / scenecut=40 / radl=0 / no-splice / no-intra-refresh / ctu=64 / min-cu-size=8 / no-rect / no-amp / max-tu-size=32 / tu-inter-depth=1 / tu-intra-depth=1 / limit-tu=0 / rdoq-level=0 / dynamic-rd=0.00 / no-ssim-rd / signhide / no-tskip / nr-intra=0 / nr-inter=0 / no-constrained-intra / strong-intra-smoothing / max-merge=2 / limit-refs=3 / no-limit-modes / me=1 / subme=2 / merange=57 / temporal-mvp / weightp / no-weightb / no-analyze-src-pics / deblock=0:0 / no-sao / no-sao-non-deblock / rd=3 / no-early-skip / rskip / no-fast-intra / no-tskip-fast / no-cu-lossless / no-b-intra / no-splitrd-skip / rdpenalty=0 / psy-rd=2.00 / psy-rdoq=0.00 / no-rd-refine / no-lossless / cbqpoffs=0 / crqpoffs=0 / rc=crf / crf=14.0 / qcomp=0.60 / qpstep=4 / stats-write=0 / stats-read=0 / vbv-maxrate=160000 / vbv-bufsize=160000 / vbv-init=0.9 / crf-max=0.0 / crf-min=0.0 / ipratio=1.40 / pbratio=1.30 / aq-mode=1 / aq-strength=1.00 / cutree / zone-count=0 / no-strict-cbr / qg-size=32 / no-rc-grain / qpmax=69 / qpmin=0 / no-const-vbv / sar=1 / overscan=0 / videoformat=5 / range=0 / colorprim=9 / transfer=16 / colormatrix=9 / chromaloc=1 / chromaloc-top=2 / chromaloc-bottom=2 / display-window=0 / master-display=G(13250,34500)B(7500,3000)R(34000,16000)WP(15635,16450)L(40000000,50) / max-cll=698,204 / min-luma=0 / max-luma=1023 / log2-max-poc-lsb=8 / vui-timing-info / vui-hrd-info / slices=1 / opt-qp-pps / opt-ref-list-length-pps / no-multi-pass-opt-rps / scenecut-bias=0.05 / no-opt-cu-delta-qp / no-aq-motion / hdr / hdr-opt / no-dhdr10-opt / no-idr-recovery-sei / analysis-reuse-level=5 / scale-factor=0 / refine-intra=0 / refine-inter=0 / refine-mv=0 / refine-ctu-distortion=0 / no-limit-sao / ctu-info=0 / no-lowpass-dct / refine-analysis-type=0 / copy-pic=1 / max-ausize-factor=1.0 / no-dynamic-refine / no-single-sei / no-hevc-aq / no-svt / qp-adaptation-range=1.00
  23. Default                                  : Yes
  24. Forced                                   : No
  25. Color range                              : Limited
  26. Color primaries                          : BT.2020
  27. Transfer characteristics                 : PQ
  28. Matrix coefficients                      : BT.2020 non-constant
  29. Mastering display color primaries        : Display P3
  30. Mastering display luminance              : min: 0.0050 cd/m2, max: 4000 cd/m2
  31. Maximum Content Light Level              : 698 cd/m2
  32. Maximum Frame-Average Light Level        : 204 cd/m2

  33. Audio #1
  34. ID                                       : 2
  35. Format                                   : MLP FBA 16-ch
  36. Format/Info                              : Meridian Lossless Packing FBA with 16-channel presentation
  37. Commercial name                          : Dolby TrueHD with Dolby Atmos
  38. Codec ID                                 : A_TRUEHD
  39. Duration                                 : 1 h 38 min
  40. Bit rate mode                            : Variable
  41. Bit rate                                 : 4 434 kb/s
  42. Maximum bit rate                         : 7 872 kb/s
  43. Channel(s)                               : 8 channels
  44. Channel layout                           : L R C LFE Ls Rs Lb Rb
  45. Sampling rate                            : 48.0 kHz
  46. Frame rate                               : 1 200.000 FPS (40 SPF)
  47. Compression mode                         : Lossless
  48. Stream size                              : 3.06 GiB (19%)
  49. Title                                    : Sonic.the.Hedgehog.2020.2160p.UHD.BluRay.x265.10bit.HDR.DTS-HD.MA.TrueHD.7.1.Atmos-SWTYBLZ
  50. Language                                 : English
  51. Default                                  : Yes
  52. Forced                                   : No
  53. Number of dynamic objects                : 11
  54. Bed channel count                        : 1 channel
  55. Bed channel configuration                : LFE

  56. Audio #2
  57. ID                                       : 3
  58. Format                                   : DTS XLL
  59. Format/Info                              : Digital Theater Systems
  60. Commercial name                          : DTS-HD Master Audio
  61. Codec ID                                 : A_DTS
  62. Duration                                 : 1 h 38 min
  63. Bit rate mode                            : Variable
  64. Bit rate                                 : 4 188 kb/s
  65. Channel(s)                               : 8 channels
  66. Channel layout                           : C L R LFE Lb Rb Lss Rss
  67. Sampling rate                            : 48.0 kHz
  68. Frame rate                               : 93.750 FPS (512 SPF)
  69. Bit depth                                : 24 bits
  70. Compression mode                         : Lossless
  71. Stream size                              : 2.89 GiB (18%)
  72. Title                                    : Sonic.the.Hedgehog.2020.2160p.UHD.BluRay.x265.10bit.HDR.DTS-HD.MA.TrueHD.7.1.Atmos-SWTYBLZ
  73. Language                                 : English
  74. Default                                  : No
  75. Forced                                   : No

  76. Audio #3
  77. ID                                       : 4
  78. Format                                   : AC-3
  79. Format/Info                              : Audio Coding 3
  80. Commercial name                          : Dolby Digital
  81. Codec ID                                 : A_AC3
  82. Duration                                 : 1 h 38 min
  83. Bit rate mode                            : Constant
  84. Bit rate                                 : 640 kb/s
  85. Channel(s)                               : 6 channels
  86. Channel layout                           : L R C LFE Ls Rs
  87. Sampling rate                            : 48.0 kHz
  88. Frame rate                               : 31.250 FPS (1536 SPF)
  89. Bit depth                                : 16 bits
  90. Compression mode                         : Lossy
  91. Stream size                              : 453 MiB (3%)
  92. Title                                    : Sonic.the.Hedgehog.2020.2160p.UHD.BluRay.x265.10bit.HDR.DTS-HD.MA.TrueHD.7.1.Atmos-SWTYBLZ
  93. Language                                 : English
  94. Service kind                             : Complete Main
  95. Default                                  : No
  96. Forced                                   : No

  97. Text #1
  98. ID                                       : 5
  99. Format                                   : UTF-8
  100. Codec ID                                 : S_TEXT/UTF8
  101. Codec ID/Info                            : UTF-8 Plain Text
  102. Duration                                 : 1 h 31 min
  103. Bit rate                                 : 65 b/s
  104. Count of elements                        : 1276
  105. Stream size                              : 43.8 KiB (0%)
  106. Title                                    : English-SRT
  107. Language                                 : English
  108. Default                                  : Yes
  109. Forced                                   : No

  110. Text #2
  111. ID                                       : 6
  112. Format                                   : PGS
  113. Muxing mode                              : zlib
  114. Codec ID                                 : S_HDMV/PGS
  115. Codec ID/Info                            : Picture based subtitle format used on BDs/HD-DVDs
  116. Duration                                 : 1 h 31 min
  117. Bit rate                                 : 45.2 kb/s
  118. Count of elements                        : 2564
  119. Stream size                              : 29.6 MiB (0%)
  120. Title                                    : English-PGS
  121. Language                                 : English
  122. Default                                  : No
  123. Forced                                   : No

  124. Text #3
  125. ID                                       : 7
  126. Format                                   : PGS
  127. Muxing mode                              : zlib
  128. Codec ID                                 : S_HDMV/PGS
  129. Codec ID/Info                            : Picture based subtitle format used on BDs/HD-DVDs
  130. Duration                                 : 1 h 32 min
  131. Bit rate                                 : 51.8 kb/s
  132. Count of elements                        : 3184
  133. Stream size                              : 34.3 MiB (0%)
  134. Title                                    : English-SDH-PGS
  135. Language                                 : English
  136. Default                                  : No
  137. Forced                                   : No

  138. Text #4
  139. ID                                       : 8
  140. Format                                   : PGS
  141. Muxing mode                              : zlib
  142. Codec ID                                 : S_HDMV/PGS
  143. Codec ID/Info                            : Picture based subtitle format used on BDs/HD-DVDs
  144. Duration                                 : 1 h 37 min
  145. Bit rate                                 : 32.0 kb/s
  146. Count of elements                        : 2588
  147. Stream size                              : 22.3 MiB (0%)
  148. Title                                    : Chinese-PGS
  149. Language                                 : Chinese
  150. Default                                  : No
  151. Forced                                   : No

  152. Text #5
  153. ID                                       : 9
  154. Format                                   : PGS
  155. Muxing mode                              : zlib
  156. Codec ID                                 : S_HDMV/PGS
  157. Codec ID/Info                            : Picture based subtitle format used on BDs/HD-DVDs
  158. Duration                                 : 1 h 37 min
  159. Bit rate                                 : 30.0 kb/s
  160. Count of elements                        : 2624
  161. Stream size                              : 20.9 MiB (0%)
  162. Title                                    : Chinese-PGS
  163. Language                                 : Chinese
  164. Default                                  : No
  165. Forced                                   : No

  166. Text #6
  167. ID                                       : 10
  168. Format                                   : PGS
  169. Muxing mode                              : zlib
  170. Codec ID                                 : S_HDMV/PGS
  171. Codec ID/Info                            : Picture based subtitle format used on BDs/HD-DVDs
  172. Duration                                 : 1 h 37 min
  173. Bit rate                                 : 36.4 kb/s
  174. Count of elements                        : 2540
  175. Stream size                              : 25.4 MiB (0%)
  176. Title                                    : Czech-PGS
  177. Language                                 : Czech
  178. Default                                  : No
  179. Forced                                   : No

  180. Text #7
  181. ID                                       : 11
  182. Format                                   : PGS
  183. Muxing mode                              : zlib
  184. Codec ID                                 : S_HDMV/PGS
  185. Codec ID/Info                            : Picture based subtitle format used on BDs/HD-DVDs
  186. Duration                                 : 1 h 37 min
  187. Bit rate                                 : 36.0 kb/s
  188. Count of elements                        : 2512
  189. Stream size                              : 25.1 MiB (0%)
  190. Title                                    : Danish-PGS
  191. Language                                 : Danish
  192. Default                                  : No
  193. Forced                                   : No

  194. Text #8
  195. ID                                       : 12
  196. Format                                   : PGS
  197. Muxing mode                              : zlib
  198. Codec ID                                 : S_HDMV/PGS
  199. Codec ID/Info                            : Picture based subtitle format used on BDs/HD-DVDs
  200. Duration                                 : 1 h 37 min
  201. Bit rate                                 : 34.5 kb/s
  202. Count of elements                        : 2466
  203. Stream size                              : 24.1 MiB (0%)
  204. Title                                    : Dutch-PGS
  205. Language                                 : Dutch
  206. Default                                  : No
  207. Forced                                   : No

  208. Text #9
  209. ID                                       : 13
  210. Format                                   : PGS
  211. Muxing mode                              : zlib
  212. Codec ID                                 : S_HDMV/PGS
  213. Codec ID/Info                            : Picture based subtitle format used on BDs/HD-DVDs
  214. Duration                                 : 1 h 37 min
  215. Bit rate                                 : 36.8 kb/s
  216. Count of elements                        : 2618
  217. Stream size                              : 25.7 MiB (0%)
  218. Title                                    : Finnish-PGS
  219. Language                                 : Finnish
  220. Default                                  : No
  221. Forced                                   : No

  222. Text #10
  223. ID                                       : 14
  224. Format                                   : PGS
  225. Muxing mode                              : zlib
  226. Codec ID                                 : S_HDMV/PGS
  227. Codec ID/Info                            : Picture based subtitle format used on BDs/HD-DVDs
  228. Duration                                 : 1 h 37 min
  229. Bit rate                                 : 44.1 kb/s
  230. Count of elements                        : 2594
  231. Stream size                              : 30.8 MiB (0%)
  232. Title                                    : French-PGS
  233. Language                                 : French
  234. Default                                  : No
  235. Forced                                   : No

  236. Text #11
  237. ID                                       : 15
  238. Format                                   : PGS
  239. Muxing mode                              : zlib
  240. Codec ID                                 : S_HDMV/PGS
  241. Codec ID/Info                            : Picture based subtitle format used on BDs/HD-DVDs
  242. Duration                                 : 1 h 37 min
  243. Bit rate                                 : 32.9 kb/s
  244. Count of elements                        : 2468
  245. Stream size                              : 23.0 MiB (0%)
  246. Title                                    : French-PGS
  247. Language                                 : French
  248. Default                                  : No
  249. Forced                                   : No

  250. Text #12
  251. ID                                       : 16
  252. Format                                   : PGS
  253. Muxing mode                              : zlib
  254. Codec ID                                 : S_HDMV/PGS
  255. Codec ID/Info                            : Picture based subtitle format used on BDs/HD-DVDs
  256. Duration                                 : 1 h 37 min
  257. Bit rate                                 : 41.7 kb/s
  258. Count of elements                        : 2494
  259. Stream size                              : 29.1 MiB (0%)
  260. Title                                    : German-PGS
  261. Language                                 : German
  262. Default                                  : No
  263. Forced                                   : No

  264. Text #13
  265. ID                                       : 17
  266. Format                                   : PGS
  267. Muxing mode                              : zlib
  268. Codec ID                                 : S_HDMV/PGS
  269. Codec ID/Info                            : Picture based subtitle format used on BDs/HD-DVDs
  270. Duration                                 : 1 h 37 min
  271. Bit rate                                 : 40.9 kb/s
  272. Count of elements                        : 2252
  273. Stream size                              : 28.5 MiB (0%)
  274. Title                                    : Greek-PGS
  275. Language                                 : Greek
  276. Default                                  : No
  277. Forced                                   : No

  278. Text #14
  279. ID                                       : 18
  280. Format                                   : PGS
  281. Muxing mode                              : zlib
  282. Codec ID                                 : S_HDMV/PGS
  283. Codec ID/Info                            : Picture based subtitle format used on BDs/HD-DVDs
  284. Duration                                 : 1 h 37 min
  285. Bit rate                                 : 39.2 kb/s
  286. Count of elements                        : 2572
  287. Stream size                              : 27.4 MiB (0%)
  288. Title                                    : Italian-PGS
  289. Language                                 : Italian
  290. Default                                  : No
  291. Forced                                   : No

  292. Text #15
  293. ID                                       : 19
  294. Format                                   : PGS
  295. Muxing mode                              : zlib
  296. Codec ID                                 : S_HDMV/PGS
  297. Codec ID/Info                            : Picture based subtitle format used on BDs/HD-DVDs
  298. Duration                                 : 1 h 31 min
  299. Bit rate                                 : 26.5 kb/s
  300. Count of elements                        : 2410
  301. Stream size                              : 17.4 MiB (0%)
  302. Title                                    : Japanese-PGS
  303. Language                                 : Japanese
  304. Default                                  : No
  305. Forced                                   : No

  306. Text #16
  307. ID                                       : 20
  308. Format                                   : PGS
  309. Muxing mode                              : zlib
  310. Codec ID                                 : S_HDMV/PGS
  311. Codec ID/Info                            : Picture based subtitle format used on BDs/HD-DVDs
  312. Duration                                 : 1 h 37 min
  313. Bit rate                                 : 23.6 kb/s
  314. Count of elements                        : 2630
  315. Stream size                              : 16.5 MiB (0%)
  316. Title                                    : Korean-PGS
  317. Language                                 : Korean
  318. Default                                  : No
  319. Forced                                   : No

  320. Text #17
  321. ID                                       : 21
  322. Format                                   : PGS
  323. Muxing mode                              : zlib
  324. Codec ID                                 : S_HDMV/PGS
  325. Codec ID/Info                            : Picture based subtitle format used on BDs/HD-DVDs
  326. Duration                                 : 1 h 37 min
  327. Bit rate                                 : 47.9 kb/s
  328. Count of elements                        : 2614
  329. Stream size                              : 33.5 MiB (0%)
  330. Title                                    : Malay-PGS
  331. Language                                 : Malay
  332. Default                                  : No
  333. Forced                                   : No

  334. Text #18
  335. ID                                       : 22
  336. Format                                   : PGS
  337. Muxing mode                              : zlib
  338. Codec ID                                 : S_HDMV/PGS
  339. Codec ID/Info                            : Picture based subtitle format used on BDs/HD-DVDs
  340. Duration                                 : 1 h 37 min
  341. Bit rate                                 : 34.5 kb/s
  342. Count of elements                        : 2584
  343. Stream size                              : 24.1 MiB (0%)
  344. Title                                    : Norwegian-PGS
  345. Language                                 : Norwegian
  346. Default                                  : No
  347. Forced                                   : No

  348. Text #19
  349. ID                                       : 23
  350. Format                                   : PGS
  351. Muxing mode                              : zlib
  352. Codec ID                                 : S_HDMV/PGS
  353. Codec ID/Info                            : Picture based subtitle format used on BDs/HD-DVDs
  354. Duration                                 : 1 h 37 min
  355. Bit rate                                 : 37.2 kb/s
  356. Count of elements                        : 2572
  357. Stream size                              : 26.0 MiB (0%)
  358. Title                                    : Romanian-PGS
  359. Language                                 : Romanian
  360. Default                                  : No
  361. Forced                                   : No

  362. Text #20
  363. ID                                       : 24
  364. Format                                   : PGS
  365. Muxing mode                              : zlib
  366. Codec ID                                 : S_HDMV/PGS
  367. Codec ID/Info                            : Picture based subtitle format used on BDs/HD-DVDs
  368. Duration                                 : 1 h 37 min
  369. Bit rate                                 : 33.3 kb/s
  370. Count of elements                        : 2510
  371. Stream size                              : 23.2 MiB (0%)
  372. Title                                    : Portuguese-PGS
  373. Language                                 : Portuguese
  374. Default                                  : No
  375. Forced                                   : No

  376. Text #21
  377. ID                                       : 25
  378. Format                                   : PGS
  379. Muxing mode                              : zlib
  380. Codec ID                                 : S_HDMV/PGS
  381. Codec ID/Info                            : Picture based subtitle format used on BDs/HD-DVDs
  382. Duration                                 : 1 h 37 min
  383. Bit rate                                 : 38.2 kb/s
  384. Count of elements                        : 2588
  385. Stream size                              : 26.7 MiB (0%)
  386. Title                                    : Russian-PGS
  387. Language                                 : Russian
  388. Default                                  : No
  389. Forced                                   : No

  390. Text #22
  391. ID                                       : 26
  392. Format                                   : PGS
  393. Muxing mode                              : zlib
  394. Codec ID                                 : S_HDMV/PGS
  395. Codec ID/Info                            : Picture based subtitle format used on BDs/HD-DVDs
  396. Duration                                 : 1 h 37 min
  397. Bit rate                                 : 38.6 kb/s
  398. Count of elements                        : 2528
  399. Stream size                              : 26.9 MiB (0%)
  400. Title                                    : Spanish-PGS
  401. Language                                 : Spanish
  402. Default                                  : No
  403. Forced                                   : No

  404. Text #23
  405. ID                                       : 27
  406. Format                                   : PGS
  407. Muxing mode                              : zlib
  408. Codec ID                                 : S_HDMV/PGS
  409. Codec ID/Info                            : Picture based subtitle format used on BDs/HD-DVDs
  410. Duration                                 : 1 h 37 min
  411. Bit rate                                 : 40.7 kb/s
  412. Count of elements                        : 2618
  413. Stream size                              : 28.4 MiB (0%)
  414. Title                                    : Spanish-PGS
  415. Language                                 : Spanish
  416. Default                                  : No
  417. Forced                                   : No

  418. Text #24
  419. ID                                       : 28
  420. Format                                   : PGS
  421. Muxing mode                              : zlib
  422. Codec ID                                 : S_HDMV/PGS
  423. Codec ID/Info                            : Picture based subtitle format used on BDs/HD-DVDs
  424. Duration                                 : 1 h 37 min
  425. Bit rate                                 : 36.1 kb/s
  426. Count of elements                        : 2578
  427. Stream size                              : 25.2 MiB (0%)
  428. Title                                    : Swedish-PGS
  429. Language                                 : Swedish
  430. Default                                  : No
  431. Forced                                   : No

  432. Text #25
  433. ID                                       : 29
  434. Format                                   : PGS
  435. Muxing mode                              : zlib
  436. Codec ID                                 : S_HDMV/PGS
  437. Codec ID/Info                            : Picture based subtitle format used on BDs/HD-DVDs
  438. Duration                                 : 1 h 37 min
  439. Bit rate                                 : 33.5 kb/s
  440. Count of elements                        : 2630
  441. Stream size                              : 23.4 MiB (0%)
  442. Title                                    : Thai-PGS
  443. Language                                 : Thai
  444. Default                                  : No
  445. Forced                                   : No

  446. Text #26
  447. ID                                       : 30
  448. Format                                   : PGS
  449. Muxing mode                              : zlib
  450. Codec ID                                 : S_HDMV/PGS
  451. Codec ID/Info                            : Picture based subtitle format used on BDs/HD-DVDs
  452. Duration                                 : 1 h 37 min
  453. Bit rate                                 : 42.7 kb/s
  454. Count of elements                        : 2588
  455. Stream size                              : 29.8 MiB (0%)
  456. Title                                    : Turkish-PGS
  457. Language                                 : Turkish
  458. Default                                  : No
  459. Forced                                   : No

  460. Menu
  461. 00:00:00.000                             : en:Chapter 1
  462. 00:03:51.857                             : en:Chapter 2
  463. 00:09:32.989                             : en:Chapter 3
  464. 00:12:45.974                             : en:Chapter 4
  465. 00:18:09.422                             : en:Chapter 5
  466. 00:22:20.339                             : en:Chapter 6
  467. 00:27:33.694                             : en:Chapter 7
  468. 00:35:09.316                             : en:Chapter 8
  469. 00:41:37.328                             : en:Chapter 9
  470. 00:51:24.623                             : en:Chapter 10
  471. 01:01:04.828                             : en:Chapter 11
  472. 01:04:38.208                             : en:Chapter 12
  473. 01:10:20.341                             : en:Chapter 13
  474. 01:18:54.021                             : en:Chapter 14
  475. 01:25:38.717                             : en:Chapter 15
  476. 01:30:27.297                             : en:Chapter 16
复制代码
185929nnwo4tw5nfd6in4n.png 185929qmnabtkpz5b88hha.png 185930mnozrrb9o3m97azn.png 185930vvd8hcqh4ec6ip5e.png 185930dyy63csgoseyesfp.png 185931l4iuzi7gu7gxxg7d.png



回复

使用道具 举报

发表于 2020-5-17 19:32:57 | 显示全部楼层
谢谢分享好片
回复 支持 反对

使用道具 举报

发表于 2020-5-17 22:10:00 | 显示全部楼层

这东西我收了!谢谢楼主!蓝光电影网真好!
回复 支持 反对

使用道具 举报

已抛锚 成长值: 3300

发表于 2020-5-17 22:30:25 来自手机 | 显示全部楼层
谢谢分享
回复

使用道具 举报

发表于 2020-5-18 02:02:48 | 显示全部楼层
楼主发贴辛苦了,谢谢楼主分享!我觉得蓝光电影网是注册对了!
回复 支持 反对

使用道具 举报

发表于 2020-5-19 00:59:15 | 显示全部楼层
楼主发贴辛苦了,谢谢楼主分享!我觉得蓝光电影网是注册对了!
回复 支持 反对

使用道具 举报

发表于 2020-5-20 14:14:24 | 显示全部楼层
楼主发贴辛苦了,谢谢楼主分享!我觉得蓝光电影网是注册对了!
回复 支持 反对

使用道具 举报

发表于 2020-5-21 13:21:08 | 显示全部楼层

这里真是个好地方,谢谢楼主分享
回复 支持 反对

使用道具 举报

发表于 2020-5-21 14:23:37 | 显示全部楼层
这东西我收了!谢谢楼主!蓝光电影网真好!
回复 支持 反对

使用道具 举报

懒得打字嘛,点击右侧快捷回复 【右侧内容,后台自定义】
您需要登录后才可以回帖 登录 | 立即加入

本版积分规则

现在加入蓝光电影网,注册一个账号
上个主题 下个主题 快速回复 收藏帖子 返回列表 客服中心 搜索

手机版|小黑屋| 蓝光电影网 |网站地图 

Copyright © 2015-2019 Comsenz Inc.  Template by 蓝光电影论坛 All Rights Reserved.

Powered by 蓝光电影网 X3.4

特别声明:本站所有资源均由网上收集而来,版权归原影音公司所有,如果侵犯了你的权益,请通知我们,我们会及时删除侵权内容.

快速回复 返回顶部 返回列表