找回密码

蓝光电影网

查看: 155|回复: 3

[10bit.SDR] 刺猬索尼克/超音鼠大电影 Sonic.the.Hedgehog.2020.2160p.BluRay.x265.10bit.SDR.DTS-HD.MA.TrueHD.7.1.Atmos-SWTYBLZ 21.17GB

[复制链接]

 成长值: 26125

发表于 2020-5-16 18:53:58 | 显示全部楼层 |阅读模式
刺猬索尼克/超音鼠大电影 Sonic.the.Hedgehog.2020.2160p.BluRay.x265.10bit.SDR.DTS-HD.MA.TrueHD.7.1.Atmos-SWTYBLZ 21.17GB-1.png

译  名 刺猬索尼克 / 超音鼠大电影(港) / 音速小子(台)
片  名 Sonic the Hedgehog
年  代 2020
产  地 加拿大 / 日本 / 美国
类  别 喜剧 / 动作 / 动画 / 冒险
语  言 英语
上映日期 2020(中国大陆) / 2020-02-14(美国)
IMDb评分  6.6/10 from 54920 users
IMDb链接  https://www.imdb.com/title/tt3794354
豆瓣评分 6.1/10 from 13688 users
豆瓣链接 https://movie.douban.com/subject/25905044/
片  长 99分钟
导  演 杰夫·福勒 Jeff Fowler
编  剧 范·罗比查乌克斯 Van Robichaux / 埃文·萨瑟 Evan Susser / 乔什·米勒 Josh Miller / Patrick Casey / 奥伦·尤济尔 Oren Uziel / 中裕司 Yuji Naka / Naoto Ohshima / Hirokazu Yasuhara
主  演 詹姆斯·麦斯登 James Marsden
       金·凯瑞 Jim Carrey
       本·施瓦茨 Ben Schwartz
       提卡·森普特 Tika Sumpter
       娜塔莎·罗斯韦尔 Natasha Rothwell
       亚当·佩里 Adam Pally
       李·马贾道布 Lee Majdoub
       尼尔·麦克唐纳 Neal McDonough
       汤姆·巴特勒 Tom Butler
       弗兰克·C·特纳 Frank C. Turner
       梅洛德·诺西普·尼曼 Melody Nosipho Niemann
       珊农·陈-肯特 Shannon Chan-Kent
       布拉德·凯利 Brad Kelly
       尔芬娜·卢克 Elfina Luk
       加里·切克 Gary Chalk
       迈克尔·霍根 Michael Hogan
       珍妮·克鲁蒂尔 Jeanie Cloutier
       贝利·斯科德里 Bailey Skodje
       杰夫·桑卡 Jeff Sanca
       丽莎·钱德勒 Lisa Chandler
       科琳·欧肖内希 Colleen O'Shaughnessey
       利安娜·拉普 Leanne Lapp


标  签 游戏改编 | 动画 | 美国 | 喜剧 | 科幻 | 2020 | 索尼克 | 游戏

简  介  

  改编自世嘉公司出品的风靡全球的电子游戏。电影讲述了拥有音速奔跑能力的刺猬索尼克在地球上展开新生活的故事。索尼克和他的新朋友汤姆(詹姆斯·麦斯登 饰)联手保护地球,阻止邪恶的蛋头博士(金·凯瑞 饰)统治世界的计划。这部适合全家观看的电影还邀请了迪卡·桑普特参演,本·施瓦茨为索尼克配音。
  1. Video
  2. ID                                       : 1
  3. Format                                   : HEVC
  4. Format/Info                              : High Efficiency Video Coding
  5. Format profile                           : Main High@L4@High
  6. Codec ID                                 : V_MPEGH/ISO/HEVC
  7. Duration                                 : 1 h 38 min
  8. Bit rate                                 : 20.7 Mb/s
  9. Width                                    : 3 840 pixels
  10. Height                                   : 1 608 pixels
  11. Display aspect ratio                     : 2.40:1
  12. Frame rate mode                          : Constant
  13. Frame rate                               : 23.976 (24000/1001/189150) FPS
  14. Color space                              : YUV
  15. Chroma subsampling                       : 4:2:0
  16. Bit depth                                : 10 bits
  17. Bits/(Pixel*Frame)                       : 0.140
  18. Stream size                              : 14.3 GiB (68%)
  19. Title                                    : Sonic.the.Hedgehog.2020.2160p.BluRay.x265.10bit.SDR.DTS-HD.MA.TrueHD.7.1.Atmos-SWTYBLZ
  20. Writing library                          : x265 3.0ed72af837053:[Windows][GCC 8.2.0][64 bit] 10bit
  21. Encoding settings                        : cpuid=1111039 / frame-threads=6 / numa-pools=40 / wpp / no-pmode / no-pme / no-psnr / no-ssim / log-level=2 / input-csp=1 / input-res=3840x1608 / interlace=0 / total-frames=142247 / level-idc=51 / high-tier=1 / uhd-bd=0 / ref=3 / no-allow-non-conformance / repeat-headers / annexb / aud / hrd / info / hash=0 / no-temporal-layers / no-open-gop / min-keyint=1 / keyint=24 / gop-lookahead=0 / bframes=4 / b-adapt=2 / b-pyramid / bframe-bias=0 / rc-lookahead=25 / lookahead-slices=4 / scenecut=40 / radl=0 / no-splice / no-intra-refresh / ctu=64 / min-cu-size=8 / no-rect / no-amp / max-tu-size=32 / tu-inter-depth=1 / tu-intra-depth=1 / limit-tu=0 / rdoq-level=0 / dynamic-rd=0.00 / no-ssim-rd / signhide / no-tskip / nr-intra=0 / nr-inter=0 / no-constrained-intra / strong-intra-smoothing / max-merge=2 / limit-refs=3 / no-limit-modes / me=1 / subme=2 / merange=57 / temporal-mvp / weightp / no-weightb / no-analyze-src-pics / deblock=0:0 / no-sao / no-sao-non-deblock / rd=3 / no-early-skip / rskip / no-fast-intra / no-tskip-fast / no-cu-lossless / no-b-intra / no-splitrd-skip / rdpenalty=0 / psy-rd=2.00 / psy-rdoq=0.00 / no-rd-refine / no-lossless / cbqpoffs=0 / crqpoffs=0 / rc=crf / crf=16.0 / qcomp=0.60 / qpstep=4 / stats-write=0 / stats-read=0 / vbv-maxrate=160000 / vbv-bufsize=160000 / vbv-init=0.9 / crf-max=0.0 / crf-min=0.0 / ipratio=1.40 / pbratio=1.30 / aq-mode=1 / aq-strength=1.00 / cutree / zone-count=0 / no-strict-cbr / qg-size=32 / no-rc-grain / qpmax=69 / qpmin=0 / no-const-vbv / sar=1 / overscan=0 / videoformat=5 / range=0 / colorprim=2 / transfer=2 / colormatrix=2 / chromaloc=0 / display-window=0 / max-cll=0,0 / min-luma=0 / max-luma=1023 / log2-max-poc-lsb=8 / vui-timing-info / vui-hrd-info / slices=1 / opt-qp-pps / opt-ref-list-length-pps / no-multi-pass-opt-rps / scenecut-bias=0.05 / no-opt-cu-delta-qp / no-aq-motion / no-hdr / no-hdr-opt / no-dhdr10-opt / no-idr-recovery-sei / analysis-reuse-level=5 / scale-factor=0 / refine-intra=0 / refine-inter=0 / refine-mv=0 / refine-ctu-distortion=0 / no-limit-sao / ctu-info=0 / no-lowpass-dct / refine-analysis-type=0 / copy-pic=1 / max-ausize-factor=1.0 / no-dynamic-refine / no-single-sei / no-hevc-aq / qp-adaptation-range=1.00
  22. Default                                  : Yes
  23. Forced                                   : No

  24. Audio #1
  25. ID                                       : 2
  26. Format                                   : MLP FBA 16-ch
  27. Format/Info                              : Meridian Lossless Packing FBA with 16-channel presentation
  28. Commercial name                          : Dolby TrueHD with Dolby Atmos
  29. Codec ID                                 : A_TRUEHD
  30. Duration                                 : 1 h 38 min
  31. Bit rate mode                            : Variable
  32. Bit rate                                 : 4 434 kb/s
  33. Maximum bit rate                         : 7 872 kb/s
  34. Channel(s)                               : 8 channels
  35. Channel layout                           : L R C LFE Ls Rs Lb Rb
  36. Sampling rate                            : 48.0 kHz
  37. Frame rate                               : 1 200.000 FPS (40 SPF)
  38. Compression mode                         : Lossless
  39. Stream size                              : 3.06 GiB (15%)
  40. Title                                    : Sonic.the.Hedgehog.2020.2160p.BluRay.x265.10bit.SDR.DTS-HD.MA.TrueHD.7.1.Atmos-SWTYBLZ
  41. Language                                 : English
  42. Default                                  : Yes
  43. Forced                                   : No
  44. Number of dynamic objects                : 11
  45. Bed channel count                        : 1 channel
  46. Bed channel configuration                : LFE

  47. Audio #2
  48. ID                                       : 3
  49. Format                                   : DTS XLL
  50. Format/Info                              : Digital Theater Systems
  51. Commercial name                          : DTS-HD Master Audio
  52. Codec ID                                 : A_DTS
  53. Duration                                 : 1 h 38 min
  54. Bit rate mode                            : Variable
  55. Bit rate                                 : 4 188 kb/s
  56. Channel(s)                               : 8 channels
  57. Channel layout                           : C L R LFE Lb Rb Lss Rss
  58. Sampling rate                            : 48.0 kHz
  59. Frame rate                               : 93.750 FPS (512 SPF)
  60. Bit depth                                : 24 bits
  61. Compression mode                         : Lossless
  62. Stream size                              : 2.89 GiB (14%)
  63. Title                                    : Sonic.the.Hedgehog.2020.2160p.BluRay.x265.10bit.SDR.DTS-HD.MA.TrueHD.7.1.Atmos-SWTYBLZ
  64. Language                                 : English
  65. Default                                  : No
  66. Forced                                   : No

  67. Audio #3
  68. ID                                       : 4
  69. Format                                   : AC-3
  70. Format/Info                              : Audio Coding 3
  71. Commercial name                          : Dolby Digital
  72. Codec ID                                 : A_AC3
  73. Duration                                 : 1 h 38 min
  74. Bit rate mode                            : Constant
  75. Bit rate                                 : 640 kb/s
  76. Channel(s)                               : 6 channels
  77. Channel layout                           : L R C LFE Ls Rs
  78. Sampling rate                            : 48.0 kHz
  79. Frame rate                               : 31.250 FPS (1536 SPF)
  80. Bit depth                                : 16 bits
  81. Compression mode                         : Lossy
  82. Stream size                              : 453 MiB (2%)
  83. Title                                    : Sonic.the.Hedgehog.2020.2160p.BluRay.x265.10bit.SDR.DTS-HD.MA.TrueHD.7.1.Atmos-SWTYBLZ
  84. Language                                 : English
  85. Service kind                             : Complete Main
  86. Default                                  : No
  87. Forced                                   : No

  88. Text #1
  89. ID                                       : 5
  90. Format                                   : UTF-8
  91. Codec ID                                 : S_TEXT/UTF8
  92. Codec ID/Info                            : UTF-8 Plain Text
  93. Duration                                 : 1 h 31 min
  94. Bit rate                                 : 65 b/s
  95. Count of elements                        : 1276
  96. Stream size                              : 43.8 KiB (0%)
  97. Title                                    : English-SRT
  98. Language                                 : English
  99. Default                                  : Yes
  100. Forced                                   : No

  101. Text #2
  102. ID                                       : 6
  103. Format                                   : PGS
  104. Muxing mode                              : zlib
  105. Codec ID                                 : S_HDMV/PGS
  106. Codec ID/Info                            : Picture based subtitle format used on BDs/HD-DVDs
  107. Duration                                 : 1 h 31 min
  108. Bit rate                                 : 45.2 kb/s
  109. Count of elements                        : 2564
  110. Stream size                              : 29.6 MiB (0%)
  111. Title                                    : English-PGS
  112. Language                                 : English
  113. Default                                  : No
  114. Forced                                   : No

  115. Text #3
  116. ID                                       : 7
  117. Format                                   : PGS
  118. Muxing mode                              : zlib
  119. Codec ID                                 : S_HDMV/PGS
  120. Codec ID/Info                            : Picture based subtitle format used on BDs/HD-DVDs
  121. Duration                                 : 1 h 32 min
  122. Bit rate                                 : 51.8 kb/s
  123. Count of elements                        : 3184
  124. Stream size                              : 34.3 MiB (0%)
  125. Title                                    : English-SDH-PGS
  126. Language                                 : English
  127. Default                                  : No
  128. Forced                                   : No

  129. Text #4
  130. ID                                       : 8
  131. Format                                   : PGS
  132. Muxing mode                              : zlib
  133. Codec ID                                 : S_HDMV/PGS
  134. Codec ID/Info                            : Picture based subtitle format used on BDs/HD-DVDs
  135. Duration                                 : 1 h 37 min
  136. Bit rate                                 : 32.0 kb/s
  137. Count of elements                        : 2588
  138. Stream size                              : 22.3 MiB (0%)
  139. Title                                    : Chinese-PGS
  140. Language                                 : Chinese
  141. Default                                  : No
  142. Forced                                   : No

  143. Text #5
  144. ID                                       : 9
  145. Format                                   : PGS
  146. Muxing mode                              : zlib
  147. Codec ID                                 : S_HDMV/PGS
  148. Codec ID/Info                            : Picture based subtitle format used on BDs/HD-DVDs
  149. Duration                                 : 1 h 37 min
  150. Bit rate                                 : 30.0 kb/s
  151. Count of elements                        : 2624
  152. Stream size                              : 20.9 MiB (0%)
  153. Title                                    : Chinese-PGS
  154. Language                                 : Chinese
  155. Default                                  : No
  156. Forced                                   : No

  157. Text #6
  158. ID                                       : 10
  159. Format                                   : PGS
  160. Muxing mode                              : zlib
  161. Codec ID                                 : S_HDMV/PGS
  162. Codec ID/Info                            : Picture based subtitle format used on BDs/HD-DVDs
  163. Duration                                 : 1 h 37 min
  164. Bit rate                                 : 36.4 kb/s
  165. Count of elements                        : 2540
  166. Stream size                              : 25.4 MiB (0%)
  167. Title                                    : Czech-PGS
  168. Language                                 : Czech
  169. Default                                  : No
  170. Forced                                   : No

  171. Text #7
  172. ID                                       : 11
  173. Format                                   : PGS
  174. Muxing mode                              : zlib
  175. Codec ID                                 : S_HDMV/PGS
  176. Codec ID/Info                            : Picture based subtitle format used on BDs/HD-DVDs
  177. Duration                                 : 1 h 37 min
  178. Bit rate                                 : 36.0 kb/s
  179. Count of elements                        : 2512
  180. Stream size                              : 25.1 MiB (0%)
  181. Title                                    : Danish-PGS
  182. Language                                 : Danish
  183. Default                                  : No
  184. Forced                                   : No

  185. Text #8
  186. ID                                       : 12
  187. Format                                   : PGS
  188. Muxing mode                              : zlib
  189. Codec ID                                 : S_HDMV/PGS
  190. Codec ID/Info                            : Picture based subtitle format used on BDs/HD-DVDs
  191. Duration                                 : 1 h 37 min
  192. Bit rate                                 : 34.5 kb/s
  193. Count of elements                        : 2466
  194. Stream size                              : 24.1 MiB (0%)
  195. Title                                    : Dutch-PGS
  196. Language                                 : Dutch
  197. Default                                  : No
  198. Forced                                   : No

  199. Text #9
  200. ID                                       : 13
  201. Format                                   : PGS
  202. Muxing mode                              : zlib
  203. Codec ID                                 : S_HDMV/PGS
  204. Codec ID/Info                            : Picture based subtitle format used on BDs/HD-DVDs
  205. Duration                                 : 1 h 37 min
  206. Bit rate                                 : 36.8 kb/s
  207. Count of elements                        : 2618
  208. Stream size                              : 25.7 MiB (0%)
  209. Title                                    : Finnish-PGS
  210. Language                                 : Finnish
  211. Default                                  : No
  212. Forced                                   : No

  213. Text #10
  214. ID                                       : 14
  215. Format                                   : PGS
  216. Muxing mode                              : zlib
  217. Codec ID                                 : S_HDMV/PGS
  218. Codec ID/Info                            : Picture based subtitle format used on BDs/HD-DVDs
  219. Duration                                 : 1 h 37 min
  220. Bit rate                                 : 44.1 kb/s
  221. Count of elements                        : 2594
  222. Stream size                              : 30.8 MiB (0%)
  223. Title                                    : French-PGS
  224. Language                                 : French
  225. Default                                  : No
  226. Forced                                   : No

  227. Text #11
  228. ID                                       : 15
  229. Format                                   : PGS
  230. Muxing mode                              : zlib
  231. Codec ID                                 : S_HDMV/PGS
  232. Codec ID/Info                            : Picture based subtitle format used on BDs/HD-DVDs
  233. Duration                                 : 1 h 37 min
  234. Bit rate                                 : 32.9 kb/s
  235. Count of elements                        : 2468
  236. Stream size                              : 23.0 MiB (0%)
  237. Title                                    : French-PGS
  238. Language                                 : French
  239. Default                                  : No
  240. Forced                                   : No

  241. Text #12
  242. ID                                       : 16
  243. Format                                   : PGS
  244. Muxing mode                              : zlib
  245. Codec ID                                 : S_HDMV/PGS
  246. Codec ID/Info                            : Picture based subtitle format used on BDs/HD-DVDs
  247. Duration                                 : 1 h 37 min
  248. Bit rate                                 : 41.7 kb/s
  249. Count of elements                        : 2494
  250. Stream size                              : 29.1 MiB (0%)
  251. Title                                    : German-PGS
  252. Language                                 : German
  253. Default                                  : No
  254. Forced                                   : No

  255. Text #13
  256. ID                                       : 17
  257. Format                                   : PGS
  258. Muxing mode                              : zlib
  259. Codec ID                                 : S_HDMV/PGS
  260. Codec ID/Info                            : Picture based subtitle format used on BDs/HD-DVDs
  261. Duration                                 : 1 h 37 min
  262. Bit rate                                 : 40.9 kb/s
  263. Count of elements                        : 2252
  264. Stream size                              : 28.5 MiB (0%)
  265. Title                                    : Greek-PGS
  266. Language                                 : Greek
  267. Default                                  : No
  268. Forced                                   : No

  269. Text #14
  270. ID                                       : 18
  271. Format                                   : PGS
  272. Muxing mode                              : zlib
  273. Codec ID                                 : S_HDMV/PGS
  274. Codec ID/Info                            : Picture based subtitle format used on BDs/HD-DVDs
  275. Duration                                 : 1 h 37 min
  276. Bit rate                                 : 39.2 kb/s
  277. Count of elements                        : 2572
  278. Stream size                              : 27.4 MiB (0%)
  279. Title                                    : Italian-PGS
  280. Language                                 : Italian
  281. Default                                  : No
  282. Forced                                   : No

  283. Text #15
  284. ID                                       : 19
  285. Format                                   : PGS
  286. Muxing mode                              : zlib
  287. Codec ID                                 : S_HDMV/PGS
  288. Codec ID/Info                            : Picture based subtitle format used on BDs/HD-DVDs
  289. Duration                                 : 1 h 31 min
  290. Bit rate                                 : 26.5 kb/s
  291. Count of elements                        : 2410
  292. Stream size                              : 17.4 MiB (0%)
  293. Title                                    : Japanese-PGS
  294. Language                                 : Japanese
  295. Default                                  : No
  296. Forced                                   : No

  297. Text #16
  298. ID                                       : 20
  299. Format                                   : PGS
  300. Muxing mode                              : zlib
  301. Codec ID                                 : S_HDMV/PGS
  302. Codec ID/Info                            : Picture based subtitle format used on BDs/HD-DVDs
  303. Duration                                 : 1 h 37 min
  304. Bit rate                                 : 23.6 kb/s
  305. Count of elements                        : 2630
  306. Stream size                              : 16.5 MiB (0%)
  307. Title                                    : Korean-PGS
  308. Language                                 : Korean
  309. Default                                  : No
  310. Forced                                   : No

  311. Text #17
  312. ID                                       : 21
  313. Format                                   : PGS
  314. Muxing mode                              : zlib
  315. Codec ID                                 : S_HDMV/PGS
  316. Codec ID/Info                            : Picture based subtitle format used on BDs/HD-DVDs
  317. Duration                                 : 1 h 37 min
  318. Bit rate                                 : 47.9 kb/s
  319. Count of elements                        : 2614
  320. Stream size                              : 33.5 MiB (0%)
  321. Title                                    : Malay-PGS
  322. Language                                 : Malay
  323. Default                                  : No
  324. Forced                                   : No

  325. Text #18
  326. ID                                       : 22
  327. Format                                   : PGS
  328. Muxing mode                              : zlib
  329. Codec ID                                 : S_HDMV/PGS
  330. Codec ID/Info                            : Picture based subtitle format used on BDs/HD-DVDs
  331. Duration                                 : 1 h 37 min
  332. Bit rate                                 : 34.5 kb/s
  333. Count of elements                        : 2584
  334. Stream size                              : 24.1 MiB (0%)
  335. Title                                    : Norwegian-PGS
  336. Language                                 : Norwegian
  337. Default                                  : No
  338. Forced                                   : No

  339. Text #19
  340. ID                                       : 23
  341. Format                                   : PGS
  342. Muxing mode                              : zlib
  343. Codec ID                                 : S_HDMV/PGS
  344. Codec ID/Info                            : Picture based subtitle format used on BDs/HD-DVDs
  345. Duration                                 : 1 h 37 min
  346. Bit rate                                 : 37.2 kb/s
  347. Count of elements                        : 2572
  348. Stream size                              : 26.0 MiB (0%)
  349. Title                                    : Romanian-PGS
  350. Language                                 : Romanian
  351. Default                                  : No
  352. Forced                                   : No

  353. Text #20
  354. ID                                       : 24
  355. Format                                   : PGS
  356. Muxing mode                              : zlib
  357. Codec ID                                 : S_HDMV/PGS
  358. Codec ID/Info                            : Picture based subtitle format used on BDs/HD-DVDs
  359. Duration                                 : 1 h 37 min
  360. Bit rate                                 : 33.3 kb/s
  361. Count of elements                        : 2510
  362. Stream size                              : 23.2 MiB (0%)
  363. Title                                    : Portuguese-PGS
  364. Language                                 : Portuguese
  365. Default                                  : No
  366. Forced                                   : No

  367. Text #21
  368. ID                                       : 25
  369. Format                                   : PGS
  370. Muxing mode                              : zlib
  371. Codec ID                                 : S_HDMV/PGS
  372. Codec ID/Info                            : Picture based subtitle format used on BDs/HD-DVDs
  373. Duration                                 : 1 h 37 min
  374. Bit rate                                 : 38.2 kb/s
  375. Count of elements                        : 2588
  376. Stream size                              : 26.7 MiB (0%)
  377. Title                                    : Russian-PGS
  378. Language                                 : Russian
  379. Default                                  : No
  380. Forced                                   : No

  381. Text #22
  382. ID                                       : 26
  383. Format                                   : PGS
  384. Muxing mode                              : zlib
  385. Codec ID                                 : S_HDMV/PGS
  386. Codec ID/Info                            : Picture based subtitle format used on BDs/HD-DVDs
  387. Duration                                 : 1 h 37 min
  388. Bit rate                                 : 38.6 kb/s
  389. Count of elements                        : 2528
  390. Stream size                              : 26.9 MiB (0%)
  391. Title                                    : Spanish-PGS
  392. Language                                 : Spanish
  393. Default                                  : No
  394. Forced                                   : No

  395. Text #23
  396. ID                                       : 27
  397. Format                                   : PGS
  398. Muxing mode                              : zlib
  399. Codec ID                                 : S_HDMV/PGS
  400. Codec ID/Info                            : Picture based subtitle format used on BDs/HD-DVDs
  401. Duration                                 : 1 h 37 min
  402. Bit rate                                 : 40.7 kb/s
  403. Count of elements                        : 2618
  404. Stream size                              : 28.4 MiB (0%)
  405. Title                                    : Spanish-PGS
  406. Language                                 : Spanish
  407. Default                                  : No
  408. Forced                                   : No

  409. Text #24
  410. ID                                       : 28
  411. Format                                   : PGS
  412. Muxing mode                              : zlib
  413. Codec ID                                 : S_HDMV/PGS
  414. Codec ID/Info                            : Picture based subtitle format used on BDs/HD-DVDs
  415. Duration                                 : 1 h 37 min
  416. Bit rate                                 : 36.1 kb/s
  417. Count of elements                        : 2578
  418. Stream size                              : 25.2 MiB (0%)
  419. Title                                    : Swedish-PGS
  420. Language                                 : Swedish
  421. Default                                  : No
  422. Forced                                   : No

  423. Text #25
  424. ID                                       : 29
  425. Format                                   : PGS
  426. Muxing mode                              : zlib
  427. Codec ID                                 : S_HDMV/PGS
  428. Codec ID/Info                            : Picture based subtitle format used on BDs/HD-DVDs
  429. Duration                                 : 1 h 37 min
  430. Bit rate                                 : 33.5 kb/s
  431. Count of elements                        : 2630
  432. Stream size                              : 23.4 MiB (0%)
  433. Title                                    : Thai-PGS
  434. Language                                 : Thai
  435. Default                                  : No
  436. Forced                                   : No

  437. Text #26
  438. ID                                       : 30
  439. Format                                   : PGS
  440. Muxing mode                              : zlib
  441. Codec ID                                 : S_HDMV/PGS
  442. Codec ID/Info                            : Picture based subtitle format used on BDs/HD-DVDs
  443. Duration                                 : 1 h 37 min
  444. Bit rate                                 : 42.7 kb/s
  445. Count of elements                        : 2588
  446. Stream size                              : 29.8 MiB (0%)
  447. Title                                    : Turkish-PGS
  448. Language                                 : Turkish
  449. Default                                  : No
  450. Forced                                   : No

  451. Menu
  452. 00:00:00.000                             : en:Chapter 1
  453. 00:03:51.857                             : en:Chapter 2
  454. 00:09:32.989                             : en:Chapter 3
  455. 00:12:45.974                             : en:Chapter 4
  456. 00:18:09.422                             : en:Chapter 5
  457. 00:22:20.339                             : en:Chapter 6
  458. 00:27:33.694                             : en:Chapter 7
  459. 00:35:09.316                             : en:Chapter 8
  460. 00:41:37.328                             : en:Chapter 9
  461. 00:51:24.623                             : en:Chapter 10
  462. 01:01:04.828                             : en:Chapter 11
  463. 01:04:38.208                             : en:Chapter 12
  464. 01:10:20.341                             : en:Chapter 13
  465. 01:18:54.021                             : en:Chapter 14
  466. 01:25:38.717                             : en:Chapter 15
  467. 01:30:27.297                             : en:Chapter 16
复制代码

185423yxn85hhiqq55nrz5.png 刺猬索尼克/超音鼠大电影 Sonic.the.Hedgehog.2020.2160p.BluRay.x265.10bit.SDR.DTS-HD.MA.TrueHD.7.1.Atmos-SWTYBLZ 21.17GB-3.png 刺猬索尼克/超音鼠大电影 Sonic.the.Hedgehog.2020.2160p.BluRay.x265.10bit.SDR.DTS-HD.MA.TrueHD.7.1.Atmos-SWTYBLZ 21.17GB-4.png 刺猬索尼克/超音鼠大电影 Sonic.the.Hedgehog.2020.2160p.BluRay.x265.10bit.SDR.DTS-HD.MA.TrueHD.7.1.Atmos-SWTYBLZ 21.17GB-5.png 刺猬索尼克/超音鼠大电影 Sonic.the.Hedgehog.2020.2160p.BluRay.x265.10bit.SDR.DTS-HD.MA.TrueHD.7.1.Atmos-SWTYBLZ 21.17GB-6.png 刺猬索尼克/超音鼠大电影 Sonic.the.Hedgehog.2020.2160p.BluRay.x265.10bit.SDR.DTS-HD.MA.TrueHD.7.1.Atmos-SWTYBLZ 21.17GB-7.png








回复

使用道具 举报

发表于 2020-5-16 20:39:35 | 显示全部楼层
楼主发贴辛苦了,谢谢楼主分享!我觉得蓝光电影网是注册对了!
回复 支持 反对

使用道具 举报

发表于 2020-5-18 02:12:30 | 显示全部楼层
楼主发贴辛苦了,谢谢楼主分享!我觉得蓝光电影网是注册对了!
回复 支持 反对

使用道具 举报

发表于 2020-5-18 21:00:08 | 显示全部楼层
谢谢楼主分享
回复 支持 反对

使用道具 举报

懒得打字嘛,点击右侧快捷回复 【右侧内容,后台自定义】
您需要登录后才可以回帖 登录 | 立即加入

本版积分规则

现在加入蓝光电影网,注册一个账号
上个主题 下个主题 快速回复 收藏帖子 返回列表 客服中心 搜索

手机版|小黑屋| 蓝光电影网 |网站地图 

Copyright © 2015-2019 Comsenz Inc.  Template by 蓝光电影论坛 All Rights Reserved.

Powered by 蓝光电影网 X3.4

特别声明:本站所有资源均由网上收集而来,版权归原影音公司所有,如果侵犯了你的权益,请通知我们,我们会及时删除侵权内容.

快速回复 返回顶部 返回列表