找回密码

蓝光电影网

查看: 648|回复: 17

[2160p-WEB] 大病/情人眼里巴基斯 The.Big.Sick.2017.HDR.2160p.WEB.h265-WATCHER 12.93GB

[复制链接]

 成长值: 26125

发表于 2020-5-11 15:53:56 | 显示全部楼层 |阅读模式
大病/情人眼里巴基斯 The.Big.Sick.2017.HDR.2160p.WEB.h265-WATCHER 12.93GB-1.png

译  名 大病 / 情人眼里巴基斯(港) / 爱情昏迷中(台)
片  名 The Big Sick
年  代 2017
产  地 美国
类  别 喜剧 / 爱情
语  言 英语 / 乌尔都语
上映日期 2017-01-20(圣丹斯电影节) / 2017-07-14(美国)
IMDb评分  7.5/10 from 114198 users
IMDb链接  https://www.imdb.com/title/tt5462602
豆瓣评分 7.5/10 from 17523 users
豆瓣链接 https://movie.douban.com/subject/26884892/
片  长 120分钟
导  演 迈克尔·修华特 Michael Showalter
编  剧 艾米丽·V·戈登 Emily V. Gordon / 库梅尔·南贾尼 Kumail Nanjiani
主  演 库梅尔·南贾尼 Kumail Nanjiani
       佐伊·卡赞 Zoe Kazan
       霍利·亨特 Holly Hunter
       雷·罗马诺 Ray Romano
       阿努潘·凯尔 Anupam Kher
       泽诺比娅·谢罗夫 Zenobia Shroff
       阿迪勒·阿赫塔尔 Adeel Akhtar
       博·伯翰 Bo Burnham
       艾迪·布莱恩特 Aidy Bryant
       库尔特·布劳诺勒 Kurt Braunohler
       维拉.洛弗尔 Vella Lovell
       迈拉·卢克利希亚·泰勒 Myra Lucretia Taylor
       杰里米·萨默斯 Jeremy Shamos
       大卫·艾兰·格里尔 David Alan Grier
       艾德·赫伯斯特曼 Ed Herbstman
       琳达·伊蒙 Linda Emond
       马修·卡德罗普 Matthew Cardarople


标  签 爱情 | 美国 | 喜剧 | 2017 | 温情 | 治愈 | 剧情 | 独立

简  介  

  基于库梅尔·南贾尼与艾米丽·V·戈登之间的真实恋爱经历改编。生于巴基斯坦的喜剧演员库梅尔·南贾尼(库梅尔·南贾尼本人),在自己的一场单口喜剧表演之后,认识了正在读研究生的艾米丽·V·戈登(佐伊·卡赞)。两人之间的一夜情慢慢发展为正式的交往,而库梅尔的家庭则要求他遵循巴基斯坦的包办婚姻传统,与家里介绍的穆斯林女性结婚。在艾米丽遭受一场突如其来的疾病并进入昏迷状态之后,库梅尔与艾米丽的父母一起面对这场危机,并不得不与在家庭与自己追求的美式生活之间作出选择。

获奖情况  

  第90届奥斯卡金像奖(2018)
  最佳原创剧本(提名) 库梅尔·南贾尼 / 艾米丽·V·戈登

  第70届洛迦诺国际电影节(2017)
  观众选择奖 迈克尔·肖沃特

  第24届美国演员工会奖(2018)
  电影奖 最佳女配角(提名) 霍利·亨特
  电影奖 最佳群戏(提名)

  第70届美国编剧工会奖(2018)
  电影奖 最佳原创剧本(提名) 库梅尔·南贾尼 / 艾米丽·V·戈登

  第29届美国制片人工会奖(2018)
  最佳电影制片人奖(提名)

  第23届美国评论家选择电影奖(2018)
  最佳影片(提名)
  最佳女配角(提名) 霍利·亨特
  最佳喜剧片
  喜剧片最佳男主角(提名) 库梅尔·南贾尼
  喜剧片最佳女主角(提名) 佐伊·卡赞
  最佳原创剧本(提名) 艾米丽·V·戈登

  第33届美国独立精神奖(2018)
  最佳女配角(提名) 霍利·亨特
  最佳处女作剧本 库梅尔·南贾尼 / 艾米丽·V·戈登

  第27届哥谭独立电影奖(2017)
  最佳剧本(提名) 库梅尔·南贾尼 / 艾米丽·V·戈登

  第18届美国电影学会奖(2017)
  年度佳片

  第22届金卫星奖(2018)
  电影部门 最佳剧情片(提名)
  电影部门 最佳女配角(提名) 霍利·亨特

  第30届芝加哥影评人协会奖(2017)
  最佳女配角(提名) 霍利·亨特
  最佳原创剧本(提名) 库梅尔·南贾尼 / 艾米丽·V·戈登

  第21届美国在线影评人协会奖(2017)
  最佳女配角(提名) 霍利·亨特

  第4届豆瓣电影年度榜单(2017)
  评分最高的喜剧片(提名)
  评分最高的爱情片(提名)
  1. Video
  2. ID                                       : 1
  3. Format                                   : HEVC
  4. Format/Info                              : High Efficiency Video Coding
  5. Format profile                           : Main High@L4@Main
  6. HDR format                               : SMPTE ST 2094 App 4, Version 0
  7. Codec ID                                 : V_MPEGH/ISO/HEVC
  8. Duration                                 : 1 h 59 min
  9. Bit rate                                 : 14.7 Mb/s
  10. Width                                    : 3 840 pixels
  11. Height                                   : 2 080 pixels
  12. Display aspect ratio                     : 1.85:1
  13. Frame rate mode                          : Constant
  14. Frame rate                               : 23.976 (24000/1001/189150) FPS
  15. Standard                                 : NTSC
  16. Color space                              : YUV
  17. Chroma subsampling                       : 4:2:0 (Type 2)
  18. Bit depth                                : 10 bits
  19. Bits/(Pixel*Frame)                       : 0.077
  20. Stream size                              : 12.3 GiB (96%)
  21. Default                                  : Yes
  22. Forced                                   : No
  23. Color range                              : Limited
  24. Color primaries                          : BT.2020
  25. Transfer characteristics                 : PQ
  26. Matrix coefficients                      : BT.2020 non-constant
  27. Mastering display color primaries        : Display P3
  28. Mastering display luminance              : min: 0.0001 cd/m2, max: 1000 cd/m2
  29. Maximum Content Light Level              : 1409 cd/m2
  30. Maximum Frame-Average Light Level        : 50 cd/m2

  31. Audio
  32. ID                                       : 2
  33. Format                                   : E-AC-3
  34. Format/Info                              : Enhanced AC-3
  35. Commercial name                          : Dolby Digital Plus
  36. Codec ID                                 : A_EAC3
  37. Duration                                 : 1 h 59 min
  38. Bit rate mode                            : Constant
  39. Bit rate                                 : 640 kb/s
  40. Channel(s)                               : 6 channels
  41. Channel layout                           : L R C LFE Ls Rs
  42. Sampling rate                            : 48.0 kHz
  43. Frame rate                               : 31.250 FPS (1536 SPF)
  44. Compression mode                         : Lossy
  45. Stream size                              : 549 MiB (4%)
  46. Title                                    : English
  47. Language                                 : English
  48. Service kind                             : Complete Main
  49. Default                                  : Yes
  50. Forced                                   : No

  51. Text
  52. ID                                       : 3
  53. Format                                   : UTF-8
  54. Codec ID                                 : S_TEXT/UTF8
  55. Codec ID/Info                            : UTF-8 Plain Text
  56. Duration                                 : 1 h 59 min
  57. Bit rate                                 : 98 b/s
  58. Count of elements                        : 2670
  59. Stream size                              : 86.2 KiB (0%)
  60. Title                                    : English [Full]
  61. Language                                 : English
  62. Default                                  : No
  63. Forced                                   : No

  64. Menu
  65. 00:00:00.000                             : en:Amazon Studios
  66. 00:00:20.000                             : en:Studio Logo
  67. 00:00:44.000                             : en:A day in the life of Kumail
  68. 00:05:13.000                             : en:The gang gets drink after their gig
  69. 00:07:29.000                             : en:Kumail invites Emily back to his place
  70. 00:13:18.000                             : en:Kumail joins his family for dinner
  71. 00:17:06.000                             : en:Kumail shows Emily his favorite movie
  72. 00:20:17.000                             : en:Kumail continues to see Emily as the drop-ins keep coming
  73. 00:20:50.000                             : en:Emily sees Kumail's one man show
  74. 00:24:12.000                             : en:Sometimes there are things not to be known in a relationship
  75. 00:26:09.000                             : en:Kumail accompanies Naveed to the batting cages
  76. 00:28:43.000                             : en:Emily drops the ball on her past relationship
  77. 00:31:07.000                             : en:Emily asks Kumail to lunch with her parents
  78. 00:35:41.000                             : en:Kumail learns to be without Emily
  79. 00:36:57.000                             : en:One of the women invited impress the family with a magic trick
  80. 00:38:10.000                             : en:Bob Dalavan finds Kumail's set entertaining
  81. 00:39:36.000                             : en:Kumail's receives a late night phone call from Jesse
  82. 00:44:42.000                             : en:Kumail joins Emily's family to hear different Doctor's opinions
  83. 00:47:55.000                             : en:The comedy group share pitch their skits
  84. 00:49:04.000                             : en:Kumail goes back to the hospital
  85. 00:53:38.000                             : en:Kumail takes Emily's family back to her apartment
  86. 00:57:56.000                             : en:Where's Kumail
  87. 01:02:26.000                             : en:Kumail drives Emily's parents home from the comedy show
  88. 01:08:18.000                             : en:Kumail listens to old messages of Emily
  89. 01:09:27.000                             : en:Kumail and Emily's parents receive good news
  90. 01:09:57.000                             : en:Kumail  has dinner with his parents and a long awaited guest
  91. 01:13:06.000                             : en:Dr. Cunningham gives Terry unfortunate news
  92. 01:17:43.000                             : en:Terry spends the night away from Beth
  93. 01:22:21.000                             : en:Kumail gets a surprise visit from his parents
  94. 01:26:24.000                             : en:Kumail deals with the emotional stress with some quick 'n hot
  95. 01:29:29.000                             : en:Kumail returns to the comedy club
  96. 01:32:31.000                             : en:Kumil receives big news
  97. 01:38:10.000                             : en:Kumail's friends try to cheer him up backstage
  98. 01:39:43.000                             : en:Kumail attends Emily's welcome home party
  99. 01:43:25.000                             : en:Kumail  focuses on his career while Emily focuses on her health
  100. 01:44:16.000                             : en:Kumail unveils his new comedy skit to his family
  101. 01:46:30.000                             : en:Emily watches Kumail's worst bomb in history
  102. 01:47:42.000                             : en:Emily stops by after Kumail's show
  103. 01:53:12.000                             : en:Kumail's friends and families wish him off
  104. 01:55:42.000                             : en:Kumail performs in New York
  105. 01:57:27.000                             : en:End Credits
复制代码

大病/情人眼里巴基斯 The.Big.Sick.2017.HDR.2160p.WEB.h265-WATCHER 12.93GB-2.png 大病/情人眼里巴基斯 The.Big.Sick.2017.HDR.2160p.WEB.h265-WATCHER 12.93GB-3.png 大病/情人眼里巴基斯 The.Big.Sick.2017.HDR.2160p.WEB.h265-WATCHER 12.93GB-4.png







回复

使用道具 举报

 成长值: 3550

发表于 2020-5-11 16:21:00 | 显示全部楼层
太好啦&萬分感謝版主的無私發佈分享%
回复 支持 反对

使用道具 举报

发表于 2020-5-11 20:49:40 | 显示全部楼层
楼主发贴辛苦了,谢谢楼主分享!我觉得蓝光电影网是注册对了!
回复 支持 反对

使用道具 举报

发表于 2020-5-11 21:40:06 | 显示全部楼层
小 女 骇 的 副 利 【 w w w . u k 5 . m e
回复 支持 反对

使用道具 举报

发表于 2020-5-11 23:03:59 | 显示全部楼层
楼主发贴辛苦了,谢谢楼主分享!我觉得蓝光电影网是注册对了!
回复 支持 反对

使用道具 举报

发表于 2020-5-11 23:27:37 | 显示全部楼层
楼主发贴辛苦了,谢谢楼主分享!我觉得蓝光电影网是注册对了!
回复 支持 反对

使用道具 举报

发表于 2020-5-11 23:46:00 | 显示全部楼层

这东西我收了!谢谢楼主!蓝光电影网真好!
回复 支持 反对

使用道具 举报

发表于 2020-5-12 00:01:27 | 显示全部楼层
楼主发贴辛苦了,谢谢楼主分享!我觉得蓝光电影网是注册对了!
回复 支持 反对

使用道具 举报

发表于 2020-5-12 08:03:33 | 显示全部楼层
楼主发贴辛苦了,谢谢楼主分享!我觉得蓝光电影网是注册对了!
回复 支持 反对

使用道具 举报

发表于 2020-5-13 23:59:52 | 显示全部楼层
楼主发贴辛苦了,谢谢楼主分享!我觉得蓝光电影网是注册对了!
回复 支持 反对

使用道具 举报

懒得打字嘛,点击右侧快捷回复 【右侧内容,后台自定义】
您需要登录后才可以回帖 登录 | 立即加入

本版积分规则

现在加入蓝光电影网,注册一个账号
上个主题 下个主题 快速回复 收藏帖子 返回列表 客服中心 搜索

手机版|小黑屋| 蓝光电影网 |网站地图 

Copyright © 2015-2019 Comsenz Inc.  Template by 蓝光电影论坛 All Rights Reserved.

Powered by 蓝光电影网 X3.4

特别声明:本站所有资源均由网上收集而来,版权归原影音公司所有,如果侵犯了你的权益,请通知我们,我们会及时删除侵权内容.

快速回复 返回顶部 返回列表