找回密码

蓝光电影网

查看: 1208|回复: 24

[2160p-WEB] 第九区/D-9异形禁区 District.9.2009.HDR.2160p.WEB.h265-WATCHER 12.10GB

[复制链接]

 成长值: 26125

发表于 2020-5-11 15:52:57 | 显示全部楼层 |阅读模式
第九区/D-9异形禁区 District.9.2009.HDR.2160p.WEB.h265-WATCHER 12.10GB-1.png

译  名 第九区 / D-9异形禁区 / 第9区 / 第九禁区
片  名 District 9
年  代 2009
产  地 美国 / 新西兰 / 加拿大 / 南非
类  别 剧情 / 动作 / 科幻 / 惊悚
语  言 英语 / 尼扬贾语 / 南非荷兰语 / 祖鲁语 / 科萨语 / 塞索托语
上映日期 2009-08-14(美国) / 2009-11-27(中国大陆)
IMDb评分  7.9/10 from 624362 users
IMDb链接  https://www.imdb.com/title/tt1136608
豆瓣评分 8.2/10 from 334481 users
豆瓣链接 https://movie.douban.com/subject/3006772/
片  长 112分钟
导  演 尼尔·布洛姆坎普 Neill Blomkamp
编  剧 尼尔·布洛姆坎普 Neill Blomkamp / 特丽·塔歇尔 Terri Tatchell
主  演 沙尔托·科普雷 Sharlto Copley
       詹森·库伯 Jason Cope
       娜塔莉·博尔特 Nathalie Boltt
       茜尔雯·斯特赖克 Sylvaine Strike
       约翰·萨莫尔 John Sumner
       威廉·艾伦·扬 William Allen Young
       尼克·布雷克 Nick Blake
       杰德·布罗菲 Jed Brophy
       路易斯·米纳尔 Louis Minnaar
       瓦妮莎·海伍德 Vanessa Haywood
       玛丽安·胡曼 Marian Hooman
       维多利奥·莱奥纳迪 Vittorio Leonardi
       曼德拉·加杜卡 Mandla Gaduka
       约翰·范·肖尔 Johan van Schoor
       斯特拉·斯廷坎普 Stella Steenkamp
       戴维·詹姆斯 David James
       肯尼思·恩科西 Kenneth Nkosi
       蒂姆·戈登 Tim Gordon
       莫尔内·埃拉斯姆斯 Morne Erasmus
       尤金·孔巴尼瓦 Eugene Khumbanyiwa
       赫棱基维·马德拉拉 Hlengiwe Madlala
       西雅邦加·拉德贝 Siyabonga Radebe
       梅尔特·西贝尔哈亨 Melt Sieberhagen
       安德勒·奥登达尔 Andre Odendaal
       尼克·伯莱尼 Nick Boraine
       罗伯特·霍布斯 Robert Hobbs


标  签 科幻 | 人性 | 美国 | 第九区 | 种族 | 讽刺 | 反思 | 2009

简  介  

  1990年,一艘巨大的飞船出现在地球上空,人们惶恐不安,却又分外好奇。经过一段时间紧张的等待,外星飞船始终没有动静。人类终于小心翼翼靠近它,强行走进舱内,结果发现了不计其数的外星人。他们形容丑陋,宛如虾子,而且健康状况极差,虚弱无力。原来这是一群来自外星的难民,他们最终被地球人接纳,并隔离在南非约翰内斯堡的一片区域内生活,此地名为“第九区”。经过长达20年的繁衍,外星难民的数量扩张至180万之多,且和周边人类的矛盾冲突不断,越来越多的人类呼吁将“大虾”赶出地球。
  MNU(列国同盟组织)经过磋商,决定将外星难民迁移到更为偏远的区域。MNU外星事务部门的特工威库斯(Sharlto Copley 饰)专门负责搬迁工作。威库斯在动员过程中傲慢随意,与当地居民冲突频频。最终,他为自己的行为付出代价,外星人的神秘流体将其感染,威库斯慢慢变成了外星人的模样……

获奖情况  

  第82届奥斯卡金像奖(2010)
  最佳影片(提名) 卡罗琳·康宁安 / 彼得·杰克逊
  最佳改编剧本(提名) 尼尔·布洛姆坎普 / 特丽·塔歇尔
  最佳剪辑(提名) 祖利安·格克
  最佳视觉效果(提名) Dan Kaufman / Peter Muyzers / Robert Habros / Matt Aitken

  第67届金球奖(2010)
  电影类 最佳编剧(提名) 尼尔·布洛姆坎普 / 特丽·塔歇尔

  第19届MTV电影奖(2010)
  MTV电影奖 最佳惊恐戏表演(提名) 沙尔托·科普雷

  第22届芝加哥影评人协会奖(2009)
  最具潜力演员(提名) 沙尔托·科普雷
  最具潜力导演 尼尔·布洛姆坎普

  第43届堪萨斯影评人协会奖(2010)
  最佳科幻/恐怖片

  第9届凤凰城影评人协会奖(2009)
  最佳新人导演 尼尔·布洛姆坎普

  第12届美国青少年选择奖(2010)
  最佳科幻电影(提名)
  最佳科幻电影男演员(提名) 沙尔托·科普雷
  1. Video
  2. ID                                       : 1
  3. Format                                   : HEVC
  4. Format/Info                              : High Efficiency Video Coding
  5. Format profile                           : Main High@L4@Main
  6. HDR format                               : SMPTE ST 2094 App 4, Version 0
  7. Codec ID                                 : V_MPEGH/ISO/HEVC
  8. Duration                                 : 1 h 52 min
  9. Bit rate                                 : 14.6 Mb/s
  10. Width                                    : 3 840 pixels
  11. Height                                   : 2 080 pixels
  12. Display aspect ratio                     : 1.85:1
  13. Frame rate mode                          : Constant
  14. Frame rate                               : 23.976 (24000/1001/189150) FPS
  15. Standard                                 : NTSC
  16. Color space                              : YUV
  17. Chroma subsampling                       : 4:2:0 (Type 2)
  18. Bit depth                                : 10 bits
  19. Bits/(Pixel*Frame)                       : 0.077
  20. Stream size                              : 11.5 GiB (96%)
  21. Default                                  : Yes
  22. Forced                                   : No
  23. Color range                              : Limited
  24. Color primaries                          : BT.2020
  25. Transfer characteristics                 : PQ
  26. Matrix coefficients                      : BT.2020 non-constant
  27. Mastering display color primaries        : Display P3
  28. Mastering display luminance              : min: 0.0050 cd/m2, max: 4000 cd/m2
  29. Maximum Content Light Level              : 2376 cd/m2
  30. Maximum Frame-Average Light Level        : 517 cd/m2

  31. Audio
  32. ID                                       : 2
  33. Format                                   : E-AC-3
  34. Format/Info                              : Enhanced AC-3
  35. Commercial name                          : Dolby Digital Plus
  36. Codec ID                                 : A_EAC3
  37. Duration                                 : 1 h 52 min
  38. Bit rate mode                            : Constant
  39. Bit rate                                 : 640 kb/s
  40. Channel(s)                               : 6 channels
  41. Channel layout                           : L R C LFE Ls Rs
  42. Sampling rate                            : 48.0 kHz
  43. Frame rate                               : 31.250 FPS (1536 SPF)
  44. Compression mode                         : Lossy
  45. Stream size                              : 514 MiB (4%)
  46. Language                                 : English
  47. Service kind                             : Complete Main
  48. Default                                  : Yes
  49. Forced                                   : No

  50. Menu
  51. 00:00:00.000                             : :Studio Logos
  52. 00:00:35.000                             : :Wikus Introduces Himself and His Company
  53. 00:01:30.000                             : :How District 9 Came to Be
  54. 00:03:26.000                             : :Experts and Civilians Explain District 9's Progression
  55. 00:06:11.000                             : :Various People Weigh In on Wikus and His Operation
  56. 00:10:16.000                             : :Wikus and His Team Drive to District 9
  57. 00:12:28.000                             : :Evictions Begin and Experts Explain the Crime
  58. 00:16:25.000                             : :Wikus and His Team Make Several Discoveries
  59. 00:19:39.000                             : :Christopher Finishes a Project and Wikus Finds His Lab
  60. 00:27:08.000                             : :Wikus Attempts to Serve Christopher His Eviction Notice
  61. 00:30:33.000                             : :Wikus Begins Falling Apart
  62. 00:32:14.000                             : :Christopher Searches for the Fluid
  63. 00:32:34.000                             : :Nigerians Consume Alien Body Parts
  64. 00:34:13.000                             : :Wikus Begins Feeling Very Ill
  65. 00:36:31.000                             : :Wikus Has an Unpleasant Hospital Visit
  66. 00:39:39.000                             : :Wikus Is Put through Extensive Firearms Testing
  67. 00:43:10.000                             : :Piet Talks with Tania and Wikus' Operation Begins
  68. 00:45:18.000                             : :Wikus Tries to Evade MNU and Gather Supplies
  69. 00:47:57.000                             : :Wikus Looks for a Place to Sleep
  70. 00:49:53.000                             : :Wikus Searches for Breakfast and Receives a Call
  71. 00:53:22.000                             : :Wikus Stumbles into a Familiar Place
  72. 00:56:12.000                             : :Christopher Asks Wikus about the Fluid
  73. 01:00:00.000                             : :Wikus Gets a Call during a Startling Discovery
  74. 01:02:40.000                             : :Christopher and His Son Discuss What's Next
  75. 01:04:41.000                             : :Wikus Goes to Negotiate for Weapons
  76. 01:08:25.000                             : :Wikus & Christopher Carry Out Their Suicide Mission
  77. 01:14:13.000                             : :Wikus and Christopher Arrive Back to Start the Ship
  78. 01:21:39.000                             : :Obesandjo's Men Intervene with MNU
  79. 01:25:35.000                             : :Chistopher's Son Begins to Find an Alternative Method
  80. 01:28:56.000                             : :Wikus Determines the Fate of Many
  81. 01:41:17.000                             : :The Aftermath of the Events
  82. 01:44:54.000                             : :End Credits
复制代码

第九区/D-9异形禁区 District.9.2009.HDR.2160p.WEB.h265-WATCHER 12.10GB-2.png 第九区/D-9异形禁区 District.9.2009.HDR.2160p.WEB.h265-WATCHER 12.10GB-3.png 第九区/D-9异形禁区 District.9.2009.HDR.2160p.WEB.h265-WATCHER 12.10GB-4.png







回复

使用道具 举报

 成长值: 3550

发表于 2020-5-11 16:20:38 | 显示全部楼层
太好啦&萬分感謝版主的無私發佈分享%
回复 支持 反对

使用道具 举报

发表于 2020-5-11 21:41:33 | 显示全部楼层
小 女 骇 的 副 利 【 w w w . u k 5 . m e
回复 支持 反对

使用道具 举报

发表于 2020-5-11 22:40:39 | 显示全部楼层
感谢楼主分享好电影
回复 支持 反对

使用道具 举报

发表于 2020-5-11 23:40:26 | 显示全部楼层

这个帖子不回对不起自己!我想我是一天也不能离开蓝光电影网
回复 支持 反对

使用道具 举报

发表于 2020-5-12 01:31:20 | 显示全部楼层
楼主发贴辛苦了,谢谢楼主分享!我觉得蓝光电影网是注册对了!
回复 支持 反对

使用道具 举报

发表于 2020-5-12 07:57:30 | 显示全部楼层
楼主发贴辛苦了,谢谢楼主分享!我觉得蓝光电影网是注册对了!
回复 支持 反对

使用道具 举报

发表于 2020-5-12 08:34:21 | 显示全部楼层
楼主发贴辛苦了,谢谢楼主分享!我觉得蓝光电影网是注册对了!
回复 支持 反对

使用道具 举报

发表于 2020-5-12 14:25:00 | 显示全部楼层

楼主太厉害了!楼主,电影应该很好看我觉得蓝光电影网真是个好地方!
回复 支持 反对

使用道具 举报

发表于 2020-5-12 14:58:13 | 显示全部楼层

其实我一直觉得楼主的品味不错!呵呵!蓝光电影网太棒了!
回复 支持 反对

使用道具 举报

懒得打字嘛,点击右侧快捷回复 【右侧内容,后台自定义】
您需要登录后才可以回帖 登录 | 立即加入

本版积分规则

现在加入蓝光电影网,注册一个账号
上个主题 下个主题 快速回复 收藏帖子 返回列表 客服中心 搜索

手机版|小黑屋| 蓝光电影网 |网站地图 

Copyright © 2015-2019 Comsenz Inc.  Template by 蓝光电影论坛 All Rights Reserved.

Powered by 蓝光电影网 X3.4

特别声明:本站所有资源均由网上收集而来,版权归原影音公司所有,如果侵犯了你的权益,请通知我们,我们会及时删除侵权内容.

快速回复 返回顶部 返回列表