找回密码

蓝光电影网

查看: 663|回复: 13

[2160p-WEB] 芝拉克 Chi-Raq.2015.HDR.2160p.WEB.h265-WATCHER 12.87GB

[复制链接]

 成长值: 26155

发表于 2020-5-11 15:51:18 | 显示全部楼层 |阅读模式
芝拉克 Chi-Raq.2015.HDR.2160p.WEB.h265-WATCHER 12.87GB-1.png

译  名 芝拉克 / Chiraq
片  名 Chi-Raq
年  代 2015
产  地 美国
类  别 剧情
语  言 英语
上映日期 2015-12-04(美国)
IMDb评分  5.7/10 from 8608 users
IMDb链接  https://www.imdb.com/title/tt4594834
豆瓣评分 6.8/10 from 172 users
豆瓣链接 https://movie.douban.com/subject/26363558/
片  长 127分钟
导  演 斯派克·李 Spike Lee
编  剧 斯派克·李 Spike Lee / 凯文·威尔默特 Kevin Willmott
主  演 尼克·卡农 Nick Cannon
       韦斯利·斯奈普斯 Wesley Snipes
       泰娜·帕丽斯 Teyonah Parris
       詹妮弗·哈德森 Jennifer Hudson
       史蒂夫·哈里斯 Steve Harris
       哈里·列尼斯 Harry Lennix
       D·B·斯威尼 D.B. Sweeney
       安吉拉·贝塞特 Angela Bassett
       约翰·库萨克 John Cusack
       塞缪尔·杰克逊 Samuel L. Jackson
       大卫·帕特里克·凯利 David Patrick Kelly
       戴夫·查佩尔 Dave Chappelle


标  签 美国 | 2015 | 斯派克·李 | 剧情 | 芝加哥 | 犯罪 | 喜剧 | 文艺

简  介  

  电商巨头亚马逊正式宣布,他们将大举进军电影业,计划每年出品12部影片。近日,有消息传出,亚马逊确定投拍美国黑人导演斯派克·李的新作《Chiraq》。影片剧本细节及项目进程状况都尚未公布,据称电影卡司囊括“复联队长”塞缪尔·杰克逊、“侃爷”坎耶·韦斯特、科曼等一众黑人男星,演员杰里米·皮文亦有望参演。
  "Chiraq"实质上是美国城市芝加哥的别称——该城市近年频频因枪支暴力事件见诸报端。坎耶·韦斯特是土生土长的芝加哥人,而杰里米·皮文的童年也基本是在芝加哥度过。参照斯派克·李此前执导影片的路数,《Chiraq》应该还是会持续关注黑人生存境遇。
  1. Video
  2. ID                                       : 1
  3. Format                                   : HEVC
  4. Format/Info                              : High Efficiency Video Coding
  5. Format profile                           : Main High@L4@Main
  6. HDR format                               : SMPTE ST 2094 App 4, Version 0
  7. Codec ID                                 : V_MPEGH/ISO/HEVC
  8. Duration                                 : 2 h 6 min
  9. Bit rate                                 : 13.8 Mb/s
  10. Width                                    : 3 840 pixels
  11. Height                                   : 1 600 pixels
  12. Display aspect ratio                     : 2.40:1
  13. Frame rate mode                          : Constant
  14. Frame rate                               : 23.976 (24000/1001/189150) FPS
  15. Standard                                 : NTSC
  16. Color space                              : YUV
  17. Chroma subsampling                       : 4:2:0 (Type 2)
  18. Bit depth                                : 10 bits
  19. Bits/(Pixel*Frame)                       : 0.093
  20. Stream size                              : 12.2 GiB (96%)
  21. Default                                  : Yes
  22. Forced                                   : No
  23. Color range                              : Limited
  24. Color primaries                          : BT.2020
  25. Transfer characteristics                 : PQ
  26. Matrix coefficients                      : BT.2020 non-constant
  27. Mastering display color primaries        : Display P3
  28. Mastering display luminance              : min: 0.0010 cd/m2, max: 1000 cd/m2
  29. Maximum Content Light Level              : 1068 cd/m2
  30. Maximum Frame-Average Light Level        : 153 cd/m2

  31. Audio
  32. ID                                       : 2
  33. Format                                   : E-AC-3
  34. Format/Info                              : Enhanced AC-3
  35. Commercial name                          : Dolby Digital Plus
  36. Codec ID                                 : A_EAC3
  37. Duration                                 : 2 h 6 min
  38. Bit rate mode                            : Constant
  39. Bit rate                                 : 640 kb/s
  40. Channel(s)                               : 6 channels
  41. Channel layout                           : L R C LFE Ls Rs
  42. Sampling rate                            : 48.0 kHz
  43. Frame rate                               : 31.250 FPS (1536 SPF)
  44. Compression mode                         : Lossy
  45. Stream size                              : 581 MiB (4%)
  46. Language                                 : English
  47. Service kind                             : Complete Main
  48. Default                                  : Yes
  49. Forced                                   : No

  50. Text
  51. ID                                       : 3
  52. Format                                   : UTF-8
  53. Codec ID                                 : S_TEXT/UTF8
  54. Codec ID/Info                            : UTF-8 Plain Text
  55. Duration                                 : 2 h 6 min
  56. Bit rate                                 : 78 b/s
  57. Count of elements                        : 2308
  58. Stream size                              : 72.6 KiB (0%)
  59. Language                                 : English
  60. Default                                  : No
  61. Forced                                   : No

  62. Menu
  63. 00:00:00.000                             : en:Studio Logos
  64. 00:00:24.000                             : en:Pray 4 My City
  65. 00:03:41.000                             : en:Chi-Raq performs for an energetic crowd
  66. 00:10:02.000                             : en:Chi-Raq and Lysistrata's home is attacked
  67. 00:14:27.000                             : en:Dolmedes introduces himself and Lysistrata
  68. 00:16:54.000                             : en:A young girl is killed
  69. 00:18:54.000                             : en:Lysistrata and Miss Helen talk about Chi-Raq and the shootings
  70. 00:24:14.000                             : en:Lysistrata receives inspiration
  71. 00:26:47.000                             : en:Lysistrata organizes a group of women with a plan for peace
  72. 00:32:28.000                             : en:Lysistrata and Indigo begin their strike
  73. 00:34:28.000                             : en:Women refuse to work the clubs
  74. 00:37:38.000                             : en:Big Thelma leaves town
  75. 00:37:55.000                             : en:Father Mike Corridan preaches on violence
  76. 00:50:02.000                             : en:Spinna talks to Chi-Raq about change
  77. 00:53:05.000                             : en:Father Mike talks to Lysistrata's group about their strike
  78. 00:54:41.000                             : en:General King Kong shows Lysistrata Whistling Dick
  79. 00:59:50.000                             : en:SWAT arrives on the scene
  80. 01:01:15.000                             : en:Miss Helen recruits more women to join the strike
  81. 01:03:36.000                             : en:The Knights of Euphrates hold a meeting
  82. 01:06:05.000                             : en:The women stage at protest at a military base
  83. 01:08:12.000                             : en:Lysistrata leads her army
  84. 01:09:23.000                             : en:Commissioner Blades shares his plan to end the strike with the mayor
  85. 01:10:41.000                             : en:Women around the world join the protest
  86. 01:11:09.000                             : en:An insurance salesman speaks to Miss Helen
  87. 01:13:34.000                             : en:Father Mike and Irene hand out flyers about Patti
  88. 01:14:50.000                             : en:Blades threatens Lysistrata
  89. 01:16:07.000                             : en:Chi-Raq misses Lysistrata
  90. 01:19:02.000                             : en:The protests and violence continue
  91. 01:20:13.000                             : en:Blades and Riptide put their plan into motion
  92. 01:24:17.000                             : en:The aftermath of the concert shooting
  93. 01:26:14.000                             : en:The Spartans grow tired
  94. 01:27:20.000                             : en:The Trojans grow disillusioned with the lifestyle
  95. 01:29:04.000                             : en:Lysistrata's Army refuses to back down
  96. 01:33:32.000                             : en:Mayor McCloud receives a call from the president
  97. 01:35:52.000                             : en:Father Mike encourages Chi-Raq to end the violence
  98. 01:41:06.000                             : en:Chi-Raq challenges Lysistrata
  99. 01:49:23.000                             : en:A peace agreement is written for the gangs to sign
  100. 01:57:32.000                             : en:Wake Up
  101. 01:58:58.000                             : en:End Credits
复制代码

芝拉克 Chi-Raq.2015.HDR.2160p.WEB.h265-WATCHER 12.87GB-2.png 芝拉克 Chi-Raq.2015.HDR.2160p.WEB.h265-WATCHER 12.87GB-3.png 芝拉克 Chi-Raq.2015.HDR.2160p.WEB.h265-WATCHER 12.87GB-4.png







回复

使用道具 举报

发表于 2020-5-11 18:45:12 | 显示全部楼层

这东西我收了!谢谢楼主!蓝光电影网真好!
回复 支持 反对

使用道具 举报

发表于 2020-5-11 21:43:16 | 显示全部楼层
小 女 骇 的 副 利 【 w w w . u k 5 . m e
回复 支持 反对

使用道具 举报

发表于 2020-5-12 07:55:20 | 显示全部楼层
楼主发贴辛苦了,谢谢楼主分享!我觉得蓝光电影网是注册对了!
回复 支持 反对

使用道具 举报

已抛锚 成长值: 310

发表于 2020-5-12 10:16:02 | 显示全部楼层
这电影值得看看,谢谢分享。
回复 支持 反对

使用道具 举报

发表于 2020-5-13 16:35:27 | 显示全部楼层

感谢楼主的无私分享!要想蓝光电影网好 就靠你我他
回复 支持 反对

使用道具 举报

发表于 2020-5-13 20:46:16 | 显示全部楼层
感谢楼主无私分享
回复 支持 反对

使用道具 举报

发表于 2020-5-14 10:49:18 | 显示全部楼层
   哈,进来看看,哈哈。
回复 支持 反对

使用道具 举报

发表于 2020-5-14 13:11:16 | 显示全部楼层

楼主,大恩不言谢了!蓝光电影网是最棒的!
回复 支持 反对

使用道具 举报

发表于 2020-5-14 18:30:09 | 显示全部楼层
W9mqwt68zcrAveddSnVyYXNzaWMuV29ybGQuMjAxNS43MjBwLkJsdVJheS54MjY0LkRUUy1XaUtp
回复 支持 反对

使用道具 举报

懒得打字嘛,点击右侧快捷回复 【右侧内容,后台自定义】
您需要登录后才可以回帖 登录 | 立即加入

本版积分规则

现在加入蓝光电影网,注册一个账号
上个主题 下个主题 快速回复 收藏帖子 返回列表 客服中心 搜索

手机版|小黑屋| 蓝光电影网 |网站地图 

Copyright © 2015-2019 Comsenz Inc.  Template by 蓝光电影论坛 All Rights Reserved.

Powered by 蓝光电影网 X3.4

特别声明:本站所有资源均由网上收集而来,版权归原影音公司所有,如果侵犯了你的权益,请通知我们,我们会及时删除侵权内容.

快速回复 返回顶部 返回列表