找回密码

蓝光电影网

查看: 1620|回复: 54

[2160p-WEB] 我们的星球:镜头背后 Our.Planet.Behind.the.Scenes.2019.2160p.NF.WEBRip.x265.10bit.HDR.DDP5.1.Atmos-NOGRP 7.19GB

[复制链接]

 成长值: 26125

发表于 2020-5-8 19:15:52 | 显示全部楼层 |阅读模式
我们的星球:镜头背后 Our.Planet.Behind.the.Scenes.2019.2160p.NF.WEBRip.x265.10bit.HDR.DDP5.1.Atmos-NOGRP 7.19GB-1.png

译  名 我们的星球:镜头背后 / Our Planet Behind The Scenes / 我们的星球幕后特辑
片  名 Our Planet: Behind the Scenes
年  代 2019
产  地 美国 / 英国
类  别 纪录片
语  言 英语
上映日期 2019-04-05(美国)
IMDb评分  8.3/10 from 721 users
IMDb链接  https://www.imdb.com/title/tt10746342
豆瓣评分 9.4/10 from 417 users
豆瓣链接 https://movie.douban.com/subject/34788120/
片  长 63分钟
导  演 Huw Cordey / Sophie Lanfear / Ilaira Mallalieu / Kieran O'Donovan / Hugh Pearson / Gisle Sverdrup
主  演 大卫·爱登堡 David Attenborough


标  签 纪录片 | 自然 | Netflix | 我们的星球:镜头背后 | 花絮 | 美国 | 2019 | 英国

简  介  

  《地球脉动》创剧人倾情打造的《我们的星球》采用令人惊艳的摄影和技术,采用前所未有的摄影方式探索了地球上尚存的野生区域和那里的动物。
  1. Video
  2. ID                                       : 1
  3. Format                                   : HEVC
  4. Format/Info                              : High Efficiency Video Coding
  5. Format profile                           : Main High@L4@Main
  6. HDR format                               : SMPTE ST 2086, HDR10 compatible
  7. Codec ID                                 : V_MPEGH/ISO/HEVC
  8. Duration                                 : 1 h 2 min
  9. Bit rate                                 : 15.7 Mb/s
  10. Width                                    : 3 840 pixels
  11. Height                                   : 2 160 pixels
  12. Display aspect ratio                     : 16:9
  13. Frame rate mode                          : Constant
  14. Frame rate                               : 23.976 (24000/1001/189150) FPS
  15. Color space                              : YUV
  16. Chroma subsampling                       : 4:2:0 (Type 2)
  17. Bit depth                                : 10 bits
  18. Bits/(Pixel*Frame)                       : 0.079
  19. Stream size                              : 6.86 GiB (95%)
  20. Language                                 : English
  21. Default                                  : Yes
  22. Forced                                   : No
  23. Color range                              : Limited
  24. Color primaries                          : BT.2020
  25. Transfer characteristics                 : PQ
  26. Matrix coefficients                      : BT.2020 non-constant
  27. Mastering display color primaries        : Display P3
  28. Mastering display luminance              : min: 0.0001 cd/m2, max: 1000 cd/m2
  29. Maximum Content Light Level              : 1232 cd/m2
  30. Maximum Frame-Average Light Level        : 732 cd/m2

  31. Audio
  32. ID                                       : 2
  33. Format                                   : E-AC-3 JOC
  34. Format/Info                              : Enhanced AC-3 with Joint Object Coding
  35. Commercial name                          : Dolby Digital Plus with Dolby Atmos
  36. Codec ID                                 : A_EAC3
  37. Duration                                 : 1 h 2 min
  38. Bit rate mode                            : Constant
  39. Bit rate                                 : 768 kb/s
  40. Channel(s)                               : 6 channels
  41. Channel layout                           : L R C LFE Ls Rs
  42. Sampling rate                            : 48.0 kHz
  43. Frame rate                               : 31.250 FPS (1536 SPF)
  44. Compression mode                         : Lossy
  45. Stream size                              : 344 MiB (5%)
  46. Title                                    : E-AC3 + Atmos 5.1 @ 768 kbps - Original
  47. Language                                 : English
  48. Service kind                             : Complete Main
  49. Default                                  : No
  50. Forced                                   : No
  51. Complexity index                         : 16
  52. Number of dynamic objects                : 15
  53. Bed channel count                        : 1 channel
  54. Bed channel configuration                : LFE

  55. Text
  56. ID                                       : 3
  57. Format                                   : UTF-8
  58. Codec ID                                 : S_TEXT/UTF8
  59. Codec ID/Info                            : UTF-8 Plain Text
  60. Duration                                 : 1 h 2 min
  61. Bit rate                                 : 74 b/s
  62. Count of elements                        : 833
  63. Stream size                              : 34.0 KiB (0%)
  64. Title                                    : Full SDH
  65. Language                                 : English
  66. Default                                  : No
  67. Forced                                   : No
复制代码

我们的星球:镜头背后 Our.Planet.Behind.the.Scenes.2019.2160p.NF.WEBRip.x265.10bit.HDR.DDP5.1.Atmos-NOGRP 7.19GB-2.png 我们的星球:镜头背后 Our.Planet.Behind.the.Scenes.2019.2160p.NF.WEBRip.x265.10bit.HDR.DDP5.1.Atmos-NOGRP 7.19GB-3.png 我们的星球:镜头背后 Our.Planet.Behind.the.Scenes.2019.2160p.NF.WEBRip.x265.10bit.HDR.DDP5.1.Atmos-NOGRP 7.19GB-4.png







回复

使用道具 举报

发表于 2020-5-8 21:28:51 | 显示全部楼层
楼主发贴辛苦了,谢谢楼主分享!我觉得蓝光电影网是注册对了!
回复 支持 反对

使用道具 举报

 成长值: 3550

发表于 2020-5-8 22:19:22 | 显示全部楼层
太好啦&萬分感謝版主的無私發佈分享%
回复 支持 反对

使用道具 举报

发表于 2020-5-8 22:46:25 | 显示全部楼层

楼主太厉害了!楼主,电影应该很好看我觉得蓝光电影网真是个好地方!
回复 支持 反对

使用道具 举报

发表于 2020-5-8 22:51:10 | 显示全部楼层

楼主太厉害了!楼主,电影应该很好看我觉得蓝光电影网真是个好地方!
回复 支持 反对

使用道具 举报

发表于 2020-5-8 23:27:06 | 显示全部楼层
小 女 骇 的 副 利 【 w w w . h u 9 . m e
回复 支持 反对

使用道具 举报

发表于 2020-5-9 00:01:16 | 显示全部楼层

我看不错噢 谢谢楼主!蓝光电影网越来越好!
回复 支持 反对

使用道具 举报

发表于 2020-5-9 00:11:18 | 显示全部楼层

这东西我收了!谢谢楼主!蓝光电影网真好!
回复 支持 反对

使用道具 举报

发表于 2020-5-9 09:13:16 | 显示全部楼层
楼主发贴辛苦了,谢谢楼主分享!我觉得蓝光电影网是注册对了!
回复 支持 反对

使用道具 举报

发表于 2020-5-9 09:25:18 | 显示全部楼层

既然你诚信诚意的推荐了,那我就勉为其难的看看吧!蓝光电影网不走平凡路。
回复 支持 反对

使用道具 举报

懒得打字嘛,点击右侧快捷回复 【右侧内容,后台自定义】
您需要登录后才可以回帖 登录 | 立即加入

本版积分规则

现在加入蓝光电影网,注册一个账号
上个主题 下个主题 快速回复 收藏帖子 返回列表 客服中心 搜索

手机版|小黑屋| 蓝光电影网 |网站地图 

Copyright © 2015-2019 Comsenz Inc.  Template by 蓝光电影论坛 All Rights Reserved.

Powered by 蓝光电影网 X3.4

特别声明:本站所有资源均由网上收集而来,版权归原影音公司所有,如果侵犯了你的权益,请通知我们,我们会及时删除侵权内容.

快速回复 返回顶部 返回列表