找回密码

蓝光电影网

查看: 766|回复: 10

[10bit.HDR] 猛禽小队和哈莉·奎茵 Birds.of.Prey.And.the.Fantabulous.Emancipation.of.One.Harley.Quinn.2020.2160p.UHD.BluRay.x265.10bit.HDR.DTS-HD.MA.TrueHD.7.1.Atmos-SWTYBLZ 18.98GB

[复制链接]

 成长值: 26125

发表于 2020-5-6 21:12:58 | 显示全部楼层 |阅读模式
猛禽小队和哈莉·奎茵 Birds.of.Prey.And.the.Fantabulous.Emancipation.of.One.Harley.Quinn.2020.2160p.UHD.BluRay.x265.10bit.HDR.DTS-HD.MA.TrueHD.7.1.Atmos-SWTYBLZ 18.98GB-1.png

译  名 猛禽小队和哈莉·奎茵 / Birds of Prey / Birds of Prey (And the Fantabulous Emancipation of One Harley Quinn) / Harley Quinn: Birds of Prey / 哈莉·奎因:猛禽小队 / 猛禽小队 / 猛禽小队(以及一个哈莉·奎茵的奇妙解放) / 猛禽小队与哈莉·奎茵的奇妙解放 / 猛禽小队:小丑女大解放(台) / 猛禽暴队:解疯小丑女(港)
片  名 Birds of Prey: And the Fantabulous Emancipation of One Harley Quinn
年  代 2020
产  地 美国
类  别 动作 / 犯罪 / 冒险
语  言 英语
上映日期 2020-02-07(美国)
IMDb评分  6.2/10 from 102620 users
IMDb链接  https://www.imdb.com/title/tt7713068
豆瓣评分 5.7/10 from 49437 users
豆瓣链接 https://movie.douban.com/subject/30160393/
片  长 109分钟
导  演 阎羽茜 Cathy Yan
编  剧 克里斯蒂娜·霍德森 Christina Hodson / 查克·狄克逊 Chuck Dixon / 乔丹·B·戈芬克尔 Jordan B. Gorfinkel / 格雷格·兰德 Greg Land
主  演 玛格特·罗比 Margot Robbie
       玛丽·伊丽莎白·温斯特德 Mary Elizabeth Winstead
       罗茜·佩雷兹 Rosie Perez
       朱尼·斯莫利特 Jurnee Smollett
       伊万·麦克格雷格 Ewan McGregor
       埃拉·杰伊·巴斯科 Ella Jay Basco
       克里斯·梅西纳 Chris Messina
       黄阿丽 Ali Wong
       戴维·尤里 David Ury
       萨拉·蒙特斯 Sara Montez
       伊莎贝尔·帕克扎德 Isabel Pakzad
       丹尼尔·伯哈特 Daniel Bernhardt
       帕洛马·拉比诺夫 Paloma Rabinov
       德里克·威尔逊 Derek Wilson
       乔·布卡罗三世 Joe Bucaro III
       弗朗克西斯·周 Fran?ois Chau
       布鲁诺·奥利弗 Bruno Oliver
       马修·维利希 Matthew Willig
       杰里米·丹茨林格 Jeremy Denzlinger
       迈克尔·马西尼 Michael Masini
       杰西·布什 Jesse Bush
       史蒂文·威廉姆斯 Steven Williams
       夏洛林·阿莫亚 Charlene Amoia
       罗伯特·卡特里尼 Robert Catrini
       埃迪·阿尔法诺 Eddie Alfano
       普拉莫德库马尔 Pramod Kumar
       K.K. 巴雷特 K.K. Barrett
       西蒙·瑞 Simon Rhee
       凯莱布·斯比尔亚兹 Caleb Spillyards
       萨拉·贝克 Sala Baker
       埃夫卡·科瓦拉西尤斯 Efka Kvaraciejus
       山姆·哈格雷夫 Sam Hargrave
       丹尼斯·基弗 Dennis Keiffer
       博亚娜·诺瓦科维奇 Bojana Novakovi?
       埃里克·迈克尔·科尔 Eric Michael Cole
       提姆·里格比 Tim Rigby
       大卫·安东尼·布廖内 David Anthony Buglione
       杰拉德·唐尼 Gerald Downey
       埃迪·J.费尔南德斯 Eddie J. Fernandez
       尼科·格莱瑟姆 Nico Greetham
       朱迪·凯恩 Judy Kain
       杰夫·里帕瑞 Jeff Lipary
       詹妮尔·麦基 Jenelle McKee
       伊戈·米基塔斯 Ego Mikitas
       安东尼·莫利纳利 Anthony Molinari
       迪索·拉莫斯 Diezel Ramos
       凯伦·特利哈 Karen Teliha


标  签 DC | 犯罪 | 女性 | 美国 | 超级英雄 | 动作 | 漫画改编 | 2020

简  介  

  你听过一个有关警察、歌手、神经病和黑手党公主的故事吗?《猛禽小队和哈莉·奎茵》是一个只有哈莉·奎茵本人才能讲出来的超乎寻常的奇妙传奇。哥谭市最为凶残自大的恶棍罗曼·赛恩尼斯和他狂热的手下萨斯为了寻找一个年轻女孩卡斯,将这座城市翻了个底朝天。哈莉、女猎手、黑金丝雀和蕾妮·蒙托亚不期而遇,看似违和的四人组不得不团结一致、携手作战,才有可能打败罗曼。

获奖情况  

  第6届豆瓣电影年度榜单(2019)
  最值得期待的外语电影(提名)

  1. VideoID                                       : 1Format                                   : HEVCFormat/Info                              : High Efficiency Video CodingFormat profile                           : Main 10@L5.1@HighHDR format                               : SMPTE ST 2086, HDR10 compatibleCodec ID                                 : V_MPEGH/ISO/HEVCDuration                                 : 1 h 48 minBit rate                                 : 16.1 Mb/sWidth                                    : 3 840 pixelsHeight                                   : 1 608 pixelsDisplay aspect ratio                     : 2.40:1Frame rate mode                          : ConstantFrame rate                               : 23.976 (24000/1001/45165) FPSColor space                              : YUVChroma subsampling                       : 4:2:0 (Type 2)Bit depth                                : 10 bitsBits/(Pixel*Frame)                       : 0.109Stream size                              : 12.2 GiB (65%)Title                                    : Birds.of.Prey.And.the.Fantabulous.Emancipation.of.One.Harley.Quinn.2020.2160p.UHD.BluRay.x265.10bit.HDR.DTS-HD.MA.TrueHD.7.1.Atmos-SWTYBLZWriting library                          : x265 3.0_Au+10-74a8672ea4f7:[Windows][GCC 8.2.1][64 bit] 10bitEncoding settings                        : cpuid=1111039 / frame-threads=6 / numa-pools=24,24,24,24 / wpp / no-pmode / no-pme / no-psnr / no-ssim / log-level=2 / input-csp=1 / input-res=3840x1608 / interlace=0 / total-frames=0 / level-idc=51 / high-tier=1 / uhd-bd=0 / ref=3 / no-allow-non-conformance / repeat-headers / annexb / aud / hrd / info / hash=0 / no-temporal-layers / no-open-gop / min-keyint=1 / keyint=24 / gop-lookahead=0 / bframes=4 / b-adapt=2 / b-pyramid / bframe-bias=0 / rc-lookahead=25 / lookahead-slices=4 / scenecut=40 / radl=0 / no-splice / no-intra-refresh / ctu=64 / min-cu-size=8 / no-rect / no-amp / max-tu-size=32 / tu-inter-depth=1 / tu-intra-depth=1 / limit-tu=0 / rdoq-level=0 / dynamic-rd=0.00 / no-ssim-rd / signhide / no-tskip / nr-intra=0 / nr-inter=0 / no-constrained-intra / strong-intra-smoothing / max-merge=2 / limit-refs=3 / no-limit-modes / me=1 / subme=2 / merange=57 / temporal-mvp / weightp / no-weightb / no-analyze-src-pics / deblock=0:0 / no-sao / no-sao-non-deblock / rd=3 / no-early-skip / rskip / no-fast-intra / no-tskip-fast / no-cu-lossless / no-b-intra / no-splitrd-skip / rdpenalty=0 / psy-rd=2.00 / psy-rdoq=0.00 / no-rd-refine / no-lossless / cbqpoffs=0 / crqpoffs=0 / rc=crf / crf=16.0 / qcomp=0.60 / qpstep=4 / stats-write=0 / stats-read=0 / vbv-maxrate=160000 / vbv-bufsize=160000 / vbv-init=0.9 / crf-max=0.0 / crf-min=0.0 / ipratio=1.40 / pbratio=1.30 / aq-mode=1 / aq-strength=1.00 / cutree / zone-count=0 / no-strict-cbr / qg-size=32 / no-rc-grain / qpmax=69 / qpmin=0 / no-const-vbv / sar=1 / overscan=0 / videoformat=5 / range=0 / colorprim=9 / transfer=16 / colormatrix=9 / chromaloc=1 / chromaloc-top=2 / chromaloc-bottom=2 / display-window=0 / master-display=G(8500,39850)B(6550,2300)R(35400,14600)WP(15635,16450)L(40000000,50) / max-cll=683,136 / min-luma=0 / max-luma=1023 / log2-max-poc-lsb=8 / vui-timing-info / vui-hrd-info / slices=1 / opt-qp-pps / opt-ref-list-length-pps / no-multi-pass-opt-rps / scenecut-bias=0.05 / no-opt-cu-delta-qp / no-aq-motion / hdr / hdr-opt / no-dhdr10-opt / no-idr-recovery-sei / analysis-reuse-level=5 / scale-factor=0 / refine-intra=0 / refine-inter=0 / refine-mv=0 / refine-ctu-distortion=0 / no-limit-sao / ctu-info=0 / no-lowpass-dct / refine-analysis-type=-941362824 / copy-pic=1 / max-ausize-factor=1.0 / no-dynamic-refine / no-single-sei / no-hevc-aq / no-svt / qp-adaptation-range=1.00Default                                  : YesForced                                   : NoColor range                              : LimitedColor primaries                          : BT.2020Transfer characteristics                 : PQMatrix coefficients                      : BT.2020 non-constantMastering display color primaries        : BT.2020Mastering display luminance              : min: 0.0050 cd/m2, max: 4000 cd/m2Maximum Content Light Level              : 683 cd/m2Maximum Frame-Average Light Level        : 136 cd/m2Audio #1ID                                       : 2Format                                   : MLP FBA 16-chFormat/Info                              : Meridian Lossless Packing FBA with 16-channel presentationCommercial name                          : Dolby TrueHD with Dolby AtmosCodec ID                                 : A_TRUEHDDuration                                 : 1 h 48 minBit rate mode                            : VariableBit rate                                 : 3 686 kb/sMaximum bit rate                         : 6 912 kb/sChannel(s)                               : 8 channelsChannel layout                           : L R C LFE Ls Rs Lb RbSampling rate                            : 48.0 kHzFrame rate                               : 1 200.000 FPS (40 SPF)Compression mode                         : LosslessStream size                              : 2.80 GiB (15%)Title                                    : Birds.of.Prey.And.the.Fantabulous.Emancipation.of.One.Harley.Quinn.2020.2160p.UHD.BluRay.x265.10bit.HDR.DTS-HD.MA.TrueHD.7.1.Atmos-SWTYBLZLanguage                                 : EnglishDefault                                  : YesForced                                   : NoNumber of dynamic objects                : 15Bed channel count                        : 1 channelBed channel configuration                : LFEAudio #2ID                                       : 3Format                                   : DTS XLLFormat/Info                              : Digital Theater SystemsCommercial name                          : DTS-HD Master AudioCodec ID                                 : A_DTSDuration                                 : 1 h 48 minBit rate mode                            : VariableBit rate                                 : 4 251 kb/sChannel(s)                               : 8 channelsChannel layout                           : C L R LFE Lb Rb Lss RssSampling rate                            : 48.0 kHzFrame rate                               : 93.750 FPS (512 SPF)Bit depth                                : 24 bitsCompression mode                         : LosslessStream size                              : 3.23 GiB (17%)Title                                    : Birds.of.Prey.And.the.Fantabulous.Emancipation.of.One.Harley.Quinn.2020.2160p.UHD.BluRay.x265.10bit.HDR.DTS-HD.MA.TrueHD.7.1.Atmos-SWTYBLZLanguage                                 : EnglishDefault                                  : NoForced                                   : NoAudio #3ID                                       : 4Format                                   : AC-3Format/Info                              : Audio Coding 3Commercial name                          : Dolby DigitalCodec ID                                 : A_AC3Duration                                 : 1 h 48 minBit rate mode                            : ConstantBit rate                                 : 640 kb/sChannel(s)                               : 6 channelsChannel layout                           : L R C LFE Ls RsSampling rate                            : 48.0 kHzFrame rate                               : 31.250 FPS (1536 SPF)Compression mode                         : LossyStream size                              : 499 MiB (3%)Title                                    : Birds.of.Prey.And.the.Fantabulous.Emancipation.of.One.Harley.Quinn.2020.2160p.UHD.BluRay.x265.10bit.HDR.DTS-HD.MA.TrueHD.7.1.Atmos-SWTYBLZLanguage                                 : EnglishService kind                             : Complete MainDefault                                  : NoForced                                   : NoText #1ID                                       : 5Format                                   : UTF-8Codec ID                                 : S_TEXT/UTF8Codec ID/Info                            : UTF-8 Plain TextDuration                                 : 1 h 48 minBit rate                                 : 60 b/sCount of elements                        : 1677Stream size                              : 47.7 KiB (0%)Title                                    : English-SRTLanguage                                 : EnglishDefault                                  : YesForced                                   : NoText #2ID                                       : 6Format                                   : PGSMuxing mode                              : zlibCodec ID                                 : S_HDMV/PGSCodec ID/Info                            : Picture based subtitle format used on BDs/HD-DVDsDuration                                 : 1 h 48 minBit rate                                 : 43.7 kb/sCount of elements                        : 3876Stream size                              : 33.9 MiB (0%)Title                                    : English-PGSLanguage                                 : EnglishDefault                                  : NoForced                                   : NoText #3ID                                       : 7Format                                   : PGSMuxing mode                              : zlibCodec ID                                 : S_HDMV/PGSCodec ID/Info                            : Picture based subtitle format used on BDs/HD-DVDsDuration                                 : 1 h 48 minBit rate                                 : 18.4 kb/sCount of elements                        : 3012Stream size                              : 14.2 MiB (0%)Title                                    : Arabic-PGSLanguage                                 : ArabicDefault                                  : NoForced                                   : NoText #4ID                                       : 8Format                                   : PGSMuxing mode                              : zlibCodec ID                                 : S_HDMV/PGSCodec ID/Info                            : Picture based subtitle format used on BDs/HD-DVDsDuration                                 : 1 h 48 minBit rate                                 : 28.5 kb/sCount of elements                        : 2926Stream size                              : 22.1 MiB (0%)Title                                    : Chinese-PGSLanguage                                 : ChineseDefault                                  : NoForced                                   : NoText #5ID                                       : 9Format                                   : PGSMuxing mode                              : zlibCodec ID                                 : S_HDMV/PGSCodec ID/Info                            : Picture based subtitle format used on BDs/HD-DVDsDuration                                 : 1 h 48 minBit rate                                 : 28.4 kb/sCount of elements                        : 2786Stream size                              : 22.0 MiB (0%)Title                                    : Chinese-PGSLanguage                                 : ChineseDefault                                  : NoForced                                   : NoText #6ID                                       : 10Format                                   : PGSMuxing mode                              : zlibCodec ID                                 : S_HDMV/PGSCodec ID/Info                            : Picture based subtitle format used on BDs/HD-DVDsDuration                                 : 1 h 48 minBit rate                                 : 29.5 kb/sCount of elements                        : 2922Stream size                              : 22.9 MiB (0%)Title                                    : Czech-PGSLanguage                                 : CzechDefault                                  : NoForced                                   : NoText #7ID                                       : 11Format                                   : PGSMuxing mode                              : zlibCodec ID                                 : S_HDMV/PGSCodec ID/Info                            : Picture based subtitle format used on BDs/HD-DVDsDuration                                 : 1 h 48 minBit rate                                 : 27.3 kb/sCount of elements                        : 2854Stream size                              : 21.2 MiB (0%)Title                                    : French-PGSLanguage                                 : FrenchDefault                                  : NoForced                                   : NoText #8ID                                       : 12Format                                   : PGSMuxing mode                              : zlibCodec ID                                 : S_HDMV/PGSCodec ID/Info                            : Picture based subtitle format used on BDs/HD-DVDsDuration                                 : 1 h 48 minBit rate                                 : 18.4 kb/sCount of elements                        : 2848Stream size                              : 14.3 MiB (0%)Title                                    : Korean-PGSLanguage                                 : KoreanDefault                                  : NoForced                                   : NoText #9ID                                       : 13Format                                   : PGSMuxing mode                              : zlibCodec ID                                 : S_HDMV/PGSCodec ID/Info                            : Picture based subtitle format used on BDs/HD-DVDsDuration                                 : 1 h 48 minBit rate                                 : 27.6 kb/sCount of elements                        : 2772Stream size                              : 21.3 MiB (0%)Title                                    : Polish-PGSLanguage                                 : PolishDefault                                  : NoForced                                   : NoText #10ID                                       : 14Format                                   : PGSMuxing mode                              : zlibCodec ID                                 : S_HDMV/PGSCodec ID/Info                            : Picture based subtitle format used on BDs/HD-DVDsDuration                                 : 1 h 48 minBit rate                                 : 31.6 kb/sCount of elements                        : 2914Stream size                              : 24.5 MiB (0%)Title                                    : Portuguese-PGSLanguage                                 : PortugueseDefault                                  : NoForced                                   : NoText #11ID                                       : 15Format                                   : PGSMuxing mode                              : zlibCodec ID                                 : S_HDMV/PGSCodec ID/Info                            : Picture based subtitle format used on BDs/HD-DVDsDuration                                 : 1 h 48 minBit rate                                 : 32.8 kb/sCount of elements                        : 2926Stream size                              : 25.4 MiB (0%)Title                                    : Spanish-PGSLanguage                                 : SpanishDefault                                  : NoForced                                   : NoMenu00:00:00.000                             : en:Chapter 100:08:08.446                             : en:Chapter 200:17:53.739                             : en:Chapter 300:27:11.839                             : en:Chapter 400:35:40.805                             : en:Chapter 500:44:48.352                             : en:Chapter 600:53:43.387                             : en:Chapter 701:01:15.547                             : en:Chapter 801:10:55.960                             : en:Chapter 901:19:06.492                             : en:Chapter 1001:24:28.146                             : en:Chapter 1101:34:27.996                             : en:Chapter 1201:41:26.998                             : en:Chapter 13
复制代码
195209oipumcuw1z32suqq.png 195209ty38x75xvybw93lq.png 195209rez3366xealea66i.png 195209ygo4oxvhlezzz5pt.png 195210a9kesti71h1veuzk.png 195210nyrwunsouw5rz167.png 195210wfltelqzgg126kgq.png



回复

使用道具 举报

发表于 2020-5-7 00:06:17 | 显示全部楼层
楼主发贴辛苦了,谢谢楼主分享!我觉得蓝光电影网是注册对了!
回复 支持 反对

使用道具 举报

发表于 2020-5-7 08:25:31 | 显示全部楼层
楼主发贴辛苦了,谢谢楼主分享!我觉得蓝光电影网是注册对了!
回复 支持 反对

使用道具 举报

发表于 2020-5-7 10:15:37 | 显示全部楼层

这个帖子不回对不起自己!我想我是一天也不能离开蓝光电影网
回复 支持 反对

使用道具 举报

发表于 2020-5-7 11:15:16 | 显示全部楼层
楼主发贴辛苦了,谢谢楼主分享!我觉得蓝光电影网是注册对了!
回复 支持 反对

使用道具 举报

发表于 2020-5-8 09:47:31 | 显示全部楼层

既然你诚信诚意的推荐了,那我就勉为其难的看看吧!蓝光电影网不走平凡路。
回复 支持 反对

使用道具 举报

发表于 2020-5-8 12:07:50 | 显示全部楼层

楼主发贴辛苦了,谢谢楼主分享!我觉得蓝光电影网是注册对了!
回复 支持 反对

使用道具 举报

发表于 2020-5-8 19:06:00 | 显示全部楼层
楼主发贴辛苦了,谢谢楼主分享!我觉得蓝光电影网是注册对了!
回复 支持 反对

使用道具 举报

发表于 2020-5-10 21:39:14 | 显示全部楼层
好人一生平安,谢谢!!
回复 支持 反对

使用道具 举报

发表于 2020-5-11 15:06:04 | 显示全部楼层
楼主发贴辛苦了,谢谢楼主分享!我觉得蓝光电影网是注册对了!
回复 支持 反对

使用道具 举报

懒得打字嘛,点击右侧快捷回复 【右侧内容,后台自定义】
您需要登录后才可以回帖 登录 | 立即加入

本版积分规则

现在加入蓝光电影网,注册一个账号
上个主题 下个主题 快速回复 收藏帖子 返回列表 客服中心 搜索

手机版|小黑屋| 蓝光电影网 |网站地图 

Copyright © 2015-2019 Comsenz Inc.  Template by 蓝光电影论坛 All Rights Reserved.

Powered by 蓝光电影网 X3.4

特别声明:本站所有资源均由网上收集而来,版权归原影音公司所有,如果侵犯了你的权益,请通知我们,我们会及时删除侵权内容.

快速回复 返回顶部 返回列表