找回密码

蓝光电影网

查看: 369|回复: 4

[10bit.SDR] 猛禽小队和哈莉·奎茵 Birds.of.Prey.And.the.Fantabulous.Emancipation.of.One.Harley.Quinn.2020.2160p.BluRay.x265.10bit.SDR.DTS-HD.MA.TrueHD.7.1.Atmos-SWTYBLZ 39.15GB

[复制链接]

 成长值: 26125

发表于 2020-5-6 21:08:49 | 显示全部楼层 |阅读模式
猛禽小队和哈莉·奎茵 Birds.of.Prey.And.the.Fantabulous.Emancipation.of.One.Harley.Quinn.2020.2160p.BluRay.x265.10bit.SDR.DTS-HD.MA.TrueHD.7.1.Atmos-SWTYBLZ 39.15GB-1.png

译  名 猛禽小队和哈莉·奎茵 / Birds of Prey / Birds of Prey (And the Fantabulous Emancipation of One Harley Quinn) / Harley Quinn: Birds of Prey / 哈莉·奎因:猛禽小队 / 猛禽小队 / 猛禽小队(以及一个哈莉·奎茵的奇妙解放) / 猛禽小队与哈莉·奎茵的奇妙解放 / 猛禽小队:小丑女大解放(台) / 猛禽暴队:解疯小丑女(港)
片  名 Birds of Prey: And the Fantabulous Emancipation of One Harley Quinn
年  代 2020
产  地 美国
类  别 动作 / 犯罪 / 冒险
语  言 英语
上映日期 2020-02-07(美国)
IMDb评分  6.2/10 from 102620 users
IMDb链接  https://www.imdb.com/title/tt7713068
豆瓣评分 5.7/10 from 49437 users
豆瓣链接 https://movie.douban.com/subject/30160393/
片  长 109分钟
导  演 阎羽茜 Cathy Yan
编  剧 克里斯蒂娜·霍德森 Christina Hodson / 查克·狄克逊 Chuck Dixon / 乔丹·B·戈芬克尔 Jordan B. Gorfinkel / 格雷格·兰德 Greg Land
主  演 玛格特·罗比 Margot Robbie
       玛丽·伊丽莎白·温斯特德 Mary Elizabeth Winstead
       罗茜·佩雷兹 Rosie Perez
       朱尼·斯莫利特 Jurnee Smollett
       伊万·麦克格雷格 Ewan McGregor
       埃拉·杰伊·巴斯科 Ella Jay Basco
       克里斯·梅西纳 Chris Messina
       黄阿丽 Ali Wong
       戴维·尤里 David Ury
       萨拉·蒙特斯 Sara Montez
       伊莎贝尔·帕克扎德 Isabel Pakzad
       丹尼尔·伯哈特 Daniel Bernhardt
       帕洛马·拉比诺夫 Paloma Rabinov
       德里克·威尔逊 Derek Wilson
       乔·布卡罗三世 Joe Bucaro III
       弗朗克西斯·周 Fran?ois Chau
       布鲁诺·奥利弗 Bruno Oliver
       马修·维利希 Matthew Willig
       杰里米·丹茨林格 Jeremy Denzlinger
       迈克尔·马西尼 Michael Masini
       杰西·布什 Jesse Bush
       史蒂文·威廉姆斯 Steven Williams
       夏洛林·阿莫亚 Charlene Amoia
       罗伯特·卡特里尼 Robert Catrini
       埃迪·阿尔法诺 Eddie Alfano
       普拉莫德库马尔 Pramod Kumar
       K.K. 巴雷特 K.K. Barrett
       西蒙·瑞 Simon Rhee
       凯莱布·斯比尔亚兹 Caleb Spillyards
       萨拉·贝克 Sala Baker
       埃夫卡·科瓦拉西尤斯 Efka Kvaraciejus
       山姆·哈格雷夫 Sam Hargrave
       丹尼斯·基弗 Dennis Keiffer
       博亚娜·诺瓦科维奇 Bojana Novakovi?
       埃里克·迈克尔·科尔 Eric Michael Cole
       提姆·里格比 Tim Rigby
       大卫·安东尼·布廖内 David Anthony Buglione
       杰拉德·唐尼 Gerald Downey
       埃迪·J.费尔南德斯 Eddie J. Fernandez
       尼科·格莱瑟姆 Nico Greetham
       朱迪·凯恩 Judy Kain
       杰夫·里帕瑞 Jeff Lipary
       詹妮尔·麦基 Jenelle McKee
       伊戈·米基塔斯 Ego Mikitas
       安东尼·莫利纳利 Anthony Molinari
       迪索·拉莫斯 Diezel Ramos
       凯伦·特利哈 Karen Teliha


标  签 DC | 犯罪 | 女性 | 美国 | 超级英雄 | 动作 | 漫画改编 | 2020

简  介  

  你听过一个有关警察、歌手、神经病和黑手党公主的故事吗?《猛禽小队和哈莉·奎茵》是一个只有哈莉·奎茵本人才能讲出来的超乎寻常的奇妙传奇。哥谭市最为凶残自大的恶棍罗曼·赛恩尼斯和他狂热的手下萨斯为了寻找一个年轻女孩卡斯,将这座城市翻了个底朝天。哈莉、女猎手、黑金丝雀和蕾妮·蒙托亚不期而遇,看似违和的四人组不得不团结一致、携手作战,才有可能打败罗曼。

获奖情况  

  第6届豆瓣电影年度榜单(2019)
  最值得期待的外语电影(提名)
  1. Video
  2. ID                                       : 1
  3. Format                                   : HEVC
  4. Format/Info                              : High Efficiency Video Coding
  5. Format profile                           : Main High@L4@High
  6. Codec ID                                 : V_MPEGH/ISO/HEVC
  7. Duration                                 : 1 h 48 min
  8. Bit rate                                 : 42.5 Mb/s
  9. Width                                    : 3 840 pixels
  10. Height                                   : 1 608 pixels
  11. Display aspect ratio                     : 2.40:1
  12. Frame rate mode                          : Constant
  13. Frame rate                               : 23.976 (24000/1001/189150) FPS
  14. Color space                              : YUV
  15. Chroma subsampling                       : 4:2:0
  16. Bit depth                                : 10 bits
  17. Bits/(Pixel*Frame)                       : 0.287
  18. Stream size                              : 32.3 GiB (83%)
  19. Title                                    : Birds.of.Prey.And.the.Fantabulous.Emancipation.of.One.Harley.Quinn.2020.2160p.BluRay.x265.10bit.SDR.DTS-HD.MA.TrueHD.7.1.Atmos-SWTYBLZ
  20. Writing library                          : x265 3.0ed72af837053:[Windows][GCC 8.2.0][64 bit] 10bit
  21. Encoding settings                        : cpuid=1111039 / frame-threads=6 / numa-pools=40 / wpp / no-pmode / no-pme / no-psnr / no-ssim / log-level=2 / input-csp=1 / input-res=3840x1608 / interlace=0 / total-frames=156665 / level-idc=51 / high-tier=1 / uhd-bd=0 / ref=3 / no-allow-non-conformance / repeat-headers / annexb / aud / hrd / info / hash=0 / no-temporal-layers / no-open-gop / min-keyint=1 / keyint=24 / gop-lookahead=0 / bframes=4 / b-adapt=2 / b-pyramid / bframe-bias=0 / rc-lookahead=25 / lookahead-slices=4 / scenecut=40 / radl=0 / no-splice / no-intra-refresh / ctu=64 / min-cu-size=8 / no-rect / no-amp / max-tu-size=32 / tu-inter-depth=1 / tu-intra-depth=1 / limit-tu=0 / rdoq-level=0 / dynamic-rd=0.00 / no-ssim-rd / signhide / no-tskip / nr-intra=0 / nr-inter=0 / no-constrained-intra / strong-intra-smoothing / max-merge=2 / limit-refs=3 / no-limit-modes / me=1 / subme=2 / merange=57 / temporal-mvp / weightp / no-weightb / no-analyze-src-pics / deblock=0:0 / no-sao / no-sao-non-deblock / rd=3 / no-early-skip / rskip / no-fast-intra / no-tskip-fast / no-cu-lossless / no-b-intra / no-splitrd-skip / rdpenalty=0 / psy-rd=2.00 / psy-rdoq=0.00 / no-rd-refine / no-lossless / cbqpoffs=0 / crqpoffs=0 / rc=crf / crf=16.0 / qcomp=0.60 / qpstep=4 / stats-write=0 / stats-read=0 / vbv-maxrate=160000 / vbv-bufsize=160000 / vbv-init=0.9 / crf-max=0.0 / crf-min=0.0 / ipratio=1.40 / pbratio=1.30 / aq-mode=1 / aq-strength=1.00 / cutree / zone-count=0 / no-strict-cbr / qg-size=32 / no-rc-grain / qpmax=69 / qpmin=0 / no-const-vbv / sar=1 / overscan=0 / videoformat=5 / range=0 / colorprim=2 / transfer=2 / colormatrix=2 / chromaloc=0 / display-window=0 / max-cll=0,0 / min-luma=0 / max-luma=1023 / log2-max-poc-lsb=8 / vui-timing-info / vui-hrd-info / slices=1 / opt-qp-pps / opt-ref-list-length-pps / no-multi-pass-opt-rps / scenecut-bias=0.05 / no-opt-cu-delta-qp / no-aq-motion / no-hdr / no-hdr-opt / no-dhdr10-opt / no-idr-recovery-sei / analysis-reuse-level=5 / scale-factor=0 / refine-intra=0 / refine-inter=0 / refine-mv=0 / refine-ctu-distortion=0 / no-limit-sao / ctu-info=0 / no-lowpass-dct / refine-analysis-type=0 / copy-pic=1 / max-ausize-factor=1.0 / no-dynamic-refine / no-single-sei / no-hevc-aq / qp-adaptation-range=1.00
  22. Default                                  : Yes
  23. Forced                                   : No

  24. Audio #1
  25. ID                                       : 2
  26. Format                                   : MLP FBA 16-ch
  27. Format/Info                              : Meridian Lossless Packing FBA with 16-channel presentation
  28. Commercial name                          : Dolby TrueHD with Dolby Atmos
  29. Codec ID                                 : A_TRUEHD
  30. Duration                                 : 1 h 48 min
  31. Bit rate mode                            : Variable
  32. Bit rate                                 : 3 686 kb/s
  33. Maximum bit rate                         : 6 912 kb/s
  34. Channel(s)                               : 8 channels
  35. Channel layout                           : L R C LFE Ls Rs Lb Rb
  36. Sampling rate                            : 48.0 kHz
  37. Frame rate                               : 1 200.000 FPS (40 SPF)
  38. Compression mode                         : Lossless
  39. Stream size                              : 2.80 GiB (7%)
  40. Title                                    : Birds.of.Prey.And.the.Fantabulous.Emancipation.of.One.Harley.Quinn.2020.2160p.BluRay.x265.10bit.SDR.DTS-HD.MA.TrueHD.7.1.Atmos-SWTYBLZ
  41. Language                                 : English
  42. Default                                  : Yes
  43. Forced                                   : No
  44. Number of dynamic objects                : 15
  45. Bed channel count                        : 1 channel
  46. Bed channel configuration                : LFE

  47. Audio #2
  48. ID                                       : 3
  49. Format                                   : DTS XLL
  50. Format/Info                              : Digital Theater Systems
  51. Commercial name                          : DTS-HD Master Audio
  52. Codec ID                                 : A_DTS
  53. Duration                                 : 1 h 48 min
  54. Bit rate mode                            : Variable
  55. Bit rate                                 : 4 251 kb/s
  56. Channel(s)                               : 8 channels
  57. Channel layout                           : C L R LFE Lb Rb Lss Rss
  58. Sampling rate                            : 48.0 kHz
  59. Frame rate                               : 93.750 FPS (512 SPF)
  60. Bit depth                                : 24 bits
  61. Compression mode                         : Lossless
  62. Stream size                              : 3.23 GiB (8%)
  63. Title                                    : Birds.of.Prey.And.the.Fantabulous.Emancipation.of.One.Harley.Quinn.2020.2160p.BluRay.x265.10bit.SDR.DTS-HD.MA.TrueHD.7.1.Atmos-SWTYBLZ
  64. Language                                 : English
  65. Default                                  : No
  66. Forced                                   : No

  67. Audio #3
  68. ID                                       : 4
  69. Format                                   : AC-3
  70. Format/Info                              : Audio Coding 3
  71. Commercial name                          : Dolby Digital
  72. Codec ID                                 : A_AC3
  73. Duration                                 : 1 h 48 min
  74. Bit rate mode                            : Constant
  75. Bit rate                                 : 640 kb/s
  76. Channel(s)                               : 6 channels
  77. Channel layout                           : L R C LFE Ls Rs
  78. Sampling rate                            : 48.0 kHz
  79. Frame rate                               : 31.250 FPS (1536 SPF)
  80. Bit depth                                : 16 bits
  81. Compression mode                         : Lossy
  82. Stream size                              : 499 MiB (1%)
  83. Title                                    : Birds.of.Prey.And.the.Fantabulous.Emancipation.of.One.Harley.Quinn.2020.2160p.BluRay.x265.10bit.SDR.DTS-HD.MA.TrueHD.7.1.Atmos-SWTYBLZ
  84. Language                                 : English
  85. Service kind                             : Complete Main
  86. Default                                  : No
  87. Forced                                   : No

  88. Text #1
  89. ID                                       : 5
  90. Format                                   : UTF-8
  91. Codec ID                                 : S_TEXT/UTF8
  92. Codec ID/Info                            : UTF-8 Plain Text
  93. Duration                                 : 1 h 48 min
  94. Bit rate                                 : 60 b/s
  95. Count of elements                        : 1677
  96. Stream size                              : 47.7 KiB (0%)
  97. Title                                    : English-SRT
  98. Language                                 : English
  99. Default                                  : Yes
  100. Forced                                   : No

  101. Text #2
  102. ID                                       : 6
  103. Format                                   : PGS
  104. Muxing mode                              : zlib
  105. Codec ID                                 : S_HDMV/PGS
  106. Codec ID/Info                            : Picture based subtitle format used on BDs/HD-DVDs
  107. Duration                                 : 1 h 48 min
  108. Bit rate                                 : 43.7 kb/s
  109. Count of elements                        : 3876
  110. Stream size                              : 33.9 MiB (0%)
  111. Title                                    : English-PGS
  112. Language                                 : English
  113. Default                                  : No
  114. Forced                                   : No

  115. Text #3
  116. ID                                       : 7
  117. Format                                   : PGS
  118. Muxing mode                              : zlib
  119. Codec ID                                 : S_HDMV/PGS
  120. Codec ID/Info                            : Picture based subtitle format used on BDs/HD-DVDs
  121. Duration                                 : 1 h 48 min
  122. Bit rate                                 : 18.4 kb/s
  123. Count of elements                        : 3012
  124. Stream size                              : 14.2 MiB (0%)
  125. Title                                    : Arabic-PGS
  126. Language                                 : Arabic
  127. Default                                  : No
  128. Forced                                   : No

  129. Text #4
  130. ID                                       : 8
  131. Format                                   : PGS
  132. Muxing mode                              : zlib
  133. Codec ID                                 : S_HDMV/PGS
  134. Codec ID/Info                            : Picture based subtitle format used on BDs/HD-DVDs
  135. Duration                                 : 1 h 48 min
  136. Bit rate                                 : 28.5 kb/s
  137. Count of elements                        : 2926
  138. Stream size                              : 22.1 MiB (0%)
  139. Title                                    : Chinese-PGS
  140. Language                                 : Chinese
  141. Default                                  : No
  142. Forced                                   : No

  143. Text #5
  144. ID                                       : 9
  145. Format                                   : PGS
  146. Muxing mode                              : zlib
  147. Codec ID                                 : S_HDMV/PGS
  148. Codec ID/Info                            : Picture based subtitle format used on BDs/HD-DVDs
  149. Duration                                 : 1 h 48 min
  150. Bit rate                                 : 28.4 kb/s
  151. Count of elements                        : 2786
  152. Stream size                              : 22.0 MiB (0%)
  153. Title                                    : Chinese-PGS
  154. Language                                 : Chinese
  155. Default                                  : No
  156. Forced                                   : No

  157. Text #6
  158. ID                                       : 10
  159. Format                                   : PGS
  160. Muxing mode                              : zlib
  161. Codec ID                                 : S_HDMV/PGS
  162. Codec ID/Info                            : Picture based subtitle format used on BDs/HD-DVDs
  163. Duration                                 : 1 h 48 min
  164. Bit rate                                 : 29.5 kb/s
  165. Count of elements                        : 2922
  166. Stream size                              : 22.9 MiB (0%)
  167. Title                                    : Czech-PGS
  168. Language                                 : Czech
  169. Default                                  : No
  170. Forced                                   : No

  171. Text #7
  172. ID                                       : 11
  173. Format                                   : PGS
  174. Muxing mode                              : zlib
  175. Codec ID                                 : S_HDMV/PGS
  176. Codec ID/Info                            : Picture based subtitle format used on BDs/HD-DVDs
  177. Duration                                 : 1 h 48 min
  178. Bit rate                                 : 27.3 kb/s
  179. Count of elements                        : 2854
  180. Stream size                              : 21.2 MiB (0%)
  181. Title                                    : French-PGS
  182. Language                                 : French
  183. Default                                  : No
  184. Forced                                   : No

  185. Text #8
  186. ID                                       : 12
  187. Format                                   : PGS
  188. Muxing mode                              : zlib
  189. Codec ID                                 : S_HDMV/PGS
  190. Codec ID/Info                            : Picture based subtitle format used on BDs/HD-DVDs
  191. Duration                                 : 1 h 48 min
  192. Bit rate                                 : 18.4 kb/s
  193. Count of elements                        : 2848
  194. Stream size                              : 14.3 MiB (0%)
  195. Title                                    : Korean-PGS
  196. Language                                 : Korean
  197. Default                                  : No
  198. Forced                                   : No

  199. Text #9
  200. ID                                       : 13
  201. Format                                   : PGS
  202. Muxing mode                              : zlib
  203. Codec ID                                 : S_HDMV/PGS
  204. Codec ID/Info                            : Picture based subtitle format used on BDs/HD-DVDs
  205. Duration                                 : 1 h 48 min
  206. Bit rate                                 : 27.6 kb/s
  207. Count of elements                        : 2772
  208. Stream size                              : 21.3 MiB (0%)
  209. Title                                    : Polish-PGS
  210. Language                                 : Polish
  211. Default                                  : No
  212. Forced                                   : No

  213. Text #10
  214. ID                                       : 14
  215. Format                                   : PGS
  216. Muxing mode                              : zlib
  217. Codec ID                                 : S_HDMV/PGS
  218. Codec ID/Info                            : Picture based subtitle format used on BDs/HD-DVDs
  219. Duration                                 : 1 h 48 min
  220. Bit rate                                 : 31.6 kb/s
  221. Count of elements                        : 2914
  222. Stream size                              : 24.5 MiB (0%)
  223. Title                                    : Portuguese-PGS
  224. Language                                 : Portuguese
  225. Default                                  : No
  226. Forced                                   : No

  227. Text #11
  228. ID                                       : 15
  229. Format                                   : PGS
  230. Muxing mode                              : zlib
  231. Codec ID                                 : S_HDMV/PGS
  232. Codec ID/Info                            : Picture based subtitle format used on BDs/HD-DVDs
  233. Duration                                 : 1 h 48 min
  234. Bit rate                                 : 32.8 kb/s
  235. Count of elements                        : 2926
  236. Stream size                              : 25.4 MiB (0%)
  237. Title                                    : Spanish-PGS
  238. Language                                 : Spanish
  239. Default                                  : No
  240. Forced                                   : No

  241. Menu
  242. 00:00:00.000                             : en:Chapter 1
  243. 00:08:08.446                             : en:Chapter 2
  244. 00:17:53.739                             : en:Chapter 3
  245. 00:27:11.839                             : en:Chapter 4
  246. 00:35:40.805                             : en:Chapter 5
  247. 00:44:48.352                             : en:Chapter 6
  248. 00:53:43.387                             : en:Chapter 7
  249. 01:01:15.547                             : en:Chapter 8
  250. 01:10:55.960                             : en:Chapter 9
  251. 01:19:06.492                             : en:Chapter 10
  252. 01:24:28.146                             : en:Chapter 11
  253. 01:34:27.996                             : en:Chapter 12
  254. 01:41:26.998                             : en:Chapter 13
复制代码

猛禽小队和哈莉·奎茵 Birds.of.Prey.And.the.Fantabulous.Emancipation.of.One.Harley.Quinn.2020.2160p.BluRay.x265.10bit.SDR.DTS-HD.MA.TrueHD.7.1.Atmos-SWTYBLZ 39.15GB-2.png 猛禽小队和哈莉·奎茵 Birds.of.Prey.And.the.Fantabulous.Emancipation.of.One.Harley.Quinn.2020.2160p.BluRay.x265.10bit.SDR.DTS-HD.MA.TrueHD.7.1.Atmos-SWTYBLZ 39.15GB-3.png 猛禽小队和哈莉·奎茵 Birds.of.Prey.And.the.Fantabulous.Emancipation.of.One.Harley.Quinn.2020.2160p.BluRay.x265.10bit.SDR.DTS-HD.MA.TrueHD.7.1.Atmos-SWTYBLZ 39.15GB-4.png 猛禽小队和哈莉·奎茵 Birds.of.Prey.And.the.Fantabulous.Emancipation.of.One.Harley.Quinn.2020.2160p.BluRay.x265.10bit.SDR.DTS-HD.MA.TrueHD.7.1.Atmos-SWTYBLZ 39.15GB-5.png 猛禽小队和哈莉·奎茵 Birds.of.Prey.And.the.Fantabulous.Emancipation.of.One.Harley.Quinn.2020.2160p.BluRay.x265.10bit.SDR.DTS-HD.MA.TrueHD.7.1.Atmos-SWTYBLZ 39.15GB-6.png 猛禽小队和哈莉·奎茵 Birds.of.Prey.And.the.Fantabulous.Emancipation.of.One.Harley.Quinn.2020.2160p.BluRay.x265.10bit.SDR.DTS-HD.MA.TrueHD.7.1.Atmos-SWTYBLZ 39.15GB-7.png 猛禽小队和哈莉·奎茵 Birds.of.Prey.And.the.Fantabulous.Emancipation.of.One.Harley.Quinn.2020.2160p.BluRay.x265.10bit.SDR.DTS-HD.MA.TrueHD.7.1.Atmos-SWTYBLZ 39.15GB-8.png







回复

使用道具 举报

发表于 2020-5-7 13:58:37 | 显示全部楼层

楼主太厉害了!楼主,电影应该很好看我觉得蓝光电影网真是个好地方!
回复 支持 反对

使用道具 举报

 成长值: 430

发表于 2020-5-8 16:10:11 | 显示全部楼层
搞不懂HDR和SDR到底有什么区别。
回复 支持 反对

使用道具 举报

发表于 2020-5-10 02:07:08 | 显示全部楼层

这东西我收了!谢谢楼主!蓝光电影网真好!
回复 支持 反对

使用道具 举报

发表于 2020-5-15 02:30:52 | 显示全部楼层
版主
搞不懂10bitHDR和10bitSDR到底有什么区别。
回复 支持 反对

使用道具 举报

懒得打字嘛,点击右侧快捷回复 【右侧内容,后台自定义】
您需要登录后才可以回帖 登录 | 立即加入

本版积分规则

现在加入蓝光电影网,注册一个账号
上个主题 下个主题 快速回复 收藏帖子 返回列表 客服中心 搜索

手机版|小黑屋| 蓝光电影网 |网站地图 

Copyright © 2015-2019 Comsenz Inc.  Template by 蓝光电影论坛 All Rights Reserved.

Powered by 蓝光电影网 X3.4

特别声明:本站所有资源均由网上收集而来,版权归原影音公司所有,如果侵犯了你的权益,请通知我们,我们会及时删除侵权内容.

快速回复 返回顶部 返回列表