找回密码

蓝光电影网

查看: 441|回复: 9

[REMUX.HEVC] 猛禽小队和哈莉·奎茵 Birds.of.Prey.And.the.Fantabulous.Emancipation.of.One.Harley.Quinn.2020.2160p.BluRay.REMUX.HEVC.DTS-HD.MA.TrueHD.7.1.Atmos-FGT 54.68GB

[复制链接]

 成长值: 26125

发表于 2020-5-6 20:59:31 | 显示全部楼层 |阅读模式
猛禽小队和哈莉·奎茵 Birds.of.Prey.And.the.Fantabulous.Emancipation.of.One.Harley.Quinn.2020.2160p.BluRay.REMUX.HEVC.DTS-HD.MA.TrueHD.7.1.Atmos-FGT 54.68GB-1.png

译  名 猛禽小队和哈莉·奎茵 / Birds of Prey / Birds of Prey (And the Fantabulous Emancipation of One Harley Quinn) / Harley Quinn: Birds of Prey / 哈莉·奎因:猛禽小队 / 猛禽小队 / 猛禽小队(以及一个哈莉·奎茵的奇妙解放) / 猛禽小队与哈莉·奎茵的奇妙解放 / 猛禽小队:小丑女大解放(台) / 猛禽暴队:解疯小丑女(港)
片  名 Birds of Prey: And the Fantabulous Emancipation of One Harley Quinn
年  代 2020
产  地 美国
类  别 动作 / 犯罪 / 冒险
语  言 英语
上映日期 2020-02-07(美国)
IMDb评分  6.2/10 from 102620 users
IMDb链接  https://www.imdb.com/title/tt7713068
豆瓣评分 5.7/10 from 49437 users
豆瓣链接 https://movie.douban.com/subject/30160393/
片  长 109分钟
导  演 阎羽茜 Cathy Yan
编  剧 克里斯蒂娜·霍德森 Christina Hodson / 查克·狄克逊 Chuck Dixon / 乔丹·B·戈芬克尔 Jordan B. Gorfinkel / 格雷格·兰德 Greg Land
主  演 玛格特·罗比 Margot Robbie
       玛丽·伊丽莎白·温斯特德 Mary Elizabeth Winstead
       罗茜·佩雷兹 Rosie Perez
       朱尼·斯莫利特 Jurnee Smollett
       伊万·麦克格雷格 Ewan McGregor
       埃拉·杰伊·巴斯科 Ella Jay Basco
       克里斯·梅西纳 Chris Messina
       黄阿丽 Ali Wong
       戴维·尤里 David Ury
       萨拉·蒙特斯 Sara Montez
       伊莎贝尔·帕克扎德 Isabel Pakzad
       丹尼尔·伯哈特 Daniel Bernhardt
       帕洛马·拉比诺夫 Paloma Rabinov
       德里克·威尔逊 Derek Wilson
       乔·布卡罗三世 Joe Bucaro III
       弗朗克西斯·周 Fran?ois Chau
       布鲁诺·奥利弗 Bruno Oliver
       马修·维利希 Matthew Willig
       杰里米·丹茨林格 Jeremy Denzlinger
       迈克尔·马西尼 Michael Masini
       杰西·布什 Jesse Bush
       史蒂文·威廉姆斯 Steven Williams
       夏洛林·阿莫亚 Charlene Amoia
       罗伯特·卡特里尼 Robert Catrini
       埃迪·阿尔法诺 Eddie Alfano
       普拉莫德库马尔 Pramod Kumar
       K.K. 巴雷特 K.K. Barrett
       西蒙·瑞 Simon Rhee
       凯莱布·斯比尔亚兹 Caleb Spillyards
       萨拉·贝克 Sala Baker
       埃夫卡·科瓦拉西尤斯 Efka Kvaraciejus
       山姆·哈格雷夫 Sam Hargrave
       丹尼斯·基弗 Dennis Keiffer
       博亚娜·诺瓦科维奇 Bojana Novakovi?
       埃里克·迈克尔·科尔 Eric Michael Cole
       提姆·里格比 Tim Rigby
       大卫·安东尼·布廖内 David Anthony Buglione
       杰拉德·唐尼 Gerald Downey
       埃迪·J.费尔南德斯 Eddie J. Fernandez
       尼科·格莱瑟姆 Nico Greetham
       朱迪·凯恩 Judy Kain
       杰夫·里帕瑞 Jeff Lipary
       詹妮尔·麦基 Jenelle McKee
       伊戈·米基塔斯 Ego Mikitas
       安东尼·莫利纳利 Anthony Molinari
       迪索·拉莫斯 Diezel Ramos
       凯伦·特利哈 Karen Teliha


标  签 DC | 犯罪 | 女性 | 美国 | 超级英雄 | 动作 | 漫画改编 | 2020

简  介  

  你听过一个有关警察、歌手、神经病和黑手党公主的故事吗?《猛禽小队和哈莉·奎茵》是一个只有哈莉·奎茵本人才能讲出来的超乎寻常的奇妙传奇。哥谭市最为凶残自大的恶棍罗曼·赛恩尼斯和他狂热的手下萨斯为了寻找一个年轻女孩卡斯,将这座城市翻了个底朝天。哈莉、女猎手、黑金丝雀和蕾妮·蒙托亚不期而遇,看似违和的四人组不得不团结一致、携手作战,才有可能打败罗曼。

获奖情况  

  第6届豆瓣电影年度榜单(2019)
  最值得期待的外语电影(提名)
  1. Video #1
  2. ID                                       : 1
  3. ID in the original source medium         : 4113 (0x1011)
  4. Format                                   : HEVC
  5. Format/Info                              : High Efficiency Video Coding
  6. Format profile                           : Main High@L4@High
  7. HDR format                               : SMPTE ST 2094 App 4, Version 1, HDR10+ Profile B compatible
  8. Codec ID                                 : V_MPEGH/ISO/HEVC
  9. Duration                                 : 1 h 48 min
  10. Bit rate                                 : 59.9 Mb/s
  11. Width                                    : 3 840 pixels
  12. Height                                   : 2 160 pixels
  13. Display aspect ratio                     : 16:9
  14. Frame rate mode                          : Constant
  15. Frame rate                               : 23.976 (24000/1001/189150) FPS
  16. Color space                              : YUV
  17. Chroma subsampling                       : 4:2:0 (Type 2)
  18. Bit depth                                : 10 bits
  19. Bits/(Pixel*Frame)                       : 0.301
  20. Stream size                              : 45.6 GiB (83%)
  21. Title                                    : Birds.of.Prey.2020.2160p.BluRay.REMUX.HEVC.DTS-HD.MA.TrueHD.7.1.Atmos-FGT
  22. Language                                 : English
  23. Default                                  : Yes
  24. Forced                                   : No
  25. Color range                              : Limited
  26. Color primaries                          : BT.2020
  27. Transfer characteristics                 : PQ
  28. Matrix coefficients                      : BT.2020 non-constant
  29. Mastering display color primaries        : BT.2020
  30. Mastering display luminance              : min: 0.0050 cd/m2, max: 4000 cd/m2
  31. Maximum Content Light Level              : 683 cd/m2
  32. Maximum Frame-Average Light Level        : 136 cd/m2
  33. Original source medium                   : Blu-ray

  34. Video #2
  35. ID                                       : 2
  36. ID in the original source medium         : 4117 (0x1015)
  37. Format                                   : HEVC
  38. Format/Info                              : High Efficiency Video Coding
  39. Format profile                           : Main High@L4@High
  40. HDR format                               : SMPTE ST 2086, HDR10 compatible
  41. Codec ID                                 : V_MPEGH/ISO/HEVC
  42. Duration                                 : 1 h 48 min
  43. Bit rate                                 : 63.3 kb/s
  44. Width                                    : 1 920 pixels
  45. Height                                   : 1 080 pixels
  46. Display aspect ratio                     : 16:9
  47. Frame rate mode                          : Constant
  48. Frame rate                               : 23.976 (24000/1001/189150) FPS
  49. Color space                              : YUV
  50. Chroma subsampling                       : 4:2:0 (Type 2)
  51. Bit depth                                : 10 bits
  52. Bits/(Pixel*Frame)                       : 0.001
  53. Stream size                              : 49.3 MiB (0%)
  54. Title                                    : Birds.of.Prey.2020.2160p.BluRay.REMUX.HEVC.DTS-HD.MA.TrueHD.7.1.Atmos-FGT
  55. Language                                 : English
  56. Default                                  : No
  57. Forced                                   : No
  58. Color range                              : Limited
  59. Color primaries                          : BT.2020
  60. Transfer characteristics                 : PQ
  61. Matrix coefficients                      : BT.2020 non-constant
  62. Mastering display color primaries        : BT.2020
  63. Mastering display luminance              : min: 0.0050 cd/m2, max: 4000 cd/m2
  64. Original source medium                   : Blu-ray

  65. Audio #1
  66. ID                                       : 3
  67. ID in the original source medium         : 4352 (0x1100)
  68. Format                                   : MLP FBA 16-ch
  69. Format/Info                              : Meridian Lossless Packing FBA with 16-channel presentation
  70. Commercial name                          : Dolby TrueHD with Dolby Atmos
  71. Codec ID                                 : A_TRUEHD
  72. Duration                                 : 1 h 48 min
  73. Bit rate mode                            : Variable
  74. Bit rate                                 : 3 686 kb/s
  75. Maximum bit rate                         : 6 912 kb/s
  76. Channel(s)                               : 8 channels
  77. Channel layout                           : L R C LFE Ls Rs Lb Rb
  78. Sampling rate                            : 48.0 kHz
  79. Frame rate                               : 1 200.000 FPS (40 SPF)
  80. Compression mode                         : Lossless
  81. Stream size                              : 2.80 GiB (5%)
  82. Title                                    : Birds.of.Prey.2020.2160p.BluRay.REMUX.HEVC.DTS-HD.MA.TrueHD.7.1.Atmos-FGT
  83. Language                                 : English
  84. Default                                  : Yes
  85. Forced                                   : No
  86. Original source medium                   : Blu-ray
  87. Number of dynamic objects                : 15
  88. Bed channel count                        : 1 channel
  89. Bed channel configuration                : LFE

  90. Audio #2
  91. ID                                       : 4
  92. Format                                   : DTS XLL
  93. Format/Info                              : Digital Theater Systems
  94. Commercial name                          : DTS-HD Master Audio
  95. Codec ID                                 : A_DTS
  96. Duration                                 : 1 h 48 min
  97. Bit rate mode                            : Variable
  98. Bit rate                                 : 4 251 kb/s
  99. Channel(s)                               : 8 channels
  100. Channel layout                           : C L R LFE Lb Rb Lss Rss
  101. Sampling rate                            : 48.0 kHz
  102. Frame rate                               : 93.750 FPS (512 SPF)
  103. Bit depth                                : 24 bits
  104. Compression mode                         : Lossless
  105. Stream size                              : 3.23 GiB (6%)
  106. Title                                    : Birds.of.Prey.2020.2160p.BluRay.REMUX.HEVC.DTS-HD.MA.TrueHD.7.1.Atmos-FGT
  107. Language                                 : English
  108. Default                                  : No
  109. Forced                                   : No

  110. Audio #3
  111. ID                                       : 5
  112. ID in the original source medium         : 4352 (0x1100)
  113. Format                                   : AC-3
  114. Format/Info                              : Audio Coding 3
  115. Commercial name                          : Dolby Digital
  116. Codec ID                                 : A_AC3
  117. Duration                                 : 1 h 48 min
  118. Bit rate mode                            : Constant
  119. Bit rate                                 : 640 kb/s
  120. Channel(s)                               : 6 channels
  121. Channel layout                           : L R C LFE Ls Rs
  122. Sampling rate                            : 48.0 kHz
  123. Frame rate                               : 31.250 FPS (1536 SPF)
  124. Bit depth                                : 16 bits
  125. Compression mode                         : Lossy
  126. Stream size                              : 499 MiB (1%)
  127. Title                                    : Birds.of.Prey.2020.2160p.BluRay.REMUX.HEVC.DTS-HD.MA.TrueHD.7.1.Atmos-FGT
  128. Language                                 : English
  129. Service kind                             : Complete Main
  130. Default                                  : No
  131. Forced                                   : No
  132. Original source medium                   : Blu-ray

  133. Audio #4
  134. ID                                       : 6
  135. ID in the original source medium         : 4353 (0x1101)
  136. Format                                   : AC-3
  137. Format/Info                              : Audio Coding 3
  138. Commercial name                          : Dolby Digital
  139. Codec ID                                 : A_AC3
  140. Duration                                 : 1 h 48 min
  141. Bit rate mode                            : Constant
  142. Bit rate                                 : 448 kb/s
  143. Channel(s)                               : 6 channels
  144. Channel layout                           : L R C LFE Ls Rs
  145. Sampling rate                            : 48.0 kHz
  146. Frame rate                               : 31.250 FPS (1536 SPF)
  147. Bit depth                                : 16 bits
  148. Compression mode                         : Lossy
  149. Stream size                              : 349 MiB (1%)
  150. Title                                    : Birds.of.Prey.2020.2160p.BluRay.REMUX.HEVC.DTS-HD.MA.TrueHD.7.1.Atmos-FGT
  151. Language                                 : English
  152. Service kind                             : Complete Main
  153. Default                                  : No
  154. Forced                                   : No
  155. Original source medium                   : Blu-ray

  156. Audio #5
  157. ID                                       : 7
  158. ID in the original source medium         : 4354 (0x1102)
  159. Format                                   : AC-3
  160. Format/Info                              : Audio Coding 3
  161. Commercial name                          : Dolby Digital
  162. Codec ID                                 : A_AC3
  163. Duration                                 : 1 h 48 min
  164. Bit rate mode                            : Constant
  165. Bit rate                                 : 448 kb/s
  166. Channel(s)                               : 6 channels
  167. Channel layout                           : L R C LFE Ls Rs
  168. Sampling rate                            : 48.0 kHz
  169. Frame rate                               : 31.250 FPS (1536 SPF)
  170. Bit depth                                : 16 bits
  171. Compression mode                         : Lossy
  172. Stream size                              : 349 MiB (1%)
  173. Title                                    : Birds.of.Prey.2020.2160p.BluRay.REMUX.HEVC.DTS-HD.MA.TrueHD.7.1.Atmos-FGT
  174. Language                                 : English
  175. Service kind                             : Complete Main
  176. Default                                  : No
  177. Forced                                   : No
  178. Original source medium                   : Blu-ray

  179. Audio #6
  180. ID                                       : 8
  181. ID in the original source medium         : 4355 (0x1103)
  182. Format                                   : AC-3
  183. Format/Info                              : Audio Coding 3
  184. Commercial name                          : Dolby Digital
  185. Codec ID                                 : A_AC3
  186. Duration                                 : 1 h 48 min
  187. Bit rate mode                            : Constant
  188. Bit rate                                 : 448 kb/s
  189. Channel(s)                               : 6 channels
  190. Channel layout                           : L R C LFE Ls Rs
  191. Sampling rate                            : 48.0 kHz
  192. Frame rate                               : 31.250 FPS (1536 SPF)
  193. Bit depth                                : 16 bits
  194. Compression mode                         : Lossy
  195. Stream size                              : 349 MiB (1%)
  196. Title                                    : Birds.of.Prey.2020.2160p.BluRay.REMUX.HEVC.DTS-HD.MA.TrueHD.7.1.Atmos-FGT
  197. Language                                 : French
  198. Service kind                             : Complete Main
  199. Default                                  : No
  200. Forced                                   : No
  201. Original source medium                   : Blu-ray

  202. Audio #7
  203. ID                                       : 9
  204. ID in the original source medium         : 4356 (0x1104)
  205. Format                                   : AC-3
  206. Format/Info                              : Audio Coding 3
  207. Commercial name                          : Dolby Digital
  208. Codec ID                                 : A_AC3
  209. Duration                                 : 1 h 48 min
  210. Bit rate mode                            : Constant
  211. Bit rate                                 : 448 kb/s
  212. Channel(s)                               : 6 channels
  213. Channel layout                           : L R C LFE Ls Rs
  214. Sampling rate                            : 48.0 kHz
  215. Frame rate                               : 31.250 FPS (1536 SPF)
  216. Bit depth                                : 16 bits
  217. Compression mode                         : Lossy
  218. Stream size                              : 349 MiB (1%)
  219. Title                                    : Birds.of.Prey.2020.2160p.BluRay.REMUX.HEVC.DTS-HD.MA.TrueHD.7.1.Atmos-FGT
  220. Language                                 : Spanish
  221. Service kind                             : Complete Main
  222. Default                                  : No
  223. Forced                                   : No
  224. Original source medium                   : Blu-ray

  225. Audio #8
  226. ID                                       : 10
  227. ID in the original source medium         : 4357 (0x1105)
  228. Format                                   : AC-3
  229. Format/Info                              : Audio Coding 3
  230. Commercial name                          : Dolby Digital
  231. Codec ID                                 : A_AC3
  232. Duration                                 : 1 h 48 min
  233. Bit rate mode                            : Constant
  234. Bit rate                                 : 448 kb/s
  235. Channel(s)                               : 6 channels
  236. Channel layout                           : L R C LFE Ls Rs
  237. Sampling rate                            : 48.0 kHz
  238. Frame rate                               : 31.250 FPS (1536 SPF)
  239. Bit depth                                : 16 bits
  240. Compression mode                         : Lossy
  241. Stream size                              : 349 MiB (1%)
  242. Title                                    : Birds.of.Prey.2020.2160p.BluRay.REMUX.HEVC.DTS-HD.MA.TrueHD.7.1.Atmos-FGT
  243. Language                                 : Czech
  244. Service kind                             : Complete Main
  245. Default                                  : No
  246. Forced                                   : No
  247. Original source medium                   : Blu-ray

  248. Audio #9
  249. ID                                       : 11
  250. ID in the original source medium         : 4358 (0x1106)
  251. Format                                   : AC-3
  252. Format/Info                              : Audio Coding 3
  253. Commercial name                          : Dolby Digital
  254. Codec ID                                 : A_AC3
  255. Duration                                 : 1 h 48 min
  256. Bit rate mode                            : Constant
  257. Bit rate                                 : 448 kb/s
  258. Channel(s)                               : 6 channels
  259. Channel layout                           : L R C LFE Ls Rs
  260. Sampling rate                            : 48.0 kHz
  261. Frame rate                               : 31.250 FPS (1536 SPF)
  262. Bit depth                                : 16 bits
  263. Compression mode                         : Lossy
  264. Stream size                              : 349 MiB (1%)
  265. Title                                    : Birds.of.Prey.2020.2160p.BluRay.REMUX.HEVC.DTS-HD.MA.TrueHD.7.1.Atmos-FGT
  266. Language                                 : Hindi
  267. Service kind                             : Complete Main
  268. Default                                  : No
  269. Forced                                   : No
  270. Original source medium                   : Blu-ray

  271. Audio #10
  272. ID                                       : 12
  273. ID in the original source medium         : 4359 (0x1107)
  274. Format                                   : AC-3
  275. Format/Info                              : Audio Coding 3
  276. Commercial name                          : Dolby Digital
  277. Codec ID                                 : A_AC3
  278. Duration                                 : 1 h 48 min
  279. Bit rate mode                            : Constant
  280. Bit rate                                 : 448 kb/s
  281. Channel(s)                               : 6 channels
  282. Channel layout                           : L R C LFE Ls Rs
  283. Sampling rate                            : 48.0 kHz
  284. Frame rate                               : 31.250 FPS (1536 SPF)
  285. Bit depth                                : 16 bits
  286. Compression mode                         : Lossy
  287. Stream size                              : 349 MiB (1%)
  288. Title                                    : Birds.of.Prey.2020.2160p.BluRay.REMUX.HEVC.DTS-HD.MA.TrueHD.7.1.Atmos-FGT
  289. Language                                 : Polish
  290. Service kind                             : Complete Main
  291. Default                                  : No
  292. Forced                                   : No
  293. Original source medium                   : Blu-ray

  294. Text #1
  295. ID                                       : 13
  296. Format                                   : UTF-8
  297. Codec ID                                 : S_TEXT/UTF8
  298. Codec ID/Info                            : UTF-8 Plain Text
  299. Duration                                 : 1 h 48 min
  300. Bit rate                                 : 60 b/s
  301. Count of elements                        : 1677
  302. Stream size                              : 47.7 KiB (0%)
  303. Title                                    : English-SRT
  304. Language                                 : English
  305. Default                                  : Yes
  306. Forced                                   : No

  307. Text #2
  308. ID                                       : 14
  309. ID in the original source medium         : 4768 (0x12A0)
  310. Format                                   : PGS
  311. Muxing mode                              : zlib
  312. Codec ID                                 : S_HDMV/PGS
  313. Codec ID/Info                            : Picture based subtitle format used on BDs/HD-DVDs
  314. Duration                                 : 1 h 48 min
  315. Bit rate                                 : 43.7 kb/s
  316. Count of elements                        : 3876
  317. Stream size                              : 33.9 MiB (0%)
  318. Title                                    : English-PGS
  319. Language                                 : English
  320. Default                                  : No
  321. Forced                                   : No
  322. Original source medium                   : Blu-ray

  323. Text #3
  324. ID                                       : 15
  325. ID in the original source medium         : 4769 (0x12A1)
  326. Format                                   : PGS
  327. Muxing mode                              : zlib
  328. Codec ID                                 : S_HDMV/PGS
  329. Codec ID/Info                            : Picture based subtitle format used on BDs/HD-DVDs
  330. Duration                                 : 1 h 48 min
  331. Bit rate                                 : 27.3 kb/s
  332. Count of elements                        : 2854
  333. Stream size                              : 21.2 MiB (0%)
  334. Title                                    : French-PGS
  335. Language                                 : French
  336. Default                                  : No
  337. Forced                                   : No
  338. Original source medium                   : Blu-ray

  339. Text #4
  340. ID                                       : 16
  341. ID in the original source medium         : 4770 (0x12A2)
  342. Format                                   : PGS
  343. Muxing mode                              : zlib
  344. Codec ID                                 : S_HDMV/PGS
  345. Codec ID/Info                            : Picture based subtitle format used on BDs/HD-DVDs
  346. Duration                                 : 1 h 48 min
  347. Bit rate                                 : 28.4 kb/s
  348. Count of elements                        : 2786
  349. Stream size                              : 22.0 MiB (0%)
  350. Title                                    : Chinese-PGS
  351. Language                                 : Chinese
  352. Default                                  : No
  353. Forced                                   : No
  354. Original source medium                   : Blu-ray

  355. Text #5
  356. ID                                       : 17
  357. ID in the original source medium         : 4771 (0x12A3)
  358. Format                                   : PGS
  359. Muxing mode                              : zlib
  360. Codec ID                                 : S_HDMV/PGS
  361. Codec ID/Info                            : Picture based subtitle format used on BDs/HD-DVDs
  362. Duration                                 : 1 h 48 min
  363. Bit rate                                 : 28.5 kb/s
  364. Count of elements                        : 2926
  365. Stream size                              : 22.1 MiB (0%)
  366. Title                                    : Chinese-PGS
  367. Language                                 : Chinese
  368. Default                                  : No
  369. Forced                                   : No
  370. Original source medium                   : Blu-ray

  371. Text #6
  372. ID                                       : 18
  373. ID in the original source medium         : 4772 (0x12A4)
  374. Format                                   : PGS
  375. Muxing mode                              : zlib
  376. Codec ID                                 : S_HDMV/PGS
  377. Codec ID/Info                            : Picture based subtitle format used on BDs/HD-DVDs
  378. Duration                                 : 1 h 48 min
  379. Bit rate                                 : 18.4 kb/s
  380. Count of elements                        : 2848
  381. Stream size                              : 14.3 MiB (0%)
  382. Title                                    : Korean-PGS
  383. Language                                 : Korean
  384. Default                                  : No
  385. Forced                                   : No
  386. Original source medium                   : Blu-ray

  387. Text #7
  388. ID                                       : 19
  389. ID in the original source medium         : 4773 (0x12A5)
  390. Format                                   : PGS
  391. Muxing mode                              : zlib
  392. Codec ID                                 : S_HDMV/PGS
  393. Codec ID/Info                            : Picture based subtitle format used on BDs/HD-DVDs
  394. Duration                                 : 1 h 48 min
  395. Bit rate                                 : 32.8 kb/s
  396. Count of elements                        : 2926
  397. Stream size                              : 25.4 MiB (0%)
  398. Title                                    : Spanish-PGS
  399. Language                                 : Spanish
  400. Default                                  : No
  401. Forced                                   : No
  402. Original source medium                   : Blu-ray

  403. Text #8
  404. ID                                       : 20
  405. ID in the original source medium         : 4774 (0x12A6)
  406. Format                                   : PGS
  407. Muxing mode                              : zlib
  408. Codec ID                                 : S_HDMV/PGS
  409. Codec ID/Info                            : Picture based subtitle format used on BDs/HD-DVDs
  410. Duration                                 : 1 h 48 min
  411. Bit rate                                 : 18.4 kb/s
  412. Count of elements                        : 3012
  413. Stream size                              : 14.2 MiB (0%)
  414. Title                                    : Arabic-PGS
  415. Language                                 : Arabic
  416. Default                                  : No
  417. Forced                                   : No
  418. Original source medium                   : Blu-ray

  419. Text #9
  420. ID                                       : 21
  421. ID in the original source medium         : 4775 (0x12A7)
  422. Format                                   : PGS
  423. Muxing mode                              : zlib
  424. Codec ID                                 : S_HDMV/PGS
  425. Codec ID/Info                            : Picture based subtitle format used on BDs/HD-DVDs
  426. Duration                                 : 1 h 48 min
  427. Bit rate                                 : 29.5 kb/s
  428. Count of elements                        : 2922
  429. Stream size                              : 22.9 MiB (0%)
  430. Title                                    : Czech-PGS
  431. Language                                 : Czech
  432. Default                                  : No
  433. Forced                                   : No
  434. Original source medium                   : Blu-ray

  435. Text #10
  436. ID                                       : 22
  437. ID in the original source medium         : 4776 (0x12A8)
  438. Format                                   : PGS
  439. Muxing mode                              : zlib
  440. Codec ID                                 : S_HDMV/PGS
  441. Codec ID/Info                            : Picture based subtitle format used on BDs/HD-DVDs
  442. Duration                                 : 1 h 48 min
  443. Bit rate                                 : 27.6 kb/s
  444. Count of elements                        : 2772
  445. Stream size                              : 21.3 MiB (0%)
  446. Title                                    : Polish-PGS
  447. Language                                 : Polish
  448. Default                                  : No
  449. Forced                                   : No
  450. Original source medium                   : Blu-ray

  451. Text #11
  452. ID                                       : 23
  453. ID in the original source medium         : 4777 (0x12A9)
  454. Format                                   : PGS
  455. Muxing mode                              : zlib
  456. Codec ID                                 : S_HDMV/PGS
  457. Codec ID/Info                            : Picture based subtitle format used on BDs/HD-DVDs
  458. Duration                                 : 1 h 39 min
  459. Bit rate                                 : 1 077 b/s
  460. Count of elements                        : 70
  461. Stream size                              : 787 KiB (0%)
  462. Title                                    : French-FORCED-PGS
  463. Language                                 : French
  464. Default                                  : No
  465. Forced                                   : No
  466. Original source medium                   : Blu-ray

  467. Text #12
  468. ID                                       : 24
  469. ID in the original source medium         : 4778 (0x12AA)
  470. Format                                   : PGS
  471. Muxing mode                              : zlib
  472. Codec ID                                 : S_HDMV/PGS
  473. Codec ID/Info                            : Picture based subtitle format used on BDs/HD-DVDs
  474. Duration                                 : 1 h 33 min
  475. Bit rate                                 : 151 b/s
  476. Count of elements                        : 14
  477. Stream size                              : 104 KiB (0%)
  478. Title                                    : Spanish-FORCED-PGS
  479. Language                                 : Spanish
  480. Default                                  : No
  481. Forced                                   : No
  482. Original source medium                   : Blu-ray

  483. Text #13
  484. ID                                       : 25
  485. ID in the original source medium         : 4779 (0x12AB)
  486. Format                                   : PGS
  487. Muxing mode                              : zlib
  488. Codec ID                                 : S_HDMV/PGS
  489. Codec ID/Info                            : Picture based subtitle format used on BDs/HD-DVDs
  490. Duration                                 : 1 h 41 min
  491. Bit rate                                 : 1 131 b/s
  492. Count of elements                        : 94
  493. Stream size                              : 844 KiB (0%)
  494. Title                                    : Czech-PGS
  495. Language                                 : Czech
  496. Default                                  : No
  497. Forced                                   : No
  498. Original source medium                   : Blu-ray

  499. Text #14
  500. ID                                       : 26
  501. ID in the original source medium         : 4780 (0x12AC)
  502. Format                                   : PGS
  503. Muxing mode                              : zlib
  504. Codec ID                                 : S_HDMV/PGS
  505. Codec ID/Info                            : Picture based subtitle format used on BDs/HD-DVDs
  506. Duration                                 : 1 h 47 min
  507. Bit rate                                 : 789 b/s
  508. Count of elements                        : 102
  509. Stream size                              : 623 KiB (0%)
  510. Title                                    : Hindi-FORCED-PGS
  511. Language                                 : Hindi
  512. Default                                  : No
  513. Forced                                   : No
  514. Original source medium                   : Blu-ray

  515. Menu
  516. 00:00:00.000                             : en:Chapter 01
  517. 00:08:08.446                             : en:Chapter 02
  518. 00:17:53.739                             : en:Chapter 03
  519. 00:27:11.838                             : en:Chapter 04
  520. 00:35:40.805                             : en:Chapter 05
  521. 00:44:48.268                             : en:Chapter 06
  522. 00:53:43.386                             : en:Chapter 07
  523. 01:01:15.296                             : en:Chapter 08
  524. 01:10:55.960                             : en:Chapter 09
  525. 01:19:06.158                             : en:Chapter 10
  526. 01:24:28.146                             : en:Chapter 11
  527. 01:34:27.620                             : en:Chapter 12
  528. 01:41:26.997                             : en:Chapter 13
复制代码

猛禽小队和哈莉·奎茵 Birds.of.Prey.And.the.Fantabulous.Emancipation.of.One.Harley.Quinn.2020.2160p.BluRay.REMUX.HEVC.DTS-HD.MA.TrueHD.7.1.Atmos-FGT 54.68GB-2.png 猛禽小队和哈莉·奎茵 Birds.of.Prey.And.the.Fantabulous.Emancipation.of.One.Harley.Quinn.2020.2160p.BluRay.REMUX.HEVC.DTS-HD.MA.TrueHD.7.1.Atmos-FGT 54.68GB-3.png 猛禽小队和哈莉·奎茵 Birds.of.Prey.And.the.Fantabulous.Emancipation.of.One.Harley.Quinn.2020.2160p.BluRay.REMUX.HEVC.DTS-HD.MA.TrueHD.7.1.Atmos-FGT 54.68GB-4.png







回复

使用道具 举报

发表于 2020-5-7 07:19:08 | 显示全部楼层

这东西我收了!谢谢楼主!蓝光电影网真好!
回复 支持 反对

使用道具 举报

 成长值: 2950

发表于 2020-5-7 09:16:09 | 显示全部楼层
谢谢楼主无私分享。
回复 支持 反对

使用道具 举报

发表于 2020-5-8 07:43:05 | 显示全部楼层
楼主发贴辛苦了,谢谢楼主分享!我觉得蓝光电影网是注册对了!
回复 支持 反对

使用道具 举报

发表于 2020-5-8 23:44:11 | 显示全部楼层
楼主发贴辛苦了,谢谢楼主分享!我觉得蓝光电影网是注册对了!
回复 支持 反对

使用道具 举报

发表于 2020-5-10 13:33:11 | 显示全部楼层
谢谢分享好片
回复 支持 反对

使用道具 举报

发表于 2020-5-10 20:52:39 | 显示全部楼层

楼主太厉害了!楼主,电影应该很好看我觉得蓝光电影网真是个好地方!
回复 支持 反对

使用道具 举报

发表于 2020-5-11 12:45:59 | 显示全部楼层
    好奇怪的电影啊,哈哈。
回复 支持 反对

使用道具 举报

发表于 2020-5-15 21:38:56 | 显示全部楼层
感谢楼主分享
回复 支持 反对

使用道具 举报

 成长值: 650

发表于 3 天前 | 显示全部楼层

这东西我收了!谢谢楼主!蓝光电影网真好!
回复 支持 反对

使用道具 举报

懒得打字嘛,点击右侧快捷回复 【右侧内容,后台自定义】
您需要登录后才可以回帖 登录 | 立即加入

本版积分规则

现在加入蓝光电影网,注册一个账号
上个主题 下个主题 快速回复 收藏帖子 返回列表 客服中心 搜索

手机版|小黑屋| 蓝光电影网 |网站地图 

Copyright © 2015-2019 Comsenz Inc.  Template by 蓝光电影论坛 All Rights Reserved.

Powered by 蓝光电影网 X3.4

特别声明:本站所有资源均由网上收集而来,版权归原影音公司所有,如果侵犯了你的权益,请通知我们,我们会及时删除侵权内容.

快速回复 返回顶部 返回列表