找回密码

蓝光电影网

查看: 323|回复: 6

[10bit.SDR] 野性的呼唤/极地守护犬 The.Call.of.the.Wild.2020.2160p.BluRay.x265.10bit.SDR.DTS-HD.MA.TrueHD.7.1.Atmos-SWTYBLZ 25.72GB

[复制链接]

 成长值: 26125

发表于 2020-5-6 20:33:32 | 显示全部楼层 |阅读模式
野性的呼唤/极地守护犬 The.Call.of.the.Wild.2020.2160p.BluRay.x265.10bit.SDR.DTS-HD.MA.TrueHD.7.1.Atmos-SWTYBLZ 25.72GB-1.png

译  名 野性的呼唤 / 极地守护犬(港 / 台) / 绝境长征 / 荒野的呼唤
片  名 The Call of the Wild
年  代 2020
产  地 美国 / 加拿大
类  别 剧情 / 冒险
语  言 英语 / 法语
上映日期 2020(中国大陆) / 2020-02-21(美国)
IMDb评分  6.8/10 from 18616 users
IMDb链接  https://www.imdb.com/title/tt7504726
豆瓣评分 7.1/10 from 10501 users
豆瓣链接 https://movie.douban.com/subject/27199324/
片  长 110分钟
导  演 克里斯·桑德斯 Chris Sanders
编  剧 迈克尔·格林 Michael Green / 杰克·伦敦 Jack London
主  演 哈里森·福特 Harrison Ford
       丹·史蒂文斯 Dan Stevens
       凯伦·吉兰 Karen Gillan
       布莱德利·惠特福德 Bradley Whitford
       珍·路易莎·凯利 Jean Louisa Kelly
       泰瑞·诺塔里 Terry Notary
       卡卡琪 Cara Gee
       奥玛·希 Omar Sy
       科林·伍德尔 Colin Woodell
       韦斯·布朗 Wes Brown
       安东尼·莫利纳利 Anthony Molinari
       布拉德·格林奎斯特 Brad Greenquist
       亚当·弗格斯 Adam Fergus
       阿莱克斯·索洛维茨 Alex Solowitz
       卡尔·马金恩 Karl Makinen
       希瑟·麦克普什 Heather McPhaul
       哈尔·戴恩 Hal Dion
       G·拉里·巴特勒 G. Larry Butler
       桑蒂尔·亚历克西斯·瓦奎兹 Shantiel Alexis Vazquez
       特洛伊·迪林格 Troy Dillinger


标  签 狗 | 冒险 | 动物 | 温情 | 美国 | 文学作品改编 | 剧情 | 2020

简  介  

  影片改编自杰克·伦敦同名小说,导演克里斯·桑德斯([疯狂原始人]),编剧迈克尔·格林[(异形:契约])。该片以克朗岱克淘金热为背景,围绕淘金者约翰·桑顿(福特饰)的历险故事展开。
  1. Video
  2. ID                                       : 1
  3. Format                                   : HEVC
  4. Format/Info                              : High Efficiency Video Coding
  5. Format profile                           : Main High@L4@High
  6. Codec ID                                 : V_MPEGH/ISO/HEVC
  7. Duration                                 : 1 h 39 min
  8. Bit rate                                 : 23.9 Mb/s
  9. Width                                    : 3 840 pixels
  10. Height                                   : 1 606 pixels
  11. Display aspect ratio                     : 2.40:1
  12. Frame rate mode                          : Constant
  13. Frame rate                               : 23.976 (24000/1001/189150) FPS
  14. Color space                              : YUV
  15. Chroma subsampling                       : 4:2:0
  16. Bit depth                                : 10 bits
  17. Bits/(Pixel*Frame)                       : 0.162
  18. Stream size                              : 16.7 GiB (65%)
  19. Title                                    : The.Call.of.the.Wild.2020.2160p.BluRay.x265.10bit.SDR.DTS-HD.MA.TrueHD.7.1.Atmos-SWTYBLZ
  20. Writing library                          : x265 3.0ed72af837053:[Windows][GCC 8.2.0][64 bit] 10bit
  21. Encoding settings                        : cpuid=1111039 / frame-threads=6 / numa-pools=40 / wpp / no-pmode / no-pme / no-psnr / no-ssim / log-level=2 / input-csp=1 / input-res=3840x1606 / interlace=0 / total-frames=143404 / level-idc=51 / high-tier=1 / uhd-bd=0 / ref=3 / no-allow-non-conformance / repeat-headers / annexb / aud / hrd / info / hash=0 / no-temporal-layers / no-open-gop / min-keyint=1 / keyint=24 / gop-lookahead=0 / bframes=4 / b-adapt=2 / b-pyramid / bframe-bias=0 / rc-lookahead=25 / lookahead-slices=4 / scenecut=40 / radl=0 / no-splice / no-intra-refresh / ctu=64 / min-cu-size=8 / no-rect / no-amp / max-tu-size=32 / tu-inter-depth=1 / tu-intra-depth=1 / limit-tu=0 / rdoq-level=0 / dynamic-rd=0.00 / no-ssim-rd / signhide / no-tskip / nr-intra=0 / nr-inter=0 / no-constrained-intra / strong-intra-smoothing / max-merge=2 / limit-refs=3 / no-limit-modes / me=1 / subme=2 / merange=57 / temporal-mvp / weightp / no-weightb / no-analyze-src-pics / deblock=0:0 / no-sao / no-sao-non-deblock / rd=3 / no-early-skip / rskip / no-fast-intra / no-tskip-fast / no-cu-lossless / no-b-intra / no-splitrd-skip / rdpenalty=0 / psy-rd=2.00 / psy-rdoq=0.00 / no-rd-refine / no-lossless / cbqpoffs=0 / crqpoffs=0 / rc=crf / crf=16.0 / qcomp=0.60 / qpstep=4 / stats-write=0 / stats-read=0 / vbv-maxrate=160000 / vbv-bufsize=160000 / vbv-init=0.9 / crf-max=0.0 / crf-min=0.0 / ipratio=1.40 / pbratio=1.30 / aq-mode=1 / aq-strength=1.00 / cutree / zone-count=0 / no-strict-cbr / qg-size=32 / no-rc-grain / qpmax=69 / qpmin=0 / no-const-vbv / sar=1 / overscan=0 / videoformat=5 / range=0 / colorprim=2 / transfer=2 / colormatrix=2 / chromaloc=0 / display-window=0 / max-cll=0,0 / min-luma=0 / max-luma=1023 / log2-max-poc-lsb=8 / vui-timing-info / vui-hrd-info / slices=1 / opt-qp-pps / opt-ref-list-length-pps / no-multi-pass-opt-rps / scenecut-bias=0.05 / no-opt-cu-delta-qp / no-aq-motion / no-hdr / no-hdr-opt / no-dhdr10-opt / no-idr-recovery-sei / analysis-reuse-level=5 / scale-factor=0 / refine-intra=0 / refine-inter=0 / refine-mv=0 / refine-ctu-distortion=0 / no-limit-sao / ctu-info=0 / no-lowpass-dct / refine-analysis-type=0 / copy-pic=1 / max-ausize-factor=1.0 / no-dynamic-refine / no-single-sei / no-hevc-aq / qp-adaptation-range=1.00
  22. Default                                  : Yes
  23. Forced                                   : No

  24. Audio #1
  25. ID                                       : 2
  26. Format                                   : MLP FBA 16-ch
  27. Format/Info                              : Meridian Lossless Packing FBA with 16-channel presentation
  28. Commercial name                          : Dolby TrueHD with Dolby Atmos
  29. Codec ID                                 : A_TRUEHD
  30. Duration                                 : 1 h 39 min
  31. Bit rate mode                            : Variable
  32. Bit rate                                 : 8 045 kb/s
  33. Maximum bit rate                         : 12.5 Mb/s
  34. Channel(s)                               : 8 channels
  35. Channel layout                           : L R C LFE Ls Rs Lb Rb
  36. Sampling rate                            : 48.0 kHz
  37. Frame rate                               : 1 200.000 FPS (40 SPF)
  38. Compression mode                         : Lossless
  39. Stream size                              : 5.60 GiB (22%)
  40. Title                                    : The.Call.of.the.Wild.2020.2160p.BluRay.x265.10bit.SDR.DTS-HD.MA.TrueHD.7.1.Atmos-SWTYBLZ
  41. Language                                 : English
  42. Default                                  : Yes
  43. Forced                                   : No
  44. Number of dynamic objects                : 13
  45. Bed channel count                        : 1 channel
  46. Bed channel configuration                : LFE

  47. Audio #2
  48. ID                                       : 3
  49. Format                                   : DTS XLL
  50. Format/Info                              : Digital Theater Systems
  51. Commercial name                          : DTS-HD Master Audio
  52. Codec ID                                 : A_DTS
  53. Duration                                 : 1 h 39 min
  54. Bit rate mode                            : Variable
  55. Bit rate                                 : 3 983 kb/s
  56. Channel(s)                               : 8 channels
  57. Channel layout                           : C L R LFE Lb Rb Lss Rss
  58. Sampling rate                            : 48.0 kHz
  59. Frame rate                               : 93.750 FPS (512 SPF)
  60. Bit depth                                : 24 bits
  61. Compression mode                         : Lossless
  62. Stream size                              : 2.77 GiB (11%)
  63. Title                                    : The.Call.of.the.Wild.2020.2160p.BluRay.x265.10bit.SDR.DTS-HD.MA.TrueHD.7.1.Atmos-SWTYBLZ
  64. Language                                 : English
  65. Default                                  : No
  66. Forced                                   : No

  67. Audio #3
  68. ID                                       : 4
  69. Format                                   : AC-3
  70. Format/Info                              : Audio Coding 3
  71. Commercial name                          : Dolby Digital
  72. Codec ID                                 : A_AC3
  73. Duration                                 : 1 h 39 min
  74. Bit rate mode                            : Constant
  75. Bit rate                                 : 640 kb/s
  76. Channel(s)                               : 6 channels
  77. Channel layout                           : L R C LFE Ls Rs
  78. Sampling rate                            : 48.0 kHz
  79. Frame rate                               : 31.250 FPS (1536 SPF)
  80. Compression mode                         : Lossy
  81. Stream size                              : 456 MiB (2%)
  82. Title                                    : The.Call.of.the.Wild.2020.2160p.BluRay.x265.10bit.SDR.DTS-HD.MA.TrueHD.7.1.Atmos-SWTYBLZ
  83. Language                                 : English
  84. Service kind                             : Complete Main
  85. Default                                  : No
  86. Forced                                   : No

  87. Text #1
  88. ID                                       : 5
  89. Format                                   : UTF-8
  90. Codec ID                                 : S_TEXT/UTF8
  91. Codec ID/Info                            : UTF-8 Plain Text
  92. Duration                                 : 1 h 34 min
  93. Bit rate                                 : 25 b/s
  94. Count of elements                        : 846
  95. Stream size                              : 17.8 KiB (0%)
  96. Title                                    : English-SRT
  97. Language                                 : English
  98. Default                                  : Yes
  99. Forced                                   : No

  100. Text #2
  101. ID                                       : 6
  102. Format                                   : PGS
  103. Muxing mode                              : zlib
  104. Codec ID                                 : S_HDMV/PGS
  105. Codec ID/Info                            : Picture based subtitle format used on BDs/HD-DVDs
  106. Duration                                 : 1 h 34 min
  107. Bit rate                                 : 26.7 kb/s
  108. Count of elements                        : 2500
  109. Stream size                              : 18.1 MiB (0%)
  110. Title                                    : English-PGS
  111. Language                                 : English
  112. Default                                  : No
  113. Forced                                   : No

  114. Text #3
  115. ID                                       : 7
  116. Format                                   : PGS
  117. Muxing mode                              : zlib
  118. Codec ID                                 : S_HDMV/PGS
  119. Codec ID/Info                            : Picture based subtitle format used on BDs/HD-DVDs
  120. Duration                                 : 1 h 39 min
  121. Bit rate                                 : 15.7 kb/s
  122. Count of elements                        : 1568
  123. Stream size                              : 11.1 MiB (0%)
  124. Title                                    : French-PGS
  125. Language                                 : French
  126. Default                                  : No
  127. Forced                                   : No

  128. Text #4
  129. ID                                       : 8
  130. Format                                   : PGS
  131. Muxing mode                              : zlib
  132. Codec ID                                 : S_HDMV/PGS
  133. Codec ID/Info                            : Picture based subtitle format used on BDs/HD-DVDs
  134. Duration                                 : 1 h 38 min
  135. Bit rate                                 : 12.4 kb/s
  136. Count of elements                        : 1280
  137. Stream size                              : 8.77 MiB (0%)
  138. Title                                    : French-PGS
  139. Language                                 : French
  140. Default                                  : No
  141. Forced                                   : No

  142. Text #5
  143. ID                                       : 9
  144. Format                                   : PGS
  145. Muxing mode                              : zlib
  146. Codec ID                                 : S_HDMV/PGS
  147. Codec ID/Info                            : Picture based subtitle format used on BDs/HD-DVDs
  148. Duration                                 : 1 h 38 min
  149. Bit rate                                 : 15.7 kb/s
  150. Count of elements                        : 1452
  151. Stream size                              : 11.1 MiB (0%)
  152. Title                                    : German-PGS
  153. Language                                 : German
  154. Default                                  : No
  155. Forced                                   : No

  156. Text #6
  157. ID                                       : 10
  158. Format                                   : PGS
  159. Muxing mode                              : zlib
  160. Codec ID                                 : S_HDMV/PGS
  161. Codec ID/Info                            : Picture based subtitle format used on BDs/HD-DVDs
  162. Duration                                 : 1 h 38 min
  163. Bit rate                                 : 12.4 kb/s
  164. Count of elements                        : 1308
  165. Stream size                              : 8.76 MiB (0%)
  166. Title                                    : Japanese-PGS
  167. Language                                 : Japanese
  168. Default                                  : No
  169. Forced                                   : No

  170. Text #7
  171. ID                                       : 11
  172. Format                                   : PGS
  173. Muxing mode                              : zlib
  174. Codec ID                                 : S_HDMV/PGS
  175. Codec ID/Info                            : Picture based subtitle format used on BDs/HD-DVDs
  176. Duration                                 : 1 h 38 min
  177. Bit rate                                 : 14.3 kb/s
  178. Count of elements                        : 1536
  179. Stream size                              : 10.1 MiB (0%)
  180. Title                                    : Spanish-PGS
  181. Language                                 : Spanish
  182. Default                                  : No
  183. Forced                                   : No

  184. Menu
  185. 00:00:00.000                             : en:Chapter 1
  186. 00:03:35.549                             : en:Chapter 2
  187. 00:05:58.275                             : en:Chapter 3
  188. 00:10:31.005                             : en:Chapter 4
  189. 00:15:49.365                             : en:Chapter 5
  190. 00:19:03.517                             : en:Chapter 6
  191. 00:23:29.199                             : en:Chapter 7
  192. 00:27:28.021                             : en:Chapter 8
  193. 00:32:27.487                             : en:Chapter 9
  194. 00:34:32.195                             : en:Chapter 10
  195. 00:41:43.459                             : en:Chapter 11
  196. 00:46:14.188                             : en:Chapter 12
  197. 00:50:07.004                             : en:Chapter 13
  198. 00:55:15.229                             : en:Chapter 14
  199. 01:00:30.585                             : en:Chapter 15
  200. 01:04:04.299                             : en:Chapter 16
  201. 01:07:46.646                             : en:Chapter 17
  202. 01:12:38.229                             : en:Chapter 18
  203. 01:17:02.618                             : en:Chapter 19
  204. 01:19:24.885                             : en:Chapter 20
  205. 01:23:06.773                             : en:Chapter 21
  206. 01:26:20.884                             : en:Chapter 22
  207. 01:29:25.860                             : en:Chapter 23
  208. 01:32:22.287                             : en:Chapter 24
复制代码

野性的呼唤/极地守护犬 The.Call.of.the.Wild.2020.2160p.BluRay.x265.10bit.SDR.DTS-HD.MA.TrueHD.7.1.Atmos-SWTYBLZ 25.72GB-2.png 野性的呼唤/极地守护犬 The.Call.of.the.Wild.2020.2160p.BluRay.x265.10bit.SDR.DTS-HD.MA.TrueHD.7.1.Atmos-SWTYBLZ 25.72GB-3.png 野性的呼唤/极地守护犬 The.Call.of.the.Wild.2020.2160p.BluRay.x265.10bit.SDR.DTS-HD.MA.TrueHD.7.1.Atmos-SWTYBLZ 25.72GB-4.png 野性的呼唤/极地守护犬 The.Call.of.the.Wild.2020.2160p.BluRay.x265.10bit.SDR.DTS-HD.MA.TrueHD.7.1.Atmos-SWTYBLZ 25.72GB-5.png 野性的呼唤/极地守护犬 The.Call.of.the.Wild.2020.2160p.BluRay.x265.10bit.SDR.DTS-HD.MA.TrueHD.7.1.Atmos-SWTYBLZ 25.72GB-6.png 野性的呼唤/极地守护犬 The.Call.of.the.Wild.2020.2160p.BluRay.x265.10bit.SDR.DTS-HD.MA.TrueHD.7.1.Atmos-SWTYBLZ 25.72GB-7.png 野性的呼唤/极地守护犬 The.Call.of.the.Wild.2020.2160p.BluRay.x265.10bit.SDR.DTS-HD.MA.TrueHD.7.1.Atmos-SWTYBLZ 25.72GB-8.png







回复

使用道具 举报

 成长值: 3550

发表于 2020-5-6 21:57:05 | 显示全部楼层
The.Call.of.the.Wild.2020.2160p.BluRay.x265.10bit.SDR.DTS-HD.MA.TrueHD7.1
回复 支持 反对

使用道具 举报

发表于 2020-5-7 07:46:37 | 显示全部楼层
楼主辛苦了,感谢楼主
回复 支持 反对

使用道具 举报

发表于 2020-5-8 01:08:03 | 显示全部楼层
楼主发贴辛苦了,谢谢楼主分享!我觉得蓝光电影网是注册对了!
回复 支持 反对

使用道具 举报

发表于 2020-5-8 13:15:09 | 显示全部楼层
SKUSKUSKUSKUSKUSKU
回复 支持 反对

使用道具 举报

发表于 2020-5-8 23:34:11 | 显示全部楼层
灵性值爆表的神宠呀。谢分享
回复 支持 反对

使用道具 举报

发表于 2020-5-11 15:09:16 | 显示全部楼层
楼主发贴辛苦了,谢谢楼主分享!我觉得蓝光电影网是注册对了!
回复 支持 反对

使用道具 举报

懒得打字嘛,点击右侧快捷回复 【右侧内容,后台自定义】
您需要登录后才可以回帖 登录 | 立即加入

本版积分规则

现在加入蓝光电影网,注册一个账号
上个主题 下个主题 快速回复 收藏帖子 返回列表 客服中心 搜索

手机版|小黑屋| 蓝光电影网 |网站地图 

Copyright © 2015-2019 Comsenz Inc.  Template by 蓝光电影论坛 All Rights Reserved.

Powered by 蓝光电影网 X3.4

特别声明:本站所有资源均由网上收集而来,版权归原影音公司所有,如果侵犯了你的权益,请通知我们,我们会及时删除侵权内容.

快速回复 返回顶部 返回列表