找回密码

蓝光电影网

查看: 437|回复: 9

[REMUX.HEVC] 野性的呼唤/极地守护犬 The.Call.of.the.Wild.2020.2160p.BluRay.REMUX.HEVC.DTS-HD.MA.TrueHD.7.1.Atmos-FGT 56.45GB

[复制链接]

 成长值: 26155

发表于 2020-5-6 20:32:06 | 显示全部楼层 |阅读模式
野性的呼唤/极地守护犬 The.Call.of.the.Wild.2020.2160p.BluRay.REMUX.HEVC.DTS-HD.MA.TrueHD.7.1.Atmos-FGT 56.45GB-1.png

译  名 野性的呼唤 / 极地守护犬(港 / 台) / 绝境长征 / 荒野的呼唤
片  名 The Call of the Wild
年  代 2020
产  地 美国 / 加拿大
类  别 剧情 / 冒险
语  言 英语 / 法语
上映日期 2020(中国大陆) / 2020-02-21(美国)
IMDb评分  6.8/10 from 18616 users
IMDb链接  https://www.imdb.com/title/tt7504726
豆瓣评分 7.1/10 from 10501 users
豆瓣链接 https://movie.douban.com/subject/27199324/
片  长 110分钟
导  演 克里斯·桑德斯 Chris Sanders
编  剧 迈克尔·格林 Michael Green / 杰克·伦敦 Jack London
主  演 哈里森·福特 Harrison Ford
       丹·史蒂文斯 Dan Stevens
       凯伦·吉兰 Karen Gillan
       布莱德利·惠特福德 Bradley Whitford
       珍·路易莎·凯利 Jean Louisa Kelly
       泰瑞·诺塔里 Terry Notary
       卡卡琪 Cara Gee
       奥玛·希 Omar Sy
       科林·伍德尔 Colin Woodell
       韦斯·布朗 Wes Brown
       安东尼·莫利纳利 Anthony Molinari
       布拉德·格林奎斯特 Brad Greenquist
       亚当·弗格斯 Adam Fergus
       阿莱克斯·索洛维茨 Alex Solowitz
       卡尔·马金恩 Karl Makinen
       希瑟·麦克普什 Heather McPhaul
       哈尔·戴恩 Hal Dion
       G·拉里·巴特勒 G. Larry Butler
       桑蒂尔·亚历克西斯·瓦奎兹 Shantiel Alexis Vazquez
       特洛伊·迪林格 Troy Dillinger


标  签 狗 | 冒险 | 动物 | 温情 | 美国 | 文学作品改编 | 剧情 | 2020

简  介  

  影片改编自杰克·伦敦同名小说,导演克里斯·桑德斯([疯狂原始人]),编剧迈克尔·格林[(异形:契约])。该片以克朗岱克淘金热为背景,围绕淘金者约翰·桑顿(福特饰)的历险故事展开。
  1. Video
  2. ID                                       : 1
  3. ID in the original source medium         : 4113 (0x1011)
  4. Format                                   : HEVC
  5. Format/Info                              : High Efficiency Video Coding
  6. Format profile                           : Main High@L4@High
  7. HDR format                               : SMPTE ST 2086, HDR10 compatible
  8. Codec ID                                 : V_MPEGH/ISO/HEVC
  9. Duration                                 : 1 h 39 min
  10. Bit rate                                 : 60.5 Mb/s
  11. Width                                    : 3 840 pixels
  12. Height                                   : 2 160 pixels
  13. Display aspect ratio                     : 16:9
  14. Frame rate mode                          : Constant
  15. Frame rate                               : 23.976 (24000/1001/189150) FPS
  16. Color space                              : YUV
  17. Chroma subsampling                       : 4:2:0 (Type 2)
  18. Bit depth                                : 10 bits
  19. Bits/(Pixel*Frame)                       : 0.304
  20. Stream size                              : 42.1 GiB (75%)
  21. Title                                    : The.Call.of.the.Wild.2020.2160p.BluRay.REMUX.HEVC.DTS-HD.MA.TrueHD.7.1.Atmos-FGT
  22. Writing library                          : ATEME Titan File 3.9.0 (4.9.0.0)        
  23. Language                                 : English
  24. Default                                  : No
  25. Forced                                   : No
  26. Color range                              : Limited
  27. Color primaries                          : BT.2020
  28. Transfer characteristics                 : PQ
  29. Matrix coefficients                      : BT.2020 non-constant
  30. Mastering display color primaries        : BT.2020
  31. Mastering display luminance              : min: 0.0001 cd/m2, max: 1000 cd/m2
  32. Original source medium                   : Blu-ray

  33. Audio #1
  34. ID                                       : 2
  35. ID in the original source medium         : 4352 (0x1100)
  36. Format                                   : MLP FBA 16-ch
  37. Format/Info                              : Meridian Lossless Packing FBA with 16-channel presentation
  38. Commercial name                          : Dolby TrueHD with Dolby Atmos
  39. Codec ID                                 : A_TRUEHD
  40. Duration                                 : 1 h 39 min
  41. Bit rate mode                            : Variable
  42. Bit rate                                 : 8 045 kb/s
  43. Maximum bit rate                         : 12.5 Mb/s
  44. Channel(s)                               : 8 channels
  45. Channel layout                           : L R C LFE Ls Rs Lb Rb
  46. Sampling rate                            : 48.0 kHz
  47. Frame rate                               : 1 200.000 FPS (40 SPF)
  48. Compression mode                         : Lossless
  49. Stream size                              : 5.60 GiB (10%)
  50. Title                                    : The.Call.of.the.Wild.2020.2160p.BluRay.REMUX.HEVC.DTS-HD.MA.TrueHD.7.1.Atmos-FGT
  51. Language                                 : English
  52. Default                                  : Yes
  53. Forced                                   : No
  54. Original source medium                   : Blu-ray
  55. Number of dynamic objects                : 13
  56. Bed channel count                        : 1 channel
  57. Bed channel configuration                : LFE

  58. Audio #2
  59. ID                                       : 3
  60. Format                                   : DTS XLL
  61. Format/Info                              : Digital Theater Systems
  62. Commercial name                          : DTS-HD Master Audio
  63. Codec ID                                 : A_DTS
  64. Duration                                 : 1 h 39 min
  65. Bit rate mode                            : Variable
  66. Bit rate                                 : 3 983 kb/s
  67. Channel(s)                               : 8 channels
  68. Channel layout                           : C L R LFE Lb Rb Lss Rss
  69. Sampling rate                            : 48.0 kHz
  70. Frame rate                               : 93.750 FPS (512 SPF)
  71. Bit depth                                : 24 bits
  72. Compression mode                         : Lossless
  73. Stream size                              : 2.77 GiB (5%)
  74. Title                                    : The.Call.of.the.Wild.2020.2160p.BluRay.REMUX.HEVC.DTS-HD.MA.TrueHD.7.1.Atmos-FGT
  75. Language                                 : English
  76. Default                                  : No
  77. Forced                                   : No

  78. Audio #3
  79. ID                                       : 4
  80. ID in the original source medium         : 4352 (0x1100)
  81. Format                                   : AC-3
  82. Format/Info                              : Audio Coding 3
  83. Commercial name                          : Dolby Digital
  84. Codec ID                                 : A_AC3
  85. Duration                                 : 1 h 39 min
  86. Bit rate mode                            : Constant
  87. Bit rate                                 : 640 kb/s
  88. Channel(s)                               : 6 channels
  89. Channel layout                           : L R C LFE Ls Rs
  90. Sampling rate                            : 48.0 kHz
  91. Frame rate                               : 31.250 FPS (1536 SPF)
  92. Bit depth                                : 16 bits
  93. Compression mode                         : Lossy
  94. Stream size                              : 456 MiB (1%)
  95. Title                                    : The.Call.of.the.Wild.2020.2160p.BluRay.REMUX.HEVC.DTS-HD.MA.TrueHD.7.1.Atmos-FGT
  96. Language                                 : English
  97. Service kind                             : Complete Main
  98. Default                                  : No
  99. Forced                                   : No
  100. Original source medium                   : Blu-ray

  101. Audio #4
  102. ID                                       : 5
  103. ID in the original source medium         : 4353 (0x1101)
  104. Format                                   : AC-3
  105. Format/Info                              : Audio Coding 3
  106. Commercial name                          : Dolby Digital
  107. Codec ID                                 : A_AC3
  108. Duration                                 : 1 h 39 min
  109. Bit rate mode                            : Constant
  110. Bit rate                                 : 320 kb/s
  111. Channel(s)                               : 2 channels
  112. Channel layout                           : L R
  113. Sampling rate                            : 48.0 kHz
  114. Frame rate                               : 31.250 FPS (1536 SPF)
  115. Bit depth                                : 16 bits
  116. Compression mode                         : Lossy
  117. Stream size                              : 228 MiB (0%)
  118. Title                                    : The.Call.of.the.Wild.2020.2160p.BluRay.REMUX.HEVC.DTS-HD.MA.TrueHD.7.1.Atmos-FGT
  119. Language                                 : English
  120. Service kind                             : Complete Main
  121. Default                                  : No
  122. Forced                                   : No
  123. Original source medium                   : Blu-ray

  124. Audio #5
  125. ID                                       : 6
  126. Format                                   : E-AC-3
  127. Format/Info                              : Enhanced AC-3
  128. Commercial name                          : Dolby Digital Plus
  129. Format profile                           : Blu-ray Disc
  130. Codec ID                                 : A_EAC3
  131. Duration                                 : 1 h 39 min
  132. Bit rate mode                            : Constant
  133. Bit rate                                 : 1 024 kb/s
  134. Channel(s)                               : 8 channels
  135. Channel layout                           : L R C LFE Ls Rs Lb Rb
  136. Sampling rate                            : 48.0 kHz
  137. Frame rate                               : 31.250 FPS (1536 SPF)
  138. Compression mode                         : Lossy
  139. Stream size                              : 730 MiB (1%)
  140. Title                                    : The.Call.of.the.Wild.2020.2160p.BluRay.REMUX.HEVC.DTS-HD.MA.TrueHD.7.1.Atmos-FGT
  141. Language                                 : French
  142. Service kind                             : Complete Main
  143. Default                                  : No
  144. Forced                                   : No

  145. Audio #6
  146. ID                                       : 7
  147. ID in the original source medium         : 4354 (0x1102)
  148. Format                                   : AC-3
  149. Format/Info                              : Audio Coding 3
  150. Commercial name                          : Dolby Digital
  151. Codec ID                                 : A_AC3
  152. Duration                                 : 1 h 39 min
  153. Bit rate mode                            : Constant
  154. Bit rate                                 : 576 kb/s
  155. Channel(s)                               : 6 channels
  156. Channel layout                           : L R C LFE Ls Rs
  157. Sampling rate                            : 48.0 kHz
  158. Frame rate                               : 31.250 FPS (1536 SPF)
  159. Bit depth                                : 16 bits
  160. Compression mode                         : Lossy
  161. Stream size                              : 411 MiB (1%)
  162. Title                                    : The.Call.of.the.Wild.2020.2160p.BluRay.REMUX.HEVC.DTS-HD.MA.TrueHD.7.1.Atmos-FGT
  163. Language                                 : French
  164. Service kind                             : Complete Main
  165. Default                                  : No
  166. Forced                                   : No
  167. Original source medium                   : Blu-ray

  168. Audio #7
  169. ID                                       : 8
  170. ID in the original source medium         : 4355 (0x1103)
  171. Format                                   : AC-3
  172. Format/Info                              : Audio Coding 3
  173. Commercial name                          : Dolby Digital
  174. Codec ID                                 : A_AC3
  175. Duration                                 : 1 h 39 min
  176. Bit rate mode                            : Constant
  177. Bit rate                                 : 640 kb/s
  178. Channel(s)                               : 6 channels
  179. Channel layout                           : L R C LFE Ls Rs
  180. Sampling rate                            : 48.0 kHz
  181. Frame rate                               : 31.250 FPS (1536 SPF)
  182. Bit depth                                : 16 bits
  183. Compression mode                         : Lossy
  184. Stream size                              : 456 MiB (1%)
  185. Title                                    : The.Call.of.the.Wild.2020.2160p.BluRay.REMUX.HEVC.DTS-HD.MA.TrueHD.7.1.Atmos-FGT
  186. Language                                 : French
  187. Service kind                             : Complete Main
  188. Default                                  : No
  189. Forced                                   : No
  190. Original source medium                   : Blu-ray

  191. Audio #8
  192. ID                                       : 9
  193. Format                                   : E-AC-3
  194. Format/Info                              : Enhanced AC-3
  195. Commercial name                          : Dolby Digital Plus
  196. Format profile                           : Blu-ray Disc
  197. Codec ID                                 : A_EAC3
  198. Duration                                 : 1 h 39 min
  199. Bit rate mode                            : Constant
  200. Bit rate                                 : 1 024 kb/s
  201. Channel(s)                               : 8 channels
  202. Channel layout                           : L R C LFE Ls Rs Lb Rb
  203. Sampling rate                            : 48.0 kHz
  204. Frame rate                               : 31.250 FPS (1536 SPF)
  205. Compression mode                         : Lossy
  206. Stream size                              : 730 MiB (1%)
  207. Title                                    : The.Call.of.the.Wild.2020.2160p.BluRay.REMUX.HEVC.DTS-HD.MA.TrueHD.7.1.Atmos-FGT
  208. Language                                 : Spanish
  209. Service kind                             : Complete Main
  210. Default                                  : No
  211. Forced                                   : No

  212. Audio #9
  213. ID                                       : 10
  214. ID in the original source medium         : 4356 (0x1104)
  215. Format                                   : AC-3
  216. Format/Info                              : Audio Coding 3
  217. Commercial name                          : Dolby Digital
  218. Codec ID                                 : A_AC3
  219. Duration                                 : 1 h 39 min
  220. Bit rate mode                            : Constant
  221. Bit rate                                 : 576 kb/s
  222. Channel(s)                               : 6 channels
  223. Channel layout                           : L R C LFE Ls Rs
  224. Sampling rate                            : 48.0 kHz
  225. Frame rate                               : 31.250 FPS (1536 SPF)
  226. Bit depth                                : 16 bits
  227. Compression mode                         : Lossy
  228. Stream size                              : 411 MiB (1%)
  229. Title                                    : The.Call.of.the.Wild.2020.2160p.BluRay.REMUX.HEVC.DTS-HD.MA.TrueHD.7.1.Atmos-FGT
  230. Language                                 : Spanish
  231. Service kind                             : Complete Main
  232. Default                                  : No
  233. Forced                                   : No
  234. Original source medium                   : Blu-ray

  235. Audio #10
  236. ID                                       : 11
  237. Format                                   : E-AC-3
  238. Format/Info                              : Enhanced AC-3
  239. Commercial name                          : Dolby Digital Plus
  240. Format profile                           : Blu-ray Disc
  241. Codec ID                                 : A_EAC3
  242. Duration                                 : 1 h 39 min
  243. Bit rate mode                            : Constant
  244. Bit rate                                 : 1 024 kb/s
  245. Channel(s)                               : 8 channels
  246. Channel layout                           : L R C LFE Ls Rs Lb Rb
  247. Sampling rate                            : 48.0 kHz
  248. Frame rate                               : 31.250 FPS (1536 SPF)
  249. Compression mode                         : Lossy
  250. Stream size                              : 730 MiB (1%)
  251. Title                                    : The.Call.of.the.Wild.2020.2160p.BluRay.REMUX.HEVC.DTS-HD.MA.TrueHD.7.1.Atmos-FGT
  252. Language                                 : German
  253. Service kind                             : Complete Main
  254. Default                                  : No
  255. Forced                                   : No

  256. Audio #11
  257. ID                                       : 12
  258. ID in the original source medium         : 4357 (0x1105)
  259. Format                                   : AC-3
  260. Format/Info                              : Audio Coding 3
  261. Commercial name                          : Dolby Digital
  262. Codec ID                                 : A_AC3
  263. Duration                                 : 1 h 39 min
  264. Bit rate mode                            : Constant
  265. Bit rate                                 : 576 kb/s
  266. Channel(s)                               : 6 channels
  267. Channel layout                           : L R C LFE Ls Rs
  268. Sampling rate                            : 48.0 kHz
  269. Frame rate                               : 31.250 FPS (1536 SPF)
  270. Bit depth                                : 16 bits
  271. Compression mode                         : Lossy
  272. Stream size                              : 411 MiB (1%)
  273. Title                                    : The.Call.of.the.Wild.2020.2160p.BluRay.REMUX.HEVC.DTS-HD.MA.TrueHD.7.1.Atmos-FGT
  274. Language                                 : German
  275. Service kind                             : Complete Main
  276. Default                                  : No
  277. Forced                                   : No
  278. Original source medium                   : Blu-ray

  279. Audio #12
  280. ID                                       : 13
  281. ID in the original source medium         : 4358 (0x1106)
  282. Format                                   : DTS XBR
  283. Format/Info                              : Digital Theater Systems
  284. Commercial name                          : DTS-HD High Resolution Audio
  285. Codec ID                                 : A_DTS
  286. Duration                                 : 1 h 39 min
  287. Bit rate mode                            : Constant
  288. Bit rate                                 : 2 046 kb/s
  289. Channel(s)                               : 6 channels
  290. Channel layout                           : C L R Ls Rs LFE
  291. Sampling rate                            : 48.0 kHz
  292. Frame rate                               : 93.750 FPS (512 SPF)
  293. Bit depth                                : 24 bits
  294. Compression mode                         : Lossy
  295. Stream size                              : 1.42 GiB (3%)
  296. Title                                    : The.Call.of.the.Wild.2020.2160p.BluRay.REMUX.HEVC.DTS-HD.MA.TrueHD.7.1.Atmos-FGT
  297. Language                                 : Japanese
  298. Default                                  : No
  299. Forced                                   : No
  300. Original source medium                   : Blu-ray

  301. Text #1
  302. ID                                       : 14
  303. Format                                   : UTF-8
  304. Codec ID                                 : S_TEXT/UTF8
  305. Codec ID/Info                            : UTF-8 Plain Text
  306. Duration                                 : 1 h 34 min
  307. Bit rate                                 : 25 b/s
  308. Count of elements                        : 846
  309. Stream size                              : 17.8 KiB (0%)
  310. Title                                    : English-SRT
  311. Language                                 : English
  312. Default                                  : Yes
  313. Forced                                   : No

  314. Text #2
  315. ID                                       : 15
  316. ID in the original source medium         : 4768 (0x12A0)
  317. Format                                   : PGS
  318. Muxing mode                              : zlib
  319. Codec ID                                 : S_HDMV/PGS
  320. Codec ID/Info                            : Picture based subtitle format used on BDs/HD-DVDs
  321. Duration                                 : 1 h 34 min
  322. Bit rate                                 : 26.7 kb/s
  323. Count of elements                        : 2500
  324. Stream size                              : 18.1 MiB (0%)
  325. Title                                    : English-PGS
  326. Language                                 : English
  327. Default                                  : No
  328. Forced                                   : No
  329. Original source medium                   : Blu-ray

  330. Text #3
  331. ID                                       : 16
  332. ID in the original source medium         : 4769 (0x12A1)
  333. Format                                   : PGS
  334. Muxing mode                              : zlib
  335. Codec ID                                 : S_HDMV/PGS
  336. Codec ID/Info                            : Picture based subtitle format used on BDs/HD-DVDs
  337. Duration                                 : 1 h 38 min
  338. Bit rate                                 : 12.4 kb/s
  339. Count of elements                        : 1280
  340. Stream size                              : 8.77 MiB (0%)
  341. Title                                    : French-PGS
  342. Language                                 : French
  343. Default                                  : No
  344. Forced                                   : No
  345. Original source medium                   : Blu-ray

  346. Text #4
  347. ID                                       : 17
  348. ID in the original source medium         : 4770 (0x12A2)
  349. Format                                   : PGS
  350. Muxing mode                              : zlib
  351. Codec ID                                 : S_HDMV/PGS
  352. Codec ID/Info                            : Picture based subtitle format used on BDs/HD-DVDs
  353. Duration                                 : 1 h 39 min
  354. Bit rate                                 : 15.7 kb/s
  355. Count of elements                        : 1568
  356. Stream size                              : 11.1 MiB (0%)
  357. Title                                    : French-PGS
  358. Language                                 : French
  359. Default                                  : No
  360. Forced                                   : No
  361. Original source medium                   : Blu-ray

  362. Text #5
  363. ID                                       : 18
  364. ID in the original source medium         : 4771 (0x12A3)
  365. Format                                   : PGS
  366. Muxing mode                              : zlib
  367. Codec ID                                 : S_HDMV/PGS
  368. Codec ID/Info                            : Picture based subtitle format used on BDs/HD-DVDs
  369. Duration                                 : 1 h 38 min
  370. Bit rate                                 : 14.3 kb/s
  371. Count of elements                        : 1536
  372. Stream size                              : 10.1 MiB (0%)
  373. Title                                    : Spanish-PGS
  374. Language                                 : Spanish
  375. Default                                  : No
  376. Forced                                   : No
  377. Original source medium                   : Blu-ray

  378. Text #6
  379. ID                                       : 19
  380. ID in the original source medium         : 4772 (0x12A4)
  381. Format                                   : PGS
  382. Muxing mode                              : zlib
  383. Codec ID                                 : S_HDMV/PGS
  384. Codec ID/Info                            : Picture based subtitle format used on BDs/HD-DVDs
  385. Duration                                 : 1 h 38 min
  386. Bit rate                                 : 15.7 kb/s
  387. Count of elements                        : 1452
  388. Stream size                              : 11.1 MiB (0%)
  389. Title                                    : German-PGS
  390. Language                                 : German
  391. Default                                  : No
  392. Forced                                   : No
  393. Original source medium                   : Blu-ray

  394. Text #7
  395. ID                                       : 20
  396. ID in the original source medium         : 4773 (0x12A5)
  397. Format                                   : PGS
  398. Muxing mode                              : zlib
  399. Codec ID                                 : S_HDMV/PGS
  400. Codec ID/Info                            : Picture based subtitle format used on BDs/HD-DVDs
  401. Duration                                 : 1 h 38 min
  402. Bit rate                                 : 12.4 kb/s
  403. Count of elements                        : 1308
  404. Stream size                              : 8.76 MiB (0%)
  405. Title                                    : Japanese-PGS
  406. Language                                 : Japanese
  407. Default                                  : No
  408. Forced                                   : No
  409. Original source medium                   : Blu-ray

  410. Text #8
  411. ID                                       : 21
  412. ID in the original source medium         : 4774 (0x12A6)
  413. Format                                   : PGS
  414. Muxing mode                              : zlib
  415. Codec ID                                 : S_HDMV/PGS
  416. Codec ID/Info                            : Picture based subtitle format used on BDs/HD-DVDs
  417. Duration                                 : 4 s 734 ms
  418. Bit rate                                 : 20.8 kb/s
  419. Count of elements                        : 2
  420. Stream size                              : 12.0 KiB (0%)
  421. Title                                    : French-FORCED-PGS
  422. Language                                 : French
  423. Default                                  : No
  424. Forced                                   : No
  425. Original source medium                   : Blu-ray

  426. Text #9
  427. ID                                       : 22
  428. ID in the original source medium         : 4775 (0x12A7)
  429. Format                                   : PGS
  430. Muxing mode                              : zlib
  431. Codec ID                                 : S_HDMV/PGS
  432. Codec ID/Info                            : Picture based subtitle format used on BDs/HD-DVDs
  433. Duration                                 : 1 h 32 min
  434. Bit rate                                 : 340 b/s
  435. Count of elements                        : 34
  436. Stream size                              : 231 KiB (0%)
  437. Title                                    : French-FORCED-PGS
  438. Language                                 : French
  439. Default                                  : No
  440. Forced                                   : No
  441. Original source medium                   : Blu-ray

  442. Text #10
  443. ID                                       : 23
  444. ID in the original source medium         : 4776 (0x12A8)
  445. Format                                   : PGS
  446. Muxing mode                              : zlib
  447. Codec ID                                 : S_HDMV/PGS
  448. Codec ID/Info                            : Picture based subtitle format used on BDs/HD-DVDs
  449. Duration                                 : 4 s 734 ms
  450. Bit rate                                 : 24.5 kb/s
  451. Count of elements                        : 2
  452. Stream size                              : 14.2 KiB (0%)
  453. Title                                    : Spanish-FORCED-PGS
  454. Language                                 : Spanish
  455. Default                                  : No
  456. Forced                                   : No
  457. Original source medium                   : Blu-ray

  458. Text #11
  459. ID                                       : 24
  460. ID in the original source medium         : 4777 (0x12A9)
  461. Format                                   : PGS
  462. Muxing mode                              : zlib
  463. Codec ID                                 : S_HDMV/PGS
  464. Codec ID/Info                            : Picture based subtitle format used on BDs/HD-DVDs
  465. Duration                                 : 4 s 734 ms
  466. Bit rate                                 : 21.8 kb/s
  467. Count of elements                        : 2
  468. Stream size                              : 12.6 KiB (0%)
  469. Title                                    : German-FORCED-PGS
  470. Language                                 : German
  471. Default                                  : No
  472. Forced                                   : No
  473. Original source medium                   : Blu-ray

  474. Menu
  475. 00:00:00.000                             : en:Chapter 01
  476. 00:03:35.548                             : en:Chapter 02
  477. 00:05:58.232                             : en:Chapter 03
  478. 00:10:31.005                             : en:Chapter 04
  479. 00:15:49.073                             : en:Chapter 05
  480. 00:19:03.475                             : en:Chapter 06
  481. 00:23:29.199                             : en:Chapter 07
  482. 00:27:27.646                             : en:Chapter 08
  483. 00:32:27.195                             : en:Chapter 09
  484. 00:34:32.195                             : en:Chapter 10
  485. 00:41:43.292                             : en:Chapter 11
  486. 00:46:14.188                             : en:Chapter 12
  487. 00:50:07.004                             : en:Chapter 13
  488. 00:55:15.228                             : en:Chapter 14
  489. 01:00:30.418                             : en:Chapter 15
  490. 01:04:04.298                             : en:Chapter 16
  491. 01:07:46.645                             : en:Chapter 17
  492. 01:12:37.936                             : en:Chapter 18
  493. 01:17:02.576                             : en:Chapter 19
  494. 01:19:24.885                             : en:Chapter 20
  495. 01:23:06.439                             : en:Chapter 21
  496. 01:26:20.508                             : en:Chapter 22
  497. 01:29:25.860                             : en:Chapter 23
  498. 01:32:22.036                             : en:Chapter 24
复制代码

野性的呼唤/极地守护犬 The.Call.of.the.Wild.2020.2160p.BluRay.REMUX.HEVC.DTS-HD.MA.TrueHD.7.1.Atmos-FGT 56.45GB-2.png 野性的呼唤/极地守护犬 The.Call.of.the.Wild.2020.2160p.BluRay.REMUX.HEVC.DTS-HD.MA.TrueHD.7.1.Atmos-FGT 56.45GB-3.png 野性的呼唤/极地守护犬 The.Call.of.the.Wild.2020.2160p.BluRay.REMUX.HEVC.DTS-HD.MA.TrueHD.7.1.Atmos-FGT 56.45GB-4.png







回复

使用道具 举报

 成长值: 3580

发表于 2020-5-6 21:39:33 | 显示全部楼层
太好啦&萬分感謝版主的無私發佈分享%
回复 支持 反对

使用道具 举报

 成长值: 2970

发表于 2020-5-7 09:12:51 | 显示全部楼层
谢谢楼主无私分享。
回复 支持 反对

使用道具 举报

发表于 2020-5-9 09:41:03 | 显示全部楼层
楼主发贴辛苦了,谢谢楼主分享!我觉得蓝光电影网是注册对了!
回复 支持 反对

使用道具 举报

发表于 2020-5-9 17:33:34 | 显示全部楼层

楼主太厉害了!楼主,电影应该很好看我觉得蓝光电影网真是个好地方!
回复 支持 反对

使用道具 举报

发表于 2020-5-11 08:08:24 | 显示全部楼层

我看不错噢 谢谢楼主!蓝光电影网越来越好!
回复 支持 反对

使用道具 举报

发表于 2020-5-12 09:41:37 | 显示全部楼层

既然你诚信诚意的推荐了,那我就勉为其难的看看吧!蓝光电影网不走平凡路。
回复 支持 反对

使用道具 举报

 成长值: 415

发表于 2020-5-12 11:15:56 | 显示全部楼层
有中文字幕吗?
回复 支持 反对

使用道具 举报

 成长值: 1630

发表于 2020-5-17 10:00:03 | 显示全部楼层

这个帖子不回对不起自己!我想我是一天也不能离开蓝光电影网
回复 支持 反对

使用道具 举报

发表于 2020-5-20 09:36:29 来自手机 | 显示全部楼层
谢谢分享谢谢分享看过1080p的剧情不错很搞笑
回复 支持 反对

使用道具 举报

懒得打字嘛,点击右侧快捷回复 【右侧内容,后台自定义】
您需要登录后才可以回帖 登录 | 立即加入

本版积分规则

现在加入蓝光电影网,注册一个账号
上个主题 下个主题 快速回复 收藏帖子 返回列表 客服中心 搜索

手机版|小黑屋| 蓝光电影网 |网站地图 

Copyright © 2015-2019 Comsenz Inc.  Template by 蓝光电影论坛 All Rights Reserved.

Powered by 蓝光电影网 X3.4

特别声明:本站所有资源均由网上收集而来,版权归原影音公司所有,如果侵犯了你的权益,请通知我们,我们会及时删除侵权内容.

快速回复 返回顶部 返回列表