找回密码

蓝光电影网

查看: 1328|回复: 35

[10bit.HDR] 四十七浪人/浪人四十七 47.Ronin.2013.2160p.UHD.BluRay.X265.10bit.HDR.DTS-X.7.1-WhiteRhino 21.45GB

[复制链接]

 成长值: 26125

发表于 2020-5-3 17:18:11 | 显示全部楼层 |阅读模式
四十七浪人/浪人四十七 47.Ronin.2013.2160p.UHD.BluRay.X265.10bit.HDR.DTS-X.7.1-WhiteRhino 21.45GB-1.png

译  名 四十七浪人 / 浪人四十七 / 浪魂 47(港)
片  名 47 Ronin
年  代 2013
产  地 美国
类  别 剧情 / 动作 / 奇幻
语  言 英语 / 日语
上映日期 2013-12-06(日本) / 2013-12-25(美国)
IMDb评分  6.3/10 from 141640 users
IMDb链接  https://www.imdb.com/title/tt1335975
豆瓣评分 5.7/10 from 14573 users
豆瓣链接 https://movie.douban.com/subject/3326730/
片  长 119分钟
导  演 Carl Rinsch
编  剧 Carl Rinsch / 霍辛·阿米尼 Hossein Amini
主  演 基努·李维斯 Keanu Reeves
       真田广之 Hiroyuki Sanada
       浅野忠信 Tadanobu Asano
       菊地凛子 Rinko Kikuchi
       柴崎幸 Kou Shibasaki
       赤西仁 Jin Akanishi


标  签 日本 | 美国 | 武士 | 动作 | KeanuReeves | 浪人四十七 | 美国电影 | 赤西仁

简  介  

  古老的日本进入江户时代,德川幕府闭关锁国,维持着与世隔绝的和平和将军家的绝对统治。五代将军纲吉(田川洋行 饰)在吉良上野介(浅野忠信 饰)的陪同下造访浅野内匠头(田中泯 饰)所领导的播州赤穗藩。吉良阴险狭隘,野心勃勃,他利用妖女美月(菊地凛子 饰)迷惑浅野藩主,令其对吉良挥刀相向。震怒的将军责令浅野切腹,并严禁赤穗藩的家老大石内藏助(真田广之 饰)挟私报复。高傲的武士们一瞬间沦为浪人,而藩主自由收养的混血儿魁(基努·李维斯 Keanu Reeves 饰)更遭到不公的对待。经过一段时间的忍辱负重,大石将四十六位忠勇的赤穗藩武士集结麾下,暗中展开针对吉良的复仇。他辗转找到了魁,自幼爱慕藩主女儿美伽(柴崎幸 饰)的魁,为了防止心上人被吉良玷污,选择加入了复仇集团。
  四十七浪人的经典故事,以别样的形式呈现出来……

获奖情况  

  第61届美国音效剪辑协会奖(2014)
  金卷轴奖 最佳配乐剪辑(提名) Andrew Silver / Peter Oso Snell / Julie Pearce / Kenneth Karman

  1. Video
  2. ID                                       : 1
  3. Format                                   : HEVC
  4. Format/Info                              : High Efficiency Video Coding
  5. Format profile                           : Main 10@L5.1@High
  6. HDR format                               : SMPTE ST 2086, HDR10 compatible
  7. Codec ID                                 : V_MPEGH/ISO/HEVC
  8. Duration                                 : 1 h 58 min
  9. Bit rate                                 : 19.0 Mb/s
  10. Width                                    : 3 840 pixels
  11. Height                                   : 1 600 pixels
  12. Display aspect ratio                     : 2.40:1
  13. Frame rate mode                          : Constant
  14. Frame rate                               : 23.976 (24000/1001/45165) FPS
  15. Color space                              : YUV
  16. Chroma subsampling                       : 4:2:0 (Type 2)
  17. Bit depth                                : 10 bits
  18. Bits/(Pixel*Frame)                       : 0.129
  19. Stream size                              : 15.8 GiB (74%)
  20. Writing library                          : x265 3.3+21-6bb2d88029c2:[Windows][GCC 10.0.1][64 bit] 10bit
  21. Encoding settings                        : cpuid=1111039 / frame-threads=5 / numa-pools=36 / wpp / no-pmode / no-pme / no-psnr / no-ssim / log-level=2 / input-csp=1 / input-res=3840x1600 / interlace=0 / total-frames=170631 / level-idc=51 / high-tier=1 / uhd-bd=0 / ref=4 / no-allow-non-conformance / repeat-headers / annexb / aud / hrd / info / hash=0 / no-temporal-layers / no-open-gop / min-keyint=23 / keyint=250 / gop-lookahead=0 / bframes=4 / b-adapt=2 / b-pyramid / bframe-bias=0 / rc-lookahead=25 / lookahead-slices=4 / scenecut=40 / hist-scenecut=0 / radl=0 / no-splice / no-intra-refresh / ctu=64 / min-cu-size=8 / rect / no-amp / max-tu-size=32 / tu-inter-depth=1 / tu-intra-depth=1 / limit-tu=0 / rdoq-level=2 / dynamic-rd=0.00 / no-ssim-rd / signhide / no-tskip / nr-intra=0 / nr-inter=0 / no-constrained-intra / strong-intra-smoothing / max-merge=3 / limit-refs=3 / limit-modes / me=3 / subme=3 / merange=57 / temporal-mvp / no-frame-dup / no-hme / weightp / no-weightb / no-analyze-src-pics / deblock=-3:-3 / no-sao / no-sao-non-deblock / rd=4 / selective-sao=0 / no-early-skip / rskip / no-fast-intra / no-tskip-fast / no-cu-lossless / no-b-intra / no-splitrd-skip / rdpenalty=0 / psy-rd=2.00 / psy-rdoq=1.00 / no-rd-refine / no-lossless / cbqpoffs=0 / crqpoffs=0 / rc=crf / crf=14.0 / qcomp=0.60 / qpstep=4 / stats-write=0 / stats-read=0 / vbv-maxrate=160000 / vbv-bufsize=160000 / vbv-init=0.9 / crf-max=0.0 / crf-min=0.0 / ipratio=1.40 / pbratio=1.30 / aq-mode=2 / aq-strength=1.00 / cutree / zone-count=0 / no-strict-cbr / qg-size=32 / no-rc-grain / qpmax=69 / qpmin=0 / no-const-vbv / sar=1 / overscan=0 / videoformat=5 / range=0 / colorprim=9 / transfer=16 / colormatrix=9 / chromaloc=1 / chromaloc-top=2 / chromaloc-bottom=2 / display-window=0 / master-display=G(13250,34500)B(7500,3000)R(34000,16000)WP(15635,16450)L(10000000,50) / cll=728,279 / min-luma=0 / max-luma=1023 / log2-max-poc-lsb=8 / vui-timing-info / vui-hrd-info / slices=1 / no-opt-qp-pps / no-opt-ref-list-length-pps / no-multi-pass-opt-rps / scenecut-bias=0.05 / hist-threshold=0.01 / no-opt-cu-delta-qp / no-aq-motion / hdr10 / hdr10-opt / no-dhdr10-opt / no-idr-recovery-sei / analysis-reuse-level=0 / analysis-save-reuse-level=0 / analysis-load-reuse-level=0 / scale-factor=0 / refine-intra=0 / refine-inter=0 / refine-mv=1 / refine-ctu-distortion=0 / no-limit-sao / ctu-info=0 / no-lowpass-dct / refine-analysis-type=0 / copy-pic=1 / max-ausize-factor=1.0 / no-dynamic-refine / no-single-sei / no-hevc-aq / no-svt / no-field / qp-adaptation-range=1.00 / no-scenecut-aware-qpconformance-window-offsets / right=0 / bottom=0 / decoder-max-rate=0
  22. Default                                  : Yes
  23. Forced                                   : No
  24. Color range                              : Limited
  25. Color primaries                          : BT.2020
  26. Transfer characteristics                 : PQ
  27. Matrix coefficients                      : BT.2020 non-constant
  28. Mastering display color primaries        : Display P3
  29. Mastering display luminance              : min: 0.0050 cd/m2, max: 1000 cd/m2
  30. Maximum Content Light Level              : 728 cd/m2
  31. Maximum Frame-Average Light Level        : 279 cd/m2

  32. Audio
  33. ID                                       : 2
  34. Format                                   : DTS XLL X
  35. Format/Info                              : Digital Theater Systems
  36. Commercial name                          : DTS-HD Master Audio
  37. Codec ID                                 : A_DTS
  38. Duration                                 : 1 h 58 min
  39. Bit rate mode                            : Variable
  40. Bit rate                                 : 6 543 kb/s
  41. Channel(s)                               : 8 channels
  42. Channel(s)_Original                      : Object Based
  43. Channel layout                           : Object Based
  44. Sampling rate                            : 48.0 kHz
  45. Frame rate                               : 93.750 FPS (512 SPF)
  46. Bit depth                                : 24 bits
  47. Stream size                              : 5.42 GiB (26%)
  48. Language                                 : English
  49. Default                                  : Yes
  50. Forced                                   : No

  51. Text #1
  52. ID                                       : 3
  53. Format                                   : PGS
  54. Muxing mode                              : zlib
  55. Codec ID                                 : S_HDMV/PGS
  56. Codec ID/Info                            : Picture based subtitle format used on BDs/HD-DVDs
  57. Duration                                 : 1 h 47 min
  58. Bit rate                                 : 16.8 kb/s
  59. Count of elements                        : 1484
  60. Stream size                              : 13.0 MiB (0%)
  61. Title                                    : SDH
  62. Language                                 : English
  63. Default                                  : No
  64. Forced                                   : No

  65. Text #2
  66. ID                                       : 4
  67. Format                                   : PGS
  68. Muxing mode                              : zlib
  69. Codec ID                                 : S_HDMV/PGS
  70. Codec ID/Info                            : Picture based subtitle format used on BDs/HD-DVDs
  71. Duration                                 : 1 h 47 min
  72. Bit rate                                 : 16.5 kb/s
  73. Count of elements                        : 1336
  74. Stream size                              : 12.8 MiB (0%)
  75. Language                                 : French
  76. Default                                  : No
  77. Forced                                   : No

  78. Text #3
  79. ID                                       : 5
  80. Format                                   : PGS
  81. Muxing mode                              : zlib
  82. Codec ID                                 : S_HDMV/PGS
  83. Codec ID/Info                            : Picture based subtitle format used on BDs/HD-DVDs
  84. Duration                                 : 1 h 47 min
  85. Bit rate                                 : 15.5 kb/s
  86. Count of elements                        : 1384
  87. Stream size                              : 12.0 MiB (0%)
  88. Language                                 : Spanish
  89. Default                                  : No
  90. Forced                                   : No

  91. Text #4
  92. ID                                       : 6
  93. Format                                   : PGS
  94. Muxing mode                              : zlib
  95. Codec ID                                 : S_HDMV/PGS
  96. Codec ID/Info                            : Picture based subtitle format used on BDs/HD-DVDs
  97. Duration                                 : 1 h 57 min
  98. Bit rate                                 : 13.9 kb/s
  99. Count of elements                        : 1390
  100. Stream size                              : 11.7 MiB (0%)
  101. Language                                 : Portuguese
  102. Default                                  : No
  103. Forced                                   : No

  104. Menu
  105. 00:00:00.000                             : en:Chapter 01
  106. 00:04:27.559                             : en:Chapter 02
  107. 00:11:12.088                             : en:Chapter 03
  108. 00:16:27.820                             : en:Chapter 04
  109. 00:20:11.836                             : en:Chapter 05
  110. 00:26:52.319                             : en:Chapter 06
  111. 00:31:02.944                             : en:Chapter 07
  112. 00:36:10.627                             : en:Chapter 08
  113. 00:43:36.614                             : en:Chapter 09
  114. 00:50:14.511                             : en:Chapter 10
  115. 00:54:59.421                             : en:Chapter 11
  116. 00:59:54.049                             : en:Chapter 12
  117. 01:09:57.735                             : en:Chapter 13
  118. 01:13:59.018                             : en:Chapter 14
  119. 01:19:12.247                             : en:Chapter 15
  120. 01:24:17.386                             : en:Chapter 16
  121. 01:33:00.825                             : en:Chapter 17
  122. 01:38:55.555                             : en:Chapter 18
  123. 01:44:41.609                             : en:Chapter 19
  124. 01:48:38.303                             : en:Chapter 20
复制代码
004823twx267z4618x3w15.png 004823zdw98q7gw898mz83.png 004823kjhl3whyvmtv3jmn.png




回复

使用道具 举报

发表于 2020-5-3 19:20:47 | 显示全部楼层
箩 利 资 原【 w w w . g x 5 . m e
回复 支持 反对

使用道具 举报

发表于 2020-5-3 21:49:41 | 显示全部楼层
感谢楼主分享好电影
回复 支持 反对

使用道具 举报

发表于 2020-5-3 22:26:23 | 显示全部楼层

这个帖子不回对不起自己!我想我是一天也不能离开蓝光电影网
回复 支持 反对

使用道具 举报

发表于 2020-5-3 22:27:45 | 显示全部楼层
谢谢分享
回复

使用道具 举报

发表于 2020-5-3 22:44:57 | 显示全部楼层

我看不错噢 谢谢楼主!蓝光电影网越来越好!
回复 支持 反对

使用道具 举报

发表于 2020-5-3 22:52:10 | 显示全部楼层

这东西我收了!谢谢楼主!蓝光电影网真好!
回复 支持 反对

使用道具 举报

 成长值: 3160

发表于 2020-5-4 00:05:45 | 显示全部楼层

感谢楼主的无私分享!要想蓝光电影网好 就靠你我他
回复 支持 反对

使用道具 举报

发表于 2020-5-4 04:48:33 | 显示全部楼层

楼主,大恩不言谢了!蓝光电影网是最棒的!
回复 支持 反对

使用道具 举报

发表于 2020-5-4 07:10:25 | 显示全部楼层
Ronin.2013.2160p.UHD.BluRay.X265.10bit.HDR.DTS-X.7.1-WhiteRhino 21.45G
回复 支持 反对

使用道具 举报

懒得打字嘛,点击右侧快捷回复 【右侧内容,后台自定义】
您需要登录后才可以回帖 登录 | 立即加入

本版积分规则

现在加入蓝光电影网,注册一个账号
上个主题 下个主题 快速回复 收藏帖子 返回列表 客服中心 搜索

手机版|小黑屋| 蓝光电影网 |网站地图 

Copyright © 2015-2019 Comsenz Inc.  Template by 蓝光电影论坛 All Rights Reserved.

Powered by 蓝光电影网 X3.4

特别声明:本站所有资源均由网上收集而来,版权归原影音公司所有,如果侵犯了你的权益,请通知我们,我们会及时删除侵权内容.

快速回复 返回顶部 返回列表