找回密码

蓝光电影网

查看: 219|回复: 4

[8bit.SDR] 四十七浪人/浪人四十七 47.Ronin.2013.2160p.BluRay.x264.8bit.SDR.DTS-X.7.1-SWTYBLZ 32.67GB

[复制链接]

 成长值: 26125

发表于 2020-5-3 17:13:54 | 显示全部楼层 |阅读模式
四十七浪人/浪人四十七 47.Ronin.2013.2160p.BluRay.x264.8bit.SDR.DTS-X.7.1-SWTYBLZ 32.67GB-1.png

译  名 四十七浪人 / 浪人四十七 / 浪魂 47(港)
片  名 47 Ronin
年  代 2013
产  地 美国
类  别 剧情 / 动作 / 奇幻
语  言 英语 / 日语
上映日期 2013-12-06(日本) / 2013-12-25(美国)
IMDb评分  6.3/10 from 141640 users
IMDb链接  https://www.imdb.com/title/tt1335975
豆瓣评分 5.7/10 from 14573 users
豆瓣链接 https://movie.douban.com/subject/3326730/
片  长 119分钟
导  演 Carl Rinsch
编  剧 Carl Rinsch / 霍辛·阿米尼 Hossein Amini
主  演 基努·李维斯 Keanu Reeves
       真田广之 Hiroyuki Sanada
       浅野忠信 Tadanobu Asano
       菊地凛子 Rinko Kikuchi
       柴崎幸 Kou Shibasaki
       赤西仁 Jin Akanishi


标  签 日本 | 美国 | 武士 | 动作 | KeanuReeves | 浪人四十七 | 美国电影 | 赤西仁

简  介  

  古老的日本进入江户时代,德川幕府闭关锁国,维持着与世隔绝的和平和将军家的绝对统治。五代将军纲吉(田川洋行 饰)在吉良上野介(浅野忠信 饰)的陪同下造访浅野内匠头(田中泯 饰)所领导的播州赤穗藩。吉良阴险狭隘,野心勃勃,他利用妖女美月(菊地凛子 饰)迷惑浅野藩主,令其对吉良挥刀相向。震怒的将军责令浅野切腹,并严禁赤穗藩的家老大石内藏助(真田广之 饰)挟私报复。高傲的武士们一瞬间沦为浪人,而藩主自由收养的混血儿魁(基努·李维斯 Keanu Reeves 饰)更遭到不公的对待。经过一段时间的忍辱负重,大石将四十六位忠勇的赤穗藩武士集结麾下,暗中展开针对吉良的复仇。他辗转找到了魁,自幼爱慕藩主女儿美伽(柴崎幸 饰)的魁,为了防止心上人被吉良玷污,选择加入了复仇集团。
  四十七浪人的经典故事,以别样的形式呈现出来……

获奖情况  

  第61届美国音效剪辑协会奖(2014)
  金卷轴奖 最佳配乐剪辑(提名) Andrew Silver / Peter Oso Snell / Julie Pearce / Kenneth Karman
  1. Video
  2. ID                                       : 1
  3. Format                                   : AVC
  4. Format/Info                              : Advanced Video Codec
  5. Format profile                           : High@L4
  6. Format settings                          : CABAC / 5 Ref Frames
  7. Format settings, CABAC                   : Yes
  8. Format settings, Reference frames        : 5 frames
  9. Codec ID                                 : V_MPEG4/ISO/AVC
  10. Duration                                 : 1 h 58 min
  11. Bit rate                                 : 32.1 Mb/s
  12. Width                                    : 3 840 pixels
  13. Height                                   : 1 600 pixels
  14. Display aspect ratio                     : 2.40:1
  15. Frame rate mode                          : Constant
  16. Frame rate                               : 23.976 (24000/1001/189150) FPS
  17. Color space                              : YUV
  18. Chroma subsampling                       : 4:2:0
  19. Bit depth                                : 8 bits
  20. Scan type                                : Progressive
  21. Bits/(Pixel*Frame)                       : 0.218
  22. Stream size                              : 26.6 GiB (82%)
  23. Title                                    : 47.Ronin.2013.2160p.BluRay.x264.8bit.SDR.DTS-X.7.1-SWTYBLZ
  24. Writing library                          : x264 core 157 r2935 545de2f
  25. Encoding settings                        : cabac=1 / ref=5 / deblock=1:-1:-1 / analyse=0x3:0x113 / me=umh / subme=10 / psy=1 / psy_rd=1.00:0.15 / mixed_ref=1 / me_range=48 / chroma_me=1 / trellis=2 / 8x8dct=1 / cqm=0 / deadzone=21,11 / fast_pskip=1 / chroma_qp_offset=-3 / threads=48 / lookahead_threads=4 / sliced_threads=0 / nr=0 / decimate=0 / interlaced=0 / bluray_compat=0 / constrained_intra=0 / bframes=3 / b_pyramid=2 / b_adapt=2 / b_bias=0 / direct=3 / weightb=1 / open_gop=0 / weightp=2 / keyint=250 / keyint_min=23 / scenecut=40 / intra_refresh=0 / rc_lookahead=50 / rc=crf / mbtree=1 / crf=18.0 / qcomp=0.60 / qpmin=0 / qpmax=69 / qpstep=4 / ip_ratio=1.40 / aq=1:1.00
  26. Default                                  : Yes
  27. Forced                                   : No

  28. Audio #1
  29. ID                                       : 2
  30. Format                                   : DTS XLL X
  31. Format/Info                              : Digital Theater Systems
  32. Commercial name                          : DTS-HD Master Audio
  33. Codec ID                                 : A_DTS
  34. Duration                                 : 1 h 58 min
  35. Bit rate mode                            : Variable
  36. Bit rate                                 : 6 543 kb/s
  37. Channel(s)                               : 8 channels
  38. Channel(s)_Original                      : Object Based
  39. Channel layout                           : Object Based
  40. Sampling rate                            : 48.0 kHz
  41. Frame rate                               : 93.750 FPS (512 SPF)
  42. Bit depth                                : 24 bits
  43. Stream size                              : 5.42 GiB (17%)
  44. Title                                    : 47.Ronin.2013.2160p.BluRay.x264.8bit.SDR.DTS-X.7.1-SWTYBLZ
  45. Language                                 : English
  46. Default                                  : Yes
  47. Forced                                   : No

  48. Audio #2
  49. ID                                       : 3
  50. Format                                   : AC-3
  51. Format/Info                              : Audio Coding 3
  52. Commercial name                          : Dolby Digital
  53. Codec ID                                 : A_AC3
  54. Duration                                 : 1 h 58 min
  55. Bit rate mode                            : Constant
  56. Bit rate                                 : 640 kb/s
  57. Channel(s)                               : 6 channels
  58. Channel layout                           : L R C LFE Ls Rs
  59. Sampling rate                            : 48.0 kHz
  60. Frame rate                               : 31.250 FPS (1536 SPF)
  61. Bit depth                                : 16 bits
  62. Compression mode                         : Lossy
  63. Stream size                              : 543 MiB (2%)
  64. Title                                    : 47.Ronin.2013.2160p.BluRay.x264.8bit.SDR.DTS-X.7.1-SWTYBLZ
  65. Language                                 : English
  66. Service kind                             : Complete Main
  67. Default                                  : No
  68. Forced                                   : No

  69. Text #1
  70. ID                                       : 4
  71. Format                                   : UTF-8
  72. Codec ID                                 : S_TEXT/UTF8
  73. Codec ID/Info                            : UTF-8 Plain Text
  74. Duration                                 : 1 h 47 min
  75. Bit rate                                 : 24 b/s
  76. Count of elements                        : 621
  77. Stream size                              : 19.3 KiB (0%)
  78. Title                                    : English-SRT
  79. Language                                 : English
  80. Default                                  : Yes
  81. Forced                                   : No

  82. Text #2
  83. ID                                       : 5
  84. Format                                   : PGS
  85. Muxing mode                              : zlib
  86. Codec ID                                 : S_HDMV/PGS
  87. Codec ID/Info                            : Picture based subtitle format used on BDs/HD-DVDs
  88. Duration                                 : 1 h 47 min
  89. Bit rate                                 : 16.8 kb/s
  90. Count of elements                        : 1484
  91. Stream size                              : 13.0 MiB (0%)
  92. Title                                    : English-PGS
  93. Language                                 : English
  94. Default                                  : No
  95. Forced                                   : No

  96. Text #3
  97. ID                                       : 6
  98. Format                                   : PGS
  99. Muxing mode                              : zlib
  100. Codec ID                                 : S_HDMV/PGS
  101. Codec ID/Info                            : Picture based subtitle format used on BDs/HD-DVDs
  102. Duration                                 : 1 h 47 min
  103. Bit rate                                 : 16.5 kb/s
  104. Count of elements                        : 1336
  105. Stream size                              : 12.8 MiB (0%)
  106. Title                                    : French-PGS
  107. Language                                 : French
  108. Default                                  : No
  109. Forced                                   : No

  110. Text #4
  111. ID                                       : 7
  112. Format                                   : PGS
  113. Muxing mode                              : zlib
  114. Codec ID                                 : S_HDMV/PGS
  115. Codec ID/Info                            : Picture based subtitle format used on BDs/HD-DVDs
  116. Duration                                 : 1 h 47 min
  117. Bit rate                                 : 15.5 kb/s
  118. Count of elements                        : 1384
  119. Stream size                              : 12.0 MiB (0%)
  120. Title                                    : Spanish-PGS
  121. Language                                 : Spanish
  122. Default                                  : No
  123. Forced                                   : No

  124. Text #5
  125. ID                                       : 8
  126. Format                                   : PGS
  127. Muxing mode                              : zlib
  128. Codec ID                                 : S_HDMV/PGS
  129. Codec ID/Info                            : Picture based subtitle format used on BDs/HD-DVDs
  130. Duration                                 : 1 h 57 min
  131. Bit rate                                 : 13.9 kb/s
  132. Count of elements                        : 1390
  133. Stream size                              : 11.7 MiB (0%)
  134. Title                                    : Portuguese-PGS
  135. Language                                 : Portuguese
  136. Default                                  : No
  137. Forced                                   : No

  138. Text #6
  139. ID                                       : 9
  140. Format                                   : PGS
  141. Muxing mode                              : zlib
  142. Codec ID                                 : S_HDMV/PGS
  143. Codec ID/Info                            : Picture based subtitle format used on BDs/HD-DVDs
  144. Duration                                 : 1 h 57 min
  145. Bit rate                                 : 59 b/s
  146. Count of elements                        : 6
  147. Stream size                              : 51.4 KiB (0%)
  148. Title                                    : Portuguese-FORCED-PGS
  149. Language                                 : Portuguese
  150. Default                                  : No
  151. Forced                                   : No

  152. Menu
  153. 00:00:00.000                             : en:Chapter 01
  154. 00:04:27.517                             : en:Chapter 02
  155. 00:11:11.962                             : en:Chapter 03
  156. 00:16:27.778                             : en:Chapter 04
  157. 00:20:11.835                             : en:Chapter 05
  158. 00:26:52.319                             : en:Chapter 06
  159. 00:31:02.652                             : en:Chapter 07
  160. 00:36:10.626                             : en:Chapter 08
  161. 00:43:36.614                             : en:Chapter 09
  162. 00:50:14.511                             : en:Chapter 10
  163. 00:54:59.337                             : en:Chapter 11
  164. 00:59:54.007                             : en:Chapter 12
  165. 01:09:57.735                             : en:Chapter 13
  166. 01:13:59.017                             : en:Chapter 14
  167. 01:19:12.247                             : en:Chapter 15
  168. 01:24:17.385                             : en:Chapter 16
  169. 01:33:00.825                             : en:Chapter 17
  170. 01:38:55.554                             : en:Chapter 18
  171. 01:44:41.608                             : en:Chapter 19
  172. 01:48:38.303                             : en:Chapter 20
复制代码

四十七浪人/浪人四十七 47.Ronin.2013.2160p.BluRay.x264.8bit.SDR.DTS-X.7.1-SWTYBLZ 32.67GB-2.png 四十七浪人/浪人四十七 47.Ronin.2013.2160p.BluRay.x264.8bit.SDR.DTS-X.7.1-SWTYBLZ 32.67GB-3.png 四十七浪人/浪人四十七 47.Ronin.2013.2160p.BluRay.x264.8bit.SDR.DTS-X.7.1-SWTYBLZ 32.67GB-4.png 四十七浪人/浪人四十七 47.Ronin.2013.2160p.BluRay.x264.8bit.SDR.DTS-X.7.1-SWTYBLZ 32.67GB-5.png 四十七浪人/浪人四十七 47.Ronin.2013.2160p.BluRay.x264.8bit.SDR.DTS-X.7.1-SWTYBLZ 32.67GB-6.png 四十七浪人/浪人四十七 47.Ronin.2013.2160p.BluRay.x264.8bit.SDR.DTS-X.7.1-SWTYBLZ 32.67GB-7.png 四十七浪人/浪人四十七 47.Ronin.2013.2160p.BluRay.x264.8bit.SDR.DTS-X.7.1-SWTYBLZ 32.67GB-8.png 四十七浪人/浪人四十七 47.Ronin.2013.2160p.BluRay.x264.8bit.SDR.DTS-X.7.1-SWTYBLZ 32.67GB-9.png







回复

使用道具 举报

发表于 2020-5-3 22:13:01 来自手机 | 显示全部楼层
怎么攒币请问管理员来回答
回复 支持 反对

使用道具 举报

发表于 2020-5-4 16:15:13 | 显示全部楼层
楼主发贴辛苦了,谢谢楼主分享!我觉得蓝光电影网是注册对了!
回复 支持 反对

使用道具 举报

发表于 2020-5-5 07:02:35 | 显示全部楼层

这个帖子不回对不起自己!我想我是一天也不能离开蓝光电影网
回复 支持 反对

使用道具 举报

发表于 2020-5-5 18:54:46 | 显示全部楼层

这个帖子不回对不起自己!我想我是一天也不能离开蓝光电影网
回复 支持 反对

使用道具 举报

懒得打字嘛,点击右侧快捷回复 【右侧内容,后台自定义】
您需要登录后才可以回帖 登录 | 立即加入

本版积分规则

现在加入蓝光电影网,注册一个账号
上个主题 下个主题 快速回复 收藏帖子 返回列表 客服中心 搜索

手机版|小黑屋| 蓝光电影网 |网站地图 

Copyright © 2015-2019 Comsenz Inc.  Template by 蓝光电影论坛 All Rights Reserved.

Powered by 蓝光电影网 X3.4

特别声明:本站所有资源均由网上收集而来,版权归原影音公司所有,如果侵犯了你的权益,请通知我们,我们会及时删除侵权内容.

快速回复 返回顶部 返回列表