找回密码

蓝光电影网

查看: 572|回复: 20

[REMUX.HEVC] 四十七浪人/浪人四十七 47.Ronin.2013.2160p.BluRay.REMUX.HEVC.DTS-X.7.1-FGT 50.23GB

[复制链接]

 成长值: 26125

发表于 2020-5-3 09:39:34 | 显示全部楼层 |阅读模式
四十七浪人/浪人四十七 47.Ronin.2013.2160p.BluRay.REMUX.HEVC.DTS-X.7.1-FGT 50.23GB-1.png

译  名 四十七浪人 / 浪人四十七 / 浪魂 47(港)
片  名 47 Ronin
年  代 2013
产  地 美国
类  别 剧情 / 动作 / 奇幻
语  言 英语 / 日语
上映日期 2013-12-06(日本) / 2013-12-25(美国)
IMDb评分  6.3/10 from 141640 users
IMDb链接  https://www.imdb.com/title/tt1335975
豆瓣评分 5.7/10 from 14573 users
豆瓣链接 https://movie.douban.com/subject/3326730/
片  长 119分钟
导  演 Carl Rinsch
编  剧 Carl Rinsch / 霍辛·阿米尼 Hossein Amini
主  演 基努·李维斯 Keanu Reeves
       真田广之 Hiroyuki Sanada
       浅野忠信 Tadanobu Asano
       菊地凛子 Rinko Kikuchi
       柴崎幸 Kou Shibasaki
       赤西仁 Jin Akanishi


标  签 日本 | 美国 | 武士 | 动作 | KeanuReeves | 浪人四十七 | 美国电影 | 赤西仁

简  介  

  古老的日本进入江户时代,德川幕府闭关锁国,维持着与世隔绝的和平和将军家的绝对统治。五代将军纲吉(田川洋行 饰)在吉良上野介(浅野忠信 饰)的陪同下造访浅野内匠头(田中泯 饰)所领导的播州赤穗藩。吉良阴险狭隘,野心勃勃,他利用妖女美月(菊地凛子 饰)迷惑浅野藩主,令其对吉良挥刀相向。震怒的将军责令浅野切腹,并严禁赤穗藩的家老大石内藏助(真田广之 饰)挟私报复。高傲的武士们一瞬间沦为浪人,而藩主自由收养的混血儿魁(基努·李维斯 Keanu Reeves 饰)更遭到不公的对待。经过一段时间的忍辱负重,大石将四十六位忠勇的赤穗藩武士集结麾下,暗中展开针对吉良的复仇。他辗转找到了魁,自幼爱慕藩主女儿美伽(柴崎幸 饰)的魁,为了防止心上人被吉良玷污,选择加入了复仇集团。
  四十七浪人的经典故事,以别样的形式呈现出来……

获奖情况  

  第61届美国音效剪辑协会奖(2014)
  金卷轴奖 最佳配乐剪辑(提名) Andrew Silver / Peter Oso Snell / Julie Pearce / Kenneth Karman
  1. Video
  2. ID                                       : 1
  3. Format                                   : HEVC
  4. Format/Info                              : High Efficiency Video Coding
  5. Format profile                           : Main High@L4@High
  6. HDR format                               : SMPTE ST 2086, HDR10 compatible
  7. Codec ID                                 : V_MPEGH/ISO/HEVC
  8. Duration                                 : 1 h 58 min
  9. Bit rate                                 : 51.8 Mb/s
  10. Width                                    : 3 840 pixels
  11. Height                                   : 2 160 pixels
  12. Display aspect ratio                     : 16:9
  13. Frame rate mode                          : Constant
  14. Frame rate                               : 23.976 (24000/1001/189150) FPS
  15. Color space                              : YUV
  16. Chroma subsampling                       : 4:2:0 (Type 2)
  17. Bit depth                                : 10 bits
  18. Bits/(Pixel*Frame)                       : 0.260
  19. Stream size                              : 42.9 GiB (85%)
  20. Title                                    : 47.Ronin.2013.2160p.BluRay.REMUX.HEVC.DTS-X.7.1-FGT
  21. Writing library                          : ATEME Titan File 3.9.0 (4.9.0.0)        
  22. Language                                 : English
  23. Default                                  : No
  24. Forced                                   : No
  25. Color range                              : Limited
  26. Color primaries                          : BT.2020
  27. Transfer characteristics                 : PQ
  28. Matrix coefficients                      : BT.2020 non-constant
  29. Mastering display color primaries        : Display P3
  30. Mastering display luminance              : min: 0.0050 cd/m2, max: 1000 cd/m2
  31. Maximum Content Light Level              : 728 cd/m2
  32. Maximum Frame-Average Light Level        : 279 cd/m2

  33. Audio #1
  34. ID                                       : 2
  35. Format                                   : DTS XLL X
  36. Format/Info                              : Digital Theater Systems
  37. Commercial name                          : DTS-HD Master Audio
  38. Codec ID                                 : A_DTS
  39. Duration                                 : 1 h 58 min
  40. Bit rate mode                            : Variable
  41. Bit rate                                 : 6 543 kb/s
  42. Channel(s)                               : 8 channels
  43. Channel(s)_Original                      : Object Based
  44. Channel layout                           : Object Based
  45. Sampling rate                            : 48.0 kHz
  46. Frame rate                               : 93.750 FPS (512 SPF)
  47. Bit depth                                : 24 bits
  48. Stream size                              : 5.42 GiB (11%)
  49. Title                                    : 47.Ronin.2013.2160p.BluRay.REMUX.HEVC.DTS-X.7.1-FGT
  50. Language                                 : English
  51. Default                                  : Yes
  52. Forced                                   : No

  53. Audio #2
  54. ID                                       : 3
  55. Format                                   : DTS
  56. Format/Info                              : Digital Theater Systems
  57. Codec ID                                 : A_DTS
  58. Duration                                 : 1 h 58 min
  59. Bit rate mode                            : Constant
  60. Bit rate                                 : 768 kb/s
  61. Channel(s)                               : 6 channels
  62. Channel layout                           : C L R Ls Rs LFE
  63. Sampling rate                            : 48.0 kHz
  64. Frame rate                               : 93.750 FPS (512 SPF)
  65. Bit depth                                : 24 bits
  66. Compression mode                         : Lossy
  67. Stream size                              : 652 MiB (1%)
  68. Title                                    : 47.Ronin.2013.2160p.BluRay.REMUX.HEVC.DTS-X.7.1-FGT
  69. Language                                 : French
  70. Default                                  : No
  71. Forced                                   : No

  72. Audio #3
  73. ID                                       : 4
  74. Format                                   : DTS
  75. Format/Info                              : Digital Theater Systems
  76. Codec ID                                 : A_DTS
  77. Duration                                 : 1 h 58 min
  78. Bit rate mode                            : Constant
  79. Bit rate                                 : 768 kb/s
  80. Channel(s)                               : 6 channels
  81. Channel layout                           : C L R Ls Rs LFE
  82. Sampling rate                            : 48.0 kHz
  83. Frame rate                               : 93.750 FPS (512 SPF)
  84. Bit depth                                : 24 bits
  85. Compression mode                         : Lossy
  86. Stream size                              : 652 MiB (1%)
  87. Title                                    : 47.Ronin.2013.2160p.BluRay.REMUX.HEVC.DTS-X.7.1-FGT
  88. Language                                 : Spanish
  89. Default                                  : No
  90. Forced                                   : No

  91. Audio #4
  92. ID                                       : 5
  93. Format                                   : DTS
  94. Format/Info                              : Digital Theater Systems
  95. Codec ID                                 : A_DTS
  96. Duration                                 : 1 h 58 min
  97. Bit rate mode                            : Constant
  98. Bit rate                                 : 768 kb/s
  99. Channel(s)                               : 6 channels
  100. Channel layout                           : C L R Ls Rs LFE
  101. Sampling rate                            : 48.0 kHz
  102. Frame rate                               : 93.750 FPS (512 SPF)
  103. Bit depth                                : 24 bits
  104. Compression mode                         : Lossy
  105. Stream size                              : 652 MiB (1%)
  106. Title                                    : 47.Ronin.2013.2160p.BluRay.REMUX.HEVC.DTS-X.7.1-FGT
  107. Language                                 : Portuguese
  108. Default                                  : No
  109. Forced                                   : No

  110. Text #1
  111. ID                                       : 6
  112. Format                                   : UTF-8
  113. Codec ID                                 : S_TEXT/UTF8
  114. Codec ID/Info                            : UTF-8 Plain Text
  115. Duration                                 : 1 h 47 min
  116. Bit rate                                 : 24 b/s
  117. Count of elements                        : 621
  118. Stream size                              : 19.3 KiB (0%)
  119. Title                                    : English-SRT
  120. Language                                 : English
  121. Default                                  : Yes
  122. Forced                                   : No

  123. Text #2
  124. ID                                       : 7
  125. Format                                   : PGS
  126. Muxing mode                              : zlib
  127. Codec ID                                 : S_HDMV/PGS
  128. Codec ID/Info                            : Picture based subtitle format used on BDs/HD-DVDs
  129. Duration                                 : 1 h 47 min
  130. Bit rate                                 : 16.8 kb/s
  131. Count of elements                        : 1484
  132. Stream size                              : 13.0 MiB (0%)
  133. Title                                    : English-PGS
  134. Language                                 : English
  135. Default                                  : No
  136. Forced                                   : No

  137. Text #3
  138. ID                                       : 8
  139. Format                                   : PGS
  140. Muxing mode                              : zlib
  141. Codec ID                                 : S_HDMV/PGS
  142. Codec ID/Info                            : Picture based subtitle format used on BDs/HD-DVDs
  143. Duration                                 : 1 h 47 min
  144. Bit rate                                 : 16.5 kb/s
  145. Count of elements                        : 1336
  146. Stream size                              : 12.8 MiB (0%)
  147. Title                                    : French-PGS
  148. Language                                 : French
  149. Default                                  : No
  150. Forced                                   : No

  151. Text #4
  152. ID                                       : 9
  153. Format                                   : PGS
  154. Muxing mode                              : zlib
  155. Codec ID                                 : S_HDMV/PGS
  156. Codec ID/Info                            : Picture based subtitle format used on BDs/HD-DVDs
  157. Duration                                 : 1 h 47 min
  158. Bit rate                                 : 15.5 kb/s
  159. Count of elements                        : 1384
  160. Stream size                              : 12.0 MiB (0%)
  161. Title                                    : Spanish-PGS
  162. Language                                 : Spanish
  163. Default                                  : No
  164. Forced                                   : No

  165. Text #5
  166. ID                                       : 10
  167. Format                                   : PGS
  168. Muxing mode                              : zlib
  169. Codec ID                                 : S_HDMV/PGS
  170. Codec ID/Info                            : Picture based subtitle format used on BDs/HD-DVDs
  171. Duration                                 : 1 h 57 min
  172. Bit rate                                 : 13.9 kb/s
  173. Count of elements                        : 1390
  174. Stream size                              : 11.7 MiB (0%)
  175. Title                                    : Portuguese-PGS
  176. Language                                 : Portuguese
  177. Default                                  : No
  178. Forced                                   : No

  179. Text #6
  180. ID                                       : 11
  181. Format                                   : PGS
  182. Muxing mode                              : zlib
  183. Codec ID                                 : S_HDMV/PGS
  184. Codec ID/Info                            : Picture based subtitle format used on BDs/HD-DVDs
  185. Duration                                 : 1 h 38 min
  186. Bit rate                                 : 232 b/s
  187. Count of elements                        : 12
  188. Stream size                              : 167 KiB (0%)
  189. Title                                    : French-FORCED-PGS
  190. Language                                 : French
  191. Default                                  : No
  192. Forced                                   : No

  193. Text #7
  194. ID                                       : 12
  195. Format                                   : PGS
  196. Muxing mode                              : zlib
  197. Codec ID                                 : S_HDMV/PGS
  198. Codec ID/Info                            : Picture based subtitle format used on BDs/HD-DVDs
  199. Duration                                 : 1 h 38 min
  200. Bit rate                                 : 241 b/s
  201. Count of elements                        : 12
  202. Stream size                              : 173 KiB (0%)
  203. Title                                    : Spanish-FORCED-PGS
  204. Language                                 : Spanish
  205. Default                                  : No
  206. Forced                                   : No

  207. Text #8
  208. ID                                       : 13
  209. Format                                   : PGS
  210. Muxing mode                              : zlib
  211. Codec ID                                 : S_HDMV/PGS
  212. Codec ID/Info                            : Picture based subtitle format used on BDs/HD-DVDs
  213. Duration                                 : 1 h 57 min
  214. Bit rate                                 : 59 b/s
  215. Count of elements                        : 6
  216. Stream size                              : 51.4 KiB (0%)
  217. Title                                    : Portuguese-FORCED-PGS
  218. Language                                 : Portuguese
  219. Default                                  : No
  220. Forced                                   : No

  221. Menu
  222. 00:00:00.000                             : en:Chapter 01
  223. 00:04:27.517                             : en:Chapter 02
  224. 00:11:11.962                             : en:Chapter 03
  225. 00:16:27.778                             : en:Chapter 04
  226. 00:20:11.835                             : en:Chapter 05
  227. 00:26:52.319                             : en:Chapter 06
  228. 00:31:02.652                             : en:Chapter 07
  229. 00:36:10.626                             : en:Chapter 08
  230. 00:43:36.614                             : en:Chapter 09
  231. 00:50:14.511                             : en:Chapter 10
  232. 00:54:59.337                             : en:Chapter 11
  233. 00:59:54.007                             : en:Chapter 12
  234. 01:09:57.735                             : en:Chapter 13
  235. 01:13:59.017                             : en:Chapter 14
  236. 01:19:12.247                             : en:Chapter 15
  237. 01:24:17.385                             : en:Chapter 16
  238. 01:33:00.825                             : en:Chapter 17
  239. 01:38:55.554                             : en:Chapter 18
  240. 01:44:41.608                             : en:Chapter 19
  241. 01:48:38.303                             : en:Chapter 20
复制代码

四十七浪人/浪人四十七 47.Ronin.2013.2160p.BluRay.REMUX.HEVC.DTS-X.7.1-FGT 50.23GB-2.png 四十七浪人/浪人四十七 47.Ronin.2013.2160p.BluRay.REMUX.HEVC.DTS-X.7.1-FGT 50.23GB-3.png 四十七浪人/浪人四十七 47.Ronin.2013.2160p.BluRay.REMUX.HEVC.DTS-X.7.1-FGT 50.23GB-4.png







回复

使用道具 举报

 成长值: 1585

发表于 2020-5-3 10:18:54 | 显示全部楼层
好片,一直在等
回复 支持 反对

使用道具 举报

发表于 2020-5-3 10:24:10 | 显示全部楼层
看过,就是不了解最后一众为什么破腹自杀。
回复 支持 反对

使用道具 举报

发表于 2020-5-3 10:24:54 | 显示全部楼层
感谢分享哈
回复 支持 反对

使用道具 举报

发表于 2020-5-3 12:07:35 | 显示全部楼层

好片,一直在等
回复 支持 反对

使用道具 举报

发表于 2020-5-3 13:15:20 | 显示全部楼层

楼主太厉害了!楼主,电影应该很好看我觉得蓝光电影网真是个好地方!
回复 支持 反对

使用道具 举报

发表于 2020-5-3 13:23:27 | 显示全部楼层
楼主发贴辛苦了,谢谢楼主分享!我觉得蓝光电影网是注册对了!
回复 支持 反对

使用道具 举报

发表于 2020-5-3 13:30:00 | 显示全部楼层

楼主太厉害了!楼主,电影应该很好看我觉得蓝光电影网真是个好地方!
回复 支持 反对

使用道具 举报

发表于 2020-5-3 13:34:21 | 显示全部楼层

这个帖子不回对不起自己!我想我是一天也不能离开蓝光电影网
回复 支持 反对

使用道具 举报

发表于 2020-5-3 14:47:13 | 显示全部楼层

看过,就是不了解最后一众为什么破腹自杀。
回复 支持 反对

使用道具 举报

懒得打字嘛,点击右侧快捷回复 【右侧内容,后台自定义】
您需要登录后才可以回帖 登录 | 立即加入

本版积分规则

现在加入蓝光电影网,注册一个账号
上个主题 下个主题 快速回复 收藏帖子 返回列表 客服中心 搜索

手机版|小黑屋| 蓝光电影网 |网站地图 

Copyright © 2015-2019 Comsenz Inc.  Template by 蓝光电影论坛 All Rights Reserved.

Powered by 蓝光电影网 X3.4

特别声明:本站所有资源均由网上收集而来,版权归原影音公司所有,如果侵犯了你的权益,请通知我们,我们会及时删除侵权内容.

快速回复 返回顶部 返回列表