找回密码

蓝光电影网

查看: 722|回复: 16

[REMUX.HEVC] 终结者:创世纪 Terminator.Genisys.2015.2160p.US.BluRay.REMUX.HEVC.DTS-HD.MA.TrueHD.7.1.Atmos-FGT 64.32GB

[复制链接]

 成长值: 26155

发表于 2020-4-30 18:32:06 | 显示全部楼层 |阅读模式
终结者:创世纪 Terminator.Genisys.2015.2160p.US.BluRay.REMUX.HEVC.DTS-HD.MA.TrueHD.7.1.Atmos-FGT 64.32GB-1.png

译  名 终结者:创世纪 / Terminator 5 / Terminator: Genesis / 未来战士:创世智能(港) / 终结者5 / 终结者:创世 / 终结者:造物主 / 魔鬼终结者:创世契机(台)
片  名 Terminator Genisys
年  代 2015
产  地 美国
类  别 动作 / 科幻 / 冒险
语  言 英语
上映日期 2015-07-01(美国) / 2015-08-23(中国大陆)
IMDb评分  6.4/10 from 251019 users
IMDb链接  https://www.imdb.com/title/tt1340138
豆瓣评分 6.9/10 from 125343 users
豆瓣链接 https://movie.douban.com/subject/3338862/
片  长 126分钟
导  演 阿兰·泰勒 Alan Taylor
编  剧 莱塔·卡罗格里迪斯 Laeta Kalogridis / 帕特里克·卢西尔 Patrick Lussier / 詹姆斯·卡梅隆 James Cameron / 盖尔·安妮·赫德 Gale Anne Hurd
主  演 阿诺·施瓦辛格 Arnold Schwarzenegger
       杰森·克拉科 Jason Clarke
       艾米莉亚·克拉克 Emilia Clarke
       杰·科特尼 Jai Courtney
       J·K·西蒙斯 J.K. Simmons
       戴奥·奥柯奈伊 Dayo Okeniyi
       马特·史密斯 Matt Smith
       考特尼·万斯 Courtney B. Vance
       李秉宪 Byeng-hun Lee
       迈克尔·盖拉迪斯 Michael J. X. Gladis
       何家蓓 Sandrine Holt
       Wayne Bastrup
       Gregory Alan Williams
       Otto Sanchez
       Matty Ferraro
       格里夫·弗斯特 Griff Furst
       Ian Etheridge
       诺兰·格罗斯 Nolan Gross
       Seth Meriwether
       阿非莫·奥米拉 Afemo Omilami
       特瑞·韦伯 Teri Wyble
       凯莉·奥马利 Kerry O'Malley


标  签 科幻 | 阿诺·施瓦辛格 | 美国 | 动作 | 终结者 | 2015 | 经典 | 惊悚

简  介  

  天网拥有独立意识后,对创造它的人类展开血腥屠杀。此后的岁月,约翰·康纳(杰森·克拉科 Jason Clarke 饰)率领战友和天网的机器人大军进行着旷日持久的战争。在关键的一次战役过后,天网将终结者派往1984年的洛杉矶,企图杀害约翰的妈妈莎拉(艾米莉亚·克拉克 Emilia Clarke 饰)。而约翰则将自己最亲密的战友——同时也是他的生身父亲凯尔·里斯(杰·科特尼 Jai Courtney 饰)派往过去。凯尔刚刚抵达洛杉矶便遭到液态金属终结者T-1000(李秉宪 饰)的袭击。与此同时,“老爹”(阿诺·施瓦辛格 Arnold Schwarzenegger 饰)则与莎拉联手干掉了终结者T-800(阿诺·施瓦辛格 Arnold Schwarzenegger 饰)。
  似乎过去的事情悄然改变,凯尔则从时间旅行中的遭遇得到灵感,与莎拉穿越来至2017年,尝试阻止天网的诞生……

获奖情况  

  第17届美国青少年选择奖(2015)
  最佳暑期电影(提名)
  最佳暑期电影女演员(提名) 艾米莉亚·克拉克

  第2届豆瓣电影年度榜单(2015)
  8月最受关注电影(提名)
  1. Video #1
  2. ID                                       : 1
  3. Format                                   : HEVC
  4. Format/Info                              : High Efficiency Video Coding
  5. Format profile                           : Main High@L4@High
  6. HDR format                               : SMPTE ST 2086, HDR10 compatible
  7. Codec ID                                 : V_MPEGH/ISO/HEVC
  8. Duration                                 : 2 h 5 min
  9. Bit rate                                 : 55.9 Mb/s
  10. Width                                    : 3 840 pixels
  11. Height                                   : 2 160 pixels
  12. Display aspect ratio                     : 16:9
  13. Frame rate mode                          : Constant
  14. Frame rate                               : 23.976 (24000/1001/189150) FPS
  15. Color space                              : YUV
  16. Chroma subsampling                       : 4:2:0 (Type 2)
  17. Bit depth                                : 10 bits
  18. Bits/(Pixel*Frame)                       : 0.281
  19. Stream size                              : 49.1 GiB (76%)
  20. Title                                    : Terminator.Genisys.2015.2160p.US.BluRay.REMUX.HEVC.DTS-HD.MA.TrueHD.7.1.Atmos-FGT
  21. Language                                 : English
  22. Default                                  : No
  23. Forced                                   : No
  24. Color range                              : Limited
  25. Color primaries                          : BT.2020
  26. Transfer characteristics                 : PQ
  27. Matrix coefficients                      : BT.2020 non-constant
  28. Mastering display color primaries        : Display P3
  29. Mastering display luminance              : min: 0.0001 cd/m2, max: 1000 cd/m2

  30. Video #2
  31. ID                                       : 2
  32. Format                                   : HEVC
  33. Format/Info                              : High Efficiency Video Coding
  34. Format profile                           : Main High@L4@High
  35. HDR format                               : SMPTE ST 2086, HDR10 compatible
  36. Codec ID                                 : V_MPEGH/ISO/HEVC
  37. Duration                                 : 2 h 5 min
  38. Bit rate                                 : 5 659 kb/s
  39. Width                                    : 1 920 pixels
  40. Height                                   : 1 080 pixels
  41. Display aspect ratio                     : 16:9
  42. Frame rate mode                          : Constant
  43. Frame rate                               : 23.976 (24000/1001/189150) FPS
  44. Color space                              : YUV
  45. Chroma subsampling                       : 4:2:0 (Type 2)
  46. Bit depth                                : 10 bits
  47. Bits/(Pixel*Frame)                       : 0.114
  48. Stream size                              : 4.97 GiB (8%)
  49. Title                                    : Terminator.Genisys.2015.2160p.US.BluRay.REMUX.HEVC.DTS-HD.MA.TrueHD.7.1.Atmos-FGT
  50. Language                                 : English
  51. Default                                  : No
  52. Forced                                   : No
  53. Color range                              : Limited
  54. Color primaries                          : BT.2020
  55. Transfer characteristics                 : PQ
  56. Matrix coefficients                      : BT.2020 non-constant
  57. Mastering display color primaries        : Display P3
  58. Mastering display luminance              : min: 0.0001 cd/m2, max: 1000 cd/m2

  59. Audio #1
  60. ID                                       : 3
  61. Format                                   : MLP FBA 16-ch
  62. Format/Info                              : Meridian Lossless Packing FBA with 16-channel presentation
  63. Commercial name                          : Dolby TrueHD with Dolby Atmos
  64. Codec ID                                 : A_TRUEHD
  65. Duration                                 : 2 h 5 min
  66. Bit rate mode                            : Variable
  67. Bit rate                                 : 4 443 kb/s
  68. Maximum bit rate                         : 7 878 kb/s
  69. Channel(s)                               : 8 channels
  70. Channel layout                           : L R C LFE Ls Rs Lb Rb
  71. Sampling rate                            : 48.0 kHz
  72. Frame rate                               : 1 200.000 FPS (40 SPF)
  73. Compression mode                         : Lossless
  74. Stream size                              : 3.90 GiB (6%)
  75. Title                                    : Terminator.Genisys.2015.2160p.US.BluRay.REMUX.HEVC.DTS-HD.MA.TrueHD.7.1.Atmos-FGT
  76. Language                                 : English
  77. Default                                  : Yes
  78. Forced                                   : No
  79. Number of dynamic objects                : 11
  80. Bed channel count                        : 1 channel
  81. Bed channel configuration                : LFE

  82. Audio #2
  83. ID                                       : 4
  84. Format                                   : DTS XLL
  85. Format/Info                              : Digital Theater Systems
  86. Commercial name                          : DTS-HD Master Audio
  87. Codec ID                                 : A_DTS
  88. Duration                                 : 2 h 5 min
  89. Bit rate mode                            : Variable
  90. Bit rate                                 : 3 901 kb/s
  91. Channel(s)                               : 8 channels
  92. Channel layout                           : C L R LFE Lb Rb Lss Rss
  93. Sampling rate                            : 48.0 kHz
  94. Frame rate                               : 93.750 FPS (512 SPF)
  95. Bit depth                                : 24 bits
  96. Compression mode                         : Lossless
  97. Stream size                              : 3.43 GiB (5%)
  98. Title                                    : Terminator.Genisys.2015.2160p.US.BluRay.REMUX.HEVC.DTS-HD.MA.TrueHD.7.1.Atmos-FGT
  99. Language                                 : English
  100. Default                                  : No
  101. Forced                                   : No

  102. Audio #3
  103. ID                                       : 5
  104. Format                                   : AC-3
  105. Format/Info                              : Audio Coding 3
  106. Commercial name                          : Dolby Digital
  107. Codec ID                                 : A_AC3
  108. Duration                                 : 2 h 5 min
  109. Bit rate mode                            : Constant
  110. Bit rate                                 : 640 kb/s
  111. Channel(s)                               : 6 channels
  112. Channel layout                           : L R C LFE Ls Rs
  113. Sampling rate                            : 48.0 kHz
  114. Frame rate                               : 31.250 FPS (1536 SPF)
  115. Bit depth                                : 16 bits
  116. Compression mode                         : Lossy
  117. Stream size                              : 575 MiB (1%)
  118. Title                                    : Terminator.Genisys.2015.2160p.US.BluRay.REMUX.HEVC.DTS-HD.MA.TrueHD.7.1.Atmos-FGT
  119. Language                                 : English
  120. Service kind                             : Complete Main
  121. Default                                  : No
  122. Forced                                   : No

  123. Audio #4
  124. ID                                       : 6
  125. Format                                   : AC-3
  126. Format/Info                              : Audio Coding 3
  127. Commercial name                          : Dolby Digital
  128. Codec ID                                 : A_AC3
  129. Duration                                 : 2 h 5 min
  130. Bit rate mode                            : Constant
  131. Bit rate                                 : 640 kb/s
  132. Channel(s)                               : 6 channels
  133. Channel layout                           : L R C LFE Ls Rs
  134. Sampling rate                            : 48.0 kHz
  135. Frame rate                               : 31.250 FPS (1536 SPF)
  136. Bit depth                                : 16 bits
  137. Compression mode                         : Lossy
  138. Stream size                              : 575 MiB (1%)
  139. Title                                    : Terminator.Genisys.2015.2160p.US.BluRay.REMUX.HEVC.DTS-HD.MA.TrueHD.7.1.Atmos-FGT
  140. Language                                 : French
  141. Service kind                             : Complete Main
  142. Default                                  : No
  143. Forced                                   : No

  144. Audio #5
  145. ID                                       : 7
  146. Format                                   : AC-3
  147. Format/Info                              : Audio Coding 3
  148. Commercial name                          : Dolby Digital
  149. Codec ID                                 : A_AC3
  150. Duration                                 : 2 h 5 min
  151. Bit rate mode                            : Constant
  152. Bit rate                                 : 640 kb/s
  153. Channel(s)                               : 6 channels
  154. Channel layout                           : L R C LFE Ls Rs
  155. Sampling rate                            : 48.0 kHz
  156. Frame rate                               : 31.250 FPS (1536 SPF)
  157. Bit depth                                : 16 bits
  158. Compression mode                         : Lossy
  159. Stream size                              : 575 MiB (1%)
  160. Title                                    : Terminator.Genisys.2015.2160p.US.BluRay.REMUX.HEVC.DTS-HD.MA.TrueHD.7.1.Atmos-FGT
  161. Language                                 : Spanish
  162. Service kind                             : Complete Main
  163. Default                                  : No
  164. Forced                                   : No

  165. Audio #6
  166. ID                                       : 8
  167. Format                                   : AC-3
  168. Format/Info                              : Audio Coding 3
  169. Commercial name                          : Dolby Digital
  170. Codec ID                                 : A_AC3
  171. Duration                                 : 2 h 5 min
  172. Bit rate mode                            : Constant
  173. Bit rate                                 : 640 kb/s
  174. Channel(s)                               : 6 channels
  175. Channel layout                           : L R C LFE Ls Rs
  176. Sampling rate                            : 48.0 kHz
  177. Frame rate                               : 31.250 FPS (1536 SPF)
  178. Bit depth                                : 16 bits
  179. Compression mode                         : Lossy
  180. Stream size                              : 575 MiB (1%)
  181. Title                                    : Terminator.Genisys.2015.2160p.US.BluRay.REMUX.HEVC.DTS-HD.MA.TrueHD.7.1.Atmos-FGT
  182. Language                                 : Portuguese
  183. Service kind                             : Complete Main
  184. Default                                  : No
  185. Forced                                   : No

  186. Audio #7
  187. ID                                       : 9
  188. Format                                   : AC-3
  189. Format/Info                              : Audio Coding 3
  190. Commercial name                          : Dolby Digital
  191. Codec ID                                 : A_AC3
  192. Duration                                 : 2 h 5 min
  193. Bit rate mode                            : Constant
  194. Bit rate                                 : 640 kb/s
  195. Channel(s)                               : 6 channels
  196. Channel layout                           : L R C LFE Ls Rs
  197. Sampling rate                            : 48.0 kHz
  198. Frame rate                               : 31.250 FPS (1536 SPF)
  199. Bit depth                                : 16 bits
  200. Compression mode                         : Lossy
  201. Stream size                              : 575 MiB (1%)
  202. Title                                    : Terminator.Genisys.2015.2160p.US.BluRay.REMUX.HEVC.DTS-HD.MA.TrueHD.7.1.Atmos-FGT
  203. Language                                 : English
  204. Service kind                             : Complete Main
  205. Default                                  : No
  206. Forced                                   : No

  207. Text #1
  208. ID                                       : 10
  209. Format                                   : UTF-8
  210. Codec ID                                 : S_TEXT/UTF8
  211. Codec ID/Info                            : UTF-8 Plain Text
  212. Duration                                 : 1 h 56 min
  213. Bit rate                                 : 47 b/s
  214. Count of elements                        : 1337
  215. Stream size                              : 40.3 KiB (0%)
  216. Title                                    : English-SRT
  217. Language                                 : English
  218. Default                                  : Yes
  219. Forced                                   : No

  220. Text #2
  221. ID                                       : 11
  222. Format                                   : PGS
  223. Muxing mode                              : zlib
  224. Codec ID                                 : S_HDMV/PGS
  225. Codec ID/Info                            : Picture based subtitle format used on BDs/HD-DVDs
  226. Duration                                 : 1 h 56 min
  227. Bit rate                                 : 29.1 kb/s
  228. Count of elements                        : 2680
  229. Stream size                              : 24.4 MiB (0%)
  230. Title                                    : English-PGS
  231. Language                                 : English
  232. Default                                  : No
  233. Forced                                   : No

  234. Text #3
  235. ID                                       : 12
  236. Format                                   : PGS
  237. Muxing mode                              : zlib
  238. Codec ID                                 : S_HDMV/PGS
  239. Codec ID/Info                            : Picture based subtitle format used on BDs/HD-DVDs
  240. Duration                                 : 1 h 58 min
  241. Bit rate                                 : 32.7 kb/s
  242. Count of elements                        : 3212
  243. Stream size                              : 27.8 MiB (0%)
  244. Title                                    : English-SDH-PGS
  245. Language                                 : English
  246. Default                                  : No
  247. Forced                                   : No

  248. Text #4
  249. ID                                       : 13
  250. Format                                   : PGS
  251. Muxing mode                              : zlib
  252. Codec ID                                 : S_HDMV/PGS
  253. Codec ID/Info                            : Picture based subtitle format used on BDs/HD-DVDs
  254. Duration                                 : 1 h 56 min
  255. Bit rate                                 : 29.4 kb/s
  256. Count of elements                        : 2966
  257. Stream size                              : 24.6 MiB (0%)
  258. Title                                    : French-PGS
  259. Language                                 : French
  260. Default                                  : No
  261. Forced                                   : No

  262. Text #5
  263. ID                                       : 14
  264. Format                                   : PGS
  265. Muxing mode                              : zlib
  266. Codec ID                                 : S_HDMV/PGS
  267. Codec ID/Info                            : Picture based subtitle format used on BDs/HD-DVDs
  268. Duration                                 : 1 h 35 min
  269. Bit rate                                 : 292 b/s
  270. Count of elements                        : 22
  271. Stream size                              : 203 KiB (0%)
  272. Title                                    : French-FORCED-PGS
  273. Language                                 : French
  274. Default                                  : No
  275. Forced                                   : No

  276. Text #6
  277. ID                                       : 15
  278. Format                                   : PGS
  279. Muxing mode                              : zlib
  280. Codec ID                                 : S_HDMV/PGS
  281. Codec ID/Info                            : Picture based subtitle format used on BDs/HD-DVDs
  282. Duration                                 : 1 h 56 min
  283. Bit rate                                 : 27.6 kb/s
  284. Count of elements                        : 2572
  285. Stream size                              : 23.1 MiB (0%)
  286. Title                                    : Spanish-PGS
  287. Language                                 : Spanish
  288. Default                                  : No
  289. Forced                                   : No

  290. Text #7
  291. ID                                       : 16
  292. Format                                   : PGS
  293. Muxing mode                              : zlib
  294. Codec ID                                 : S_HDMV/PGS
  295. Codec ID/Info                            : Picture based subtitle format used on BDs/HD-DVDs
  296. Duration                                 : 1 h 35 min
  297. Bit rate                                 : 305 b/s
  298. Count of elements                        : 24
  299. Stream size                              : 212 KiB (0%)
  300. Title                                    : Spanish-FORCED-PGS
  301. Language                                 : Spanish
  302. Default                                  : No
  303. Forced                                   : No

  304. Text #8
  305. ID                                       : 17
  306. Format                                   : PGS
  307. Muxing mode                              : zlib
  308. Codec ID                                 : S_HDMV/PGS
  309. Codec ID/Info                            : Picture based subtitle format used on BDs/HD-DVDs
  310. Duration                                 : 1 h 56 min
  311. Bit rate                                 : 24.8 kb/s
  312. Count of elements                        : 2574
  313. Stream size                              : 20.7 MiB (0%)
  314. Title                                    : Portuguese-PGS
  315. Language                                 : Portuguese
  316. Default                                  : No
  317. Forced                                   : No

  318. Text #9
  319. ID                                       : 18
  320. Format                                   : PGS
  321. Muxing mode                              : zlib
  322. Codec ID                                 : S_HDMV/PGS
  323. Codec ID/Info                            : Picture based subtitle format used on BDs/HD-DVDs
  324. Duration                                 : 1 h 40 min
  325. Bit rate                                 : 272 b/s
  326. Count of elements                        : 22
  327. Stream size                              : 201 KiB (0%)
  328. Title                                    : Portuguese-FORCED-PGS
  329. Language                                 : Portuguese
  330. Default                                  : No
  331. Forced                                   : No

  332. Menu
  333. 00:00:00.000                             : en:Chapter 01
  334. 00:07:40.334                             : en:Chapter 02
  335. 00:14:20.734                             : en:Chapter 03
  336. 00:20:31.521                             : en:Chapter 04
  337. 00:27:48.416                             : en:Chapter 05
  338. 00:34:54.634                             : en:Chapter 06
  339. 00:41:02.626                             : en:Chapter 07
  340. 00:46:28.786                             : en:Chapter 08
  341. 00:53:05.182                             : en:Chapter 09
  342. 01:00:59.989                             : en:Chapter 10
  343. 01:08:22.389                             : en:Chapter 11
  344. 01:14:43.812                             : en:Chapter 12
  345. 01:21:31.219                             : en:Chapter 13
  346. 01:31:01.706                             : en:Chapter 14
  347. 01:38:42.374                             : en:Chapter 15
  348. 01:45:41.084                             : en:Chapter 16
  349. 01:52:48.970                             : en:Chapter 17
  350. 01:58:00.114                             : en:Chapter 18
复制代码

终结者:创世纪 Terminator.Genisys.2015.2160p.US.BluRay.REMUX.HEVC.DTS-HD.MA.TrueHD.7.1.Atmos-FGT 64.32GB-2.png 终结者:创世纪 Terminator.Genisys.2015.2160p.US.BluRay.REMUX.HEVC.DTS-HD.MA.TrueHD.7.1.Atmos-FGT 64.32GB-3.png 终结者:创世纪 Terminator.Genisys.2015.2160p.US.BluRay.REMUX.HEVC.DTS-HD.MA.TrueHD.7.1.Atmos-FGT 64.32GB-4.png







回复

使用道具 举报

发表于 2020-5-1 09:33:20 | 显示全部楼层

楼主太厉害了!楼主,电影应该很好看我觉得蓝光电影网真是个好地方!
回复 支持 反对

使用道具 举报

发表于 2020-5-1 09:36:34 | 显示全部楼层

既然你诚信诚意的推荐了,那我就勉为其难的看看吧!蓝光电影网不走平凡路。
回复 支持 反对

使用道具 举报

 成长值: 2970

发表于 2020-5-1 11:37:05 | 显示全部楼层
谢谢楼主无私分享。
回复 支持 反对

使用道具 举报

发表于 2020-5-1 15:02:58 | 显示全部楼层
感谢分享,乐于下载!
回复 支持 反对

使用道具 举报

发表于 2020-5-1 17:08:33 | 显示全部楼层
谢谢分享
回复

使用道具 举报

 成长值: 1615

发表于 2020-5-1 17:21:42 | 显示全部楼层
好电影,谢谢分享
回复 支持 反对

使用道具 举报

发表于 2020-5-1 18:37:46 | 显示全部楼层
楼主发贴辛苦了,谢谢楼主分享!我觉得蓝光电影网是注册对了!
回复 支持 反对

使用道具 举报

发表于 2020-5-1 18:55:16 | 显示全部楼层

这东西我收了!谢谢楼主!蓝光电影网真好!
回复 支持 反对

使用道具 举报

发表于 2020-5-1 22:52:06 | 显示全部楼层
楼主发贴辛苦了,谢谢楼主分享!我觉得蓝光电影网是注册对了!
回复 支持 反对

使用道具 举报

懒得打字嘛,点击右侧快捷回复 【右侧内容,后台自定义】
您需要登录后才可以回帖 登录 | 立即加入

本版积分规则

现在加入蓝光电影网,注册一个账号
上个主题 下个主题 快速回复 收藏帖子 返回列表 客服中心 搜索

手机版|小黑屋| 蓝光电影网 |网站地图 

Copyright © 2015-2019 Comsenz Inc.  Template by 蓝光电影论坛 All Rights Reserved.

Powered by 蓝光电影网 X3.4

特别声明:本站所有资源均由网上收集而来,版权归原影音公司所有,如果侵犯了你的权益,请通知我们,我们会及时删除侵权内容.

快速回复 返回顶部 返回列表