找回密码

蓝光电影网

查看: 710|回复: 12

[8bit.SDR] 喋血战士/血卫 Bloodshot.2020.2160p.BluRay.x264.8bit.SDR.DTS-HD.MA.TrueHD.7.1.Atmos-SWTYBLZ 35.62GB

[复制链接]

 成长值: 26125

发表于 2020-4-29 22:04:07 | 显示全部楼层 |阅读模式
喋血战士/血卫 Bloodshot.2020.2160p.BluRay.x264.8bit.SDR.DTS-HD.MA.TrueHD.7.1.Atmos-SWTYBLZ 35.62GB-1.png

译  名 喋血战士 / 血卫(台)
片  名 Bloodshot
年  代 2020
产  地 中国大陆 / 美国
类  别 动作 / 科幻
语  言 英语
上映日期 2020(中国大陆) / 2020-03-13(美国)
IMDb评分  5.7/10 from 31009 users
IMDb链接  https://www.imdb.com/title/tt1634106
豆瓣评分 5.5/10 from 9477 users
豆瓣链接 https://movie.douban.com/subject/4830483/
片  长 109分钟
导  演 戴夫·威尔逊 Dave Wilson
编  剧 杰夫·瓦德洛 Jeff Wadlow / 埃里克·海瑟尔 Eric Heisserer / 凯文·范霍克 Kevin VanHook
主  演 范·迪塞尔 Vin Diesel
       艾莎·冈萨雷斯 Eiza González
       萨姆·修汉 Sam Heughan
       托比·凯贝尔 Toby Kebbell
       妲露拉·莱莉 Talulah Riley
       拉蒙尼·莫里斯 Lamorne Morris
       盖·皮尔斯 Guy Pearce
       悉达尔斯·达南杰 Siddharth Dhananjay
       泰勒·迈尔 Tyrel Meyer
       亚历克斯·安洛斯 Alex Anlos
       克莱德·伯宁 Clyde Berning
       杰里米·博阿多 Jeremy Boado
       塔梅尔·伯贾克 Tamer Burjaq
       亚历克斯·埃尔南德斯 Alex Hernandez
       约翰内斯·豪克尔·约翰内森 Jóhannes Haukur Jóhannesson
       帕特里克·克尔顿 Patrick Kerton


标  签 科幻 | 动作 | 美国 | 2020 | 超级英雄 | 漫画改编 | 喋血战士 | 奇幻

简  介  

  电影根据勇士漫画改编,讲述由范·迪塞尔扮演的士兵雷·加里森在战斗中意外阵亡,被RST公司利用尖端纳米技术起死回生,变身即时自愈、媲美超级电脑的超级英雄——喋血战士。苏醒的他执着于脑海中残存的记忆碎片,踏上为爱妻的复仇之路,却发现自己竟无法分清真实与虚幻...
  1. Video
  2. ID                                       : 1
  3. Format                                   : AVC
  4. Format/Info                              : Advanced Video Codec
  5. Format profile                           : High@L4
  6. Format settings                          : CABAC / 5 Ref Frames
  7. Format settings, CABAC                   : Yes
  8. Format settings, Reference frames        : 5 frames
  9. Codec ID                                 : V_MPEG4/ISO/AVC
  10. Duration                                 : 1 h 49 min
  11. Bit rate                                 : 38.5 Mb/s
  12. Width                                    : 3 840 pixels
  13. Height                                   : 1 606 pixels
  14. Display aspect ratio                     : 2.40:1
  15. Frame rate mode                          : Constant
  16. Frame rate                               : 23.976 (24000/1001/189150) FPS
  17. Color space                              : YUV
  18. Chroma subsampling                       : 4:2:0
  19. Bit depth                                : 8 bits
  20. Scan type                                : Progressive
  21. Bits/(Pixel*Frame)                       : 0.261
  22. Stream size                              : 29.4 GiB (83%)
  23. Title                                    : Bloodshot.2020.2160p.BluRay.x264.8bit.SDR.DTS-HD.MA.TrueHD.7.1.Atmos-SWTYBLZ
  24. Writing library                          : x264 core 157 r2935 545de2f
  25. Encoding settings                        : cabac=1 / ref=5 / deblock=1:-1:-1 / analyse=0x3:0x113 / me=umh / subme=10 / psy=1 / psy_rd=1.00:0.15 / mixed_ref=1 / me_range=48 / chroma_me=1 / trellis=2 / 8x8dct=1 / cqm=0 / deadzone=21,11 / fast_pskip=1 / chroma_qp_offset=-3 / threads=48 / lookahead_threads=4 / sliced_threads=0 / nr=0 / decimate=0 / interlaced=0 / bluray_compat=0 / constrained_intra=0 / bframes=3 / b_pyramid=2 / b_adapt=2 / b_bias=0 / direct=3 / weightb=1 / open_gop=0 / weightp=2 / keyint=250 / keyint_min=23 / scenecut=40 / intra_refresh=0 / rc_lookahead=50 / rc=crf / mbtree=1 / crf=18.0 / qcomp=0.60 / qpmin=0 / qpmax=69 / qpstep=4 / ip_ratio=1.40 / aq=1:1.00
  26. Default                                  : Yes
  27. Forced                                   : No

  28. Audio #1
  29. ID                                       : 2
  30. Format                                   : MLP FBA 16-ch
  31. Format/Info                              : Meridian Lossless Packing FBA with 16-channel presentation
  32. Commercial name                          : Dolby TrueHD with Dolby Atmos
  33. Codec ID                                 : A_TRUEHD
  34. Duration                                 : 1 h 49 min
  35. Bit rate mode                            : Variable
  36. Bit rate                                 : 3 188 kb/s
  37. Maximum bit rate                         : 5 454 kb/s
  38. Channel(s)                               : 8 channels
  39. Channel layout                           : L R C LFE Ls Rs Lb Rb
  40. Sampling rate                            : 48.0 kHz
  41. Frame rate                               : 1 200.000 FPS (40 SPF)
  42. Compression mode                         : Lossless
  43. Stream size                              : 2.43 GiB (7%)
  44. Title                                    : Bloodshot.2020.2160p.BluRay.x264.8bit.SDR.DTS-HD.MA.TrueHD.7.1.Atmos-SWTYBLZ
  45. Language                                 : English
  46. Default                                  : Yes
  47. Forced                                   : No
  48. Number of dynamic objects                : 11
  49. Bed channel count                        : 1 channel
  50. Bed channel configuration                : LFE

  51. Audio #2
  52. ID                                       : 3
  53. Format                                   : DTS XLL
  54. Format/Info                              : Digital Theater Systems
  55. Commercial name                          : DTS-HD Master Audio
  56. Codec ID                                 : A_DTS
  57. Duration                                 : 1 h 49 min
  58. Bit rate mode                            : Variable
  59. Bit rate                                 : 3 907 kb/s
  60. Channel(s)                               : 8 channels
  61. Channel layout                           : C L R LFE Lb Rb Lss Rss
  62. Sampling rate                            : 48.0 kHz
  63. Frame rate                               : 93.750 FPS (512 SPF)
  64. Bit depth                                : 24 bits
  65. Compression mode                         : Lossless
  66. Stream size                              : 2.98 GiB (8%)
  67. Title                                    : Bloodshot.2020.2160p.BluRay.x264.8bit.SDR.DTS-HD.MA.TrueHD.7.1.Atmos-SWTYBLZ
  68. Language                                 : English
  69. Default                                  : No
  70. Forced                                   : No

  71. Audio #3
  72. ID                                       : 4
  73. Format                                   : AC-3
  74. Format/Info                              : Audio Coding 3
  75. Commercial name                          : Dolby Digital
  76. Codec ID                                 : A_AC3
  77. Duration                                 : 1 h 49 min
  78. Bit rate mode                            : Constant
  79. Bit rate                                 : 640 kb/s
  80. Channel(s)                               : 6 channels
  81. Channel layout                           : L R C LFE Ls Rs
  82. Sampling rate                            : 48.0 kHz
  83. Frame rate                               : 31.250 FPS (1536 SPF)
  84. Bit depth                                : 16 bits
  85. Compression mode                         : Lossy
  86. Stream size                              : 500 MiB (1%)
  87. Title                                    : Bloodshot.2020.2160p.BluRay.x264.8bit.SDR.DTS-HD.MA.TrueHD.7.1.Atmos-SWTYBLZ
  88. Language                                 : English
  89. Service kind                             : Complete Main
  90. Default                                  : No
  91. Forced                                   : No

  92. Text #1
  93. ID                                       : 5
  94. Format                                   : UTF-8
  95. Codec ID                                 : S_TEXT/UTF8
  96. Codec ID/Info                            : UTF-8 Plain Text
  97. Duration                                 : 1 h 41 min
  98. Bit rate                                 : 45 b/s
  99. Count of elements                        : 1015
  100. Stream size                              : 33.9 KiB (0%)
  101. Title                                    : English-RST
  102. Language                                 : English
  103. Default                                  : Yes
  104. Forced                                   : No

  105. Text #2
  106. ID                                       : 6
  107. Format                                   : PGS
  108. Muxing mode                              : zlib
  109. Codec ID                                 : S_HDMV/PGS
  110. Codec ID/Info                            : Picture based subtitle format used on BDs/HD-DVDs
  111. Duration                                 : 1 h 41 min
  112. Bit rate                                 : 28.0 kb/s
  113. Count of elements                        : 2030
  114. Stream size                              : 20.3 MiB (0%)
  115. Title                                    : English-PGS
  116. Language                                 : English
  117. Default                                  : No
  118. Forced                                   : No

  119. Text #3
  120. ID                                       : 7
  121. Format                                   : PGS
  122. Muxing mode                              : zlib
  123. Codec ID                                 : S_HDMV/PGS
  124. Codec ID/Info                            : Picture based subtitle format used on BDs/HD-DVDs
  125. Duration                                 : 1 h 43 min
  126. Bit rate                                 : 30.9 kb/s
  127. Count of elements                        : 2318
  128. Stream size                              : 22.9 MiB (0%)
  129. Title                                    : English-SDH-PGS
  130. Language                                 : English
  131. Default                                  : No
  132. Forced                                   : No

  133. Text #4
  134. ID                                       : 8
  135. Format                                   : PGS
  136. Muxing mode                              : zlib
  137. Codec ID                                 : S_HDMV/PGS
  138. Codec ID/Info                            : Picture based subtitle format used on BDs/HD-DVDs
  139. Duration                                 : 1 h 48 min
  140. Bit rate                                 : 23.1 kb/s
  141. Count of elements                        : 2234
  142. Stream size                              : 17.8 MiB (0%)
  143. Title                                    : French-PGS
  144. Language                                 : French
  145. Default                                  : No
  146. Forced                                   : No

  147. Text #5
  148. ID                                       : 9
  149. Format                                   : PGS
  150. Muxing mode                              : zlib
  151. Codec ID                                 : S_HDMV/PGS
  152. Codec ID/Info                            : Picture based subtitle format used on BDs/HD-DVDs
  153. Duration                                 : 1 h 48 min
  154. Bit rate                                 : 25.7 kb/s
  155. Count of elements                        : 2204
  156. Stream size                              : 19.9 MiB (0%)
  157. Title                                    : Spanish-PGS
  158. Language                                 : Spanish
  159. Default                                  : No
  160. Forced                                   : No

  161. Menu
  162. 00:00:00.000                             : en:Chapter 01
  163. 00:07:06.384                             : en:Chapter 02
  164. 00:13:56.210                             : en:Chapter 03
  165. 00:20:36.861                             : en:Chapter 04
  166. 00:25:05.546                             : en:Chapter 05
  167. 00:32:11.179                             : en:Chapter 06
  168. 00:41:41.499                             : en:Chapter 07
  169. 00:46:39.380                             : en:Chapter 08
  170. 00:53:35.629                             : en:Chapter 09
  171. 01:02:28.495                             : en:Chapter 10
  172. 01:08:59.344                             : en:Chapter 11
  173. 01:12:42.525                             : en:Chapter 12
  174. 01:19:15.918                             : en:Chapter 13
  175. 01:26:49.996                             : en:Chapter 14
  176. 01:31:07.379                             : en:Chapter 15
  177. 01:38:31.531                             : en:Chapter 16
  178. 01:44:11.245                             : en:Chapter 17
复制代码

喋血战士/血卫 Bloodshot.2020.2160p.BluRay.x264.8bit.SDR.DTS-HD.MA.TrueHD.7.1.Atmos-SWTYBLZ 35.62GB-2.png 喋血战士/血卫 Bloodshot.2020.2160p.BluRay.x264.8bit.SDR.DTS-HD.MA.TrueHD.7.1.Atmos-SWTYBLZ 35.62GB-3.png 喋血战士/血卫 Bloodshot.2020.2160p.BluRay.x264.8bit.SDR.DTS-HD.MA.TrueHD.7.1.Atmos-SWTYBLZ 35.62GB-4.png 喋血战士/血卫 Bloodshot.2020.2160p.BluRay.x264.8bit.SDR.DTS-HD.MA.TrueHD.7.1.Atmos-SWTYBLZ 35.62GB-5.png 喋血战士/血卫 Bloodshot.2020.2160p.BluRay.x264.8bit.SDR.DTS-HD.MA.TrueHD.7.1.Atmos-SWTYBLZ 35.62GB-6.png 喋血战士/血卫 Bloodshot.2020.2160p.BluRay.x264.8bit.SDR.DTS-HD.MA.TrueHD.7.1.Atmos-SWTYBLZ 35.62GB-7.png







回复

使用道具 举报

 成长值: 3370

发表于 2020-4-29 22:24:37 | 显示全部楼层
楼主发贴辛苦了,谢谢楼主分享!我觉得蓝光电影网是注册对了!
回复 支持 反对

使用道具 举报

发表于 2020-4-29 22:37:07 | 显示全部楼层
楼主发贴辛苦了,谢谢楼主分享!我觉得蓝光电影网是注册对了!
回复 支持 反对

使用道具 举报

发表于 2020-4-29 23:07:49 | 显示全部楼层

楼主太厉害了!楼主,电影应该很好看我觉得蓝光电影网真是个好地方!
回复 支持 反对

使用道具 举报

发表于 2020-4-30 08:52:25 | 显示全部楼层
楼主发贴辛苦了,谢谢楼主分享!我觉得蓝光电影网是注册对了!
回复 支持 反对

使用道具 举报

发表于 2020-4-30 09:33:14 | 显示全部楼层

楼主,大恩不言谢了!蓝光电影网是最棒的!
回复 支持 反对

使用道具 举报

发表于 2020-4-30 10:29:53 | 显示全部楼层
谢谢楼主分享!
回复 支持 反对

使用道具 举报

发表于 2020-4-30 11:11:39 | 显示全部楼层
楼主发贴辛苦了,谢谢楼主分享!
回复 支持 反对

使用道具 举报

发表于 2020-4-30 11:58:43 | 显示全部楼层

我看不错噢 谢谢楼主!蓝光电影网越来越好!
回复 支持 反对

使用道具 举报

发表于 2020-4-30 13:15:29 | 显示全部楼层

感谢楼主的无私分享!要想蓝光电影网好 就靠你我他
回复 支持 反对

使用道具 举报

懒得打字嘛,点击右侧快捷回复 【右侧内容,后台自定义】
您需要登录后才可以回帖 登录 | 立即加入

本版积分规则

现在加入蓝光电影网,注册一个账号
上个主题 下个主题 快速回复 收藏帖子 返回列表 客服中心 搜索

手机版|小黑屋| 蓝光电影网 |网站地图 

Copyright © 2015-2019 Comsenz Inc.  Template by 蓝光电影论坛 All Rights Reserved.

Powered by 蓝光电影网 X3.4

特别声明:本站所有资源均由网上收集而来,版权归原影音公司所有,如果侵犯了你的权益,请通知我们,我们会及时删除侵权内容.

快速回复 返回顶部 返回列表