找回密码

蓝光电影网

查看: 353|回复: 6

[10bit.SDR] 喋血战士/血卫 Bloodshot.2020.2160p.BluRay.x265.10bit.SDR.DTS-HD.MA.TrueHD.7.1.Atmos-SWTYBLZ 29.98GB

[复制链接]

 成长值: 26125

发表于 2020-4-29 22:01:14 | 显示全部楼层 |阅读模式
喋血战士/血卫 Bloodshot.2020.2160p.BluRay.x265.10bit.SDR.DTS-HD.MA.TrueHD.7.1.Atmos-SWTYBLZ 29.98GB-1.png

译  名 喋血战士 / 血卫(台)
片  名 Bloodshot
年  代 2020
产  地 中国大陆 / 美国
类  别 动作 / 科幻
语  言 英语
上映日期 2020(中国大陆) / 2020-03-13(美国)
IMDb评分  5.7/10 from 31009 users
IMDb链接  https://www.imdb.com/title/tt1634106
豆瓣评分 5.5/10 from 9477 users
豆瓣链接 https://movie.douban.com/subject/4830483/
片  长 109分钟
导  演 戴夫·威尔逊 Dave Wilson
编  剧 杰夫·瓦德洛 Jeff Wadlow / 埃里克·海瑟尔 Eric Heisserer / 凯文·范霍克 Kevin VanHook
主  演 范·迪塞尔 Vin Diesel
       艾莎·冈萨雷斯 Eiza González
       萨姆·修汉 Sam Heughan
       托比·凯贝尔 Toby Kebbell
       妲露拉·莱莉 Talulah Riley
       拉蒙尼·莫里斯 Lamorne Morris
       盖·皮尔斯 Guy Pearce
       悉达尔斯·达南杰 Siddharth Dhananjay
       泰勒·迈尔 Tyrel Meyer
       亚历克斯·安洛斯 Alex Anlos
       克莱德·伯宁 Clyde Berning
       杰里米·博阿多 Jeremy Boado
       塔梅尔·伯贾克 Tamer Burjaq
       亚历克斯·埃尔南德斯 Alex Hernandez
       约翰内斯·豪克尔·约翰内森 Jóhannes Haukur Jóhannesson
       帕特里克·克尔顿 Patrick Kerton


标  签 科幻 | 动作 | 美国 | 2020 | 超级英雄 | 漫画改编 | 喋血战士 | 奇幻

简  介  

  电影根据勇士漫画改编,讲述由范·迪塞尔扮演的士兵雷·加里森在战斗中意外阵亡,被RST公司利用尖端纳米技术起死回生,变身即时自愈、媲美超级电脑的超级英雄——喋血战士。苏醒的他执着于脑海中残存的记忆碎片,踏上为爱妻的复仇之路,却发现自己竟无法分清真实与虚幻...
  1. Video
  2. ID                                       : 1
  3. Format                                   : HEVC
  4. Format/Info                              : High Efficiency Video Coding
  5. Format profile                           : Main High@L4@High
  6. Codec ID                                 : V_MPEGH/ISO/HEVC
  7. Duration                                 : 1 h 49 min
  8. Bit rate                                 : 31.2 Mb/s
  9. Width                                    : 3 840 pixels
  10. Height                                   : 1 606 pixels
  11. Display aspect ratio                     : 2.40:1
  12. Frame rate mode                          : Constant
  13. Frame rate                               : 23.976 (24000/1001/189150) FPS
  14. Color space                              : YUV
  15. Chroma subsampling                       : 4:2:0
  16. Bit depth                                : 10 bits
  17. Bits/(Pixel*Frame)                       : 0.211
  18. Stream size                              : 23.8 GiB (80%)
  19. Title                                    : Bloodshot.2020.2160p.BluRay.x265.10bit.SDR.DTS-HD.MA.TrueHD.7.1.Atmos-SWTYBLZ
  20. Writing library                          : x265 3.0ed72af837053:[Windows][GCC 8.2.0][64 bit] 10bit
  21. Encoding settings                        : cpuid=1111039 / frame-threads=6 / numa-pools=40 / wpp / no-pmode / no-pme / no-psnr / no-ssim / log-level=2 / input-csp=1 / input-res=3840x1606 / interlace=0 / total-frames=157272 / level-idc=51 / high-tier=1 / uhd-bd=0 / ref=3 / no-allow-non-conformance / repeat-headers / annexb / aud / hrd / info / hash=0 / no-temporal-layers / no-open-gop / min-keyint=1 / keyint=24 / gop-lookahead=0 / bframes=4 / b-adapt=2 / b-pyramid / bframe-bias=0 / rc-lookahead=25 / lookahead-slices=4 / scenecut=40 / radl=0 / no-splice / no-intra-refresh / ctu=64 / min-cu-size=8 / no-rect / no-amp / max-tu-size=32 / tu-inter-depth=1 / tu-intra-depth=1 / limit-tu=0 / rdoq-level=0 / dynamic-rd=0.00 / no-ssim-rd / signhide / no-tskip / nr-intra=0 / nr-inter=0 / no-constrained-intra / strong-intra-smoothing / max-merge=2 / limit-refs=3 / no-limit-modes / me=1 / subme=2 / merange=57 / temporal-mvp / weightp / no-weightb / no-analyze-src-pics / deblock=0:0 / no-sao / no-sao-non-deblock / rd=3 / no-early-skip / rskip / no-fast-intra / no-tskip-fast / no-cu-lossless / no-b-intra / no-splitrd-skip / rdpenalty=0 / psy-rd=2.00 / psy-rdoq=0.00 / no-rd-refine / no-lossless / cbqpoffs=0 / crqpoffs=0 / rc=crf / crf=16.0 / qcomp=0.60 / qpstep=4 / stats-write=0 / stats-read=0 / vbv-maxrate=160000 / vbv-bufsize=160000 / vbv-init=0.9 / crf-max=0.0 / crf-min=0.0 / ipratio=1.40 / pbratio=1.30 / aq-mode=1 / aq-strength=1.00 / cutree / zone-count=0 / no-strict-cbr / qg-size=32 / no-rc-grain / qpmax=69 / qpmin=0 / no-const-vbv / sar=1 / overscan=0 / videoformat=5 / range=0 / colorprim=2 / transfer=2 / colormatrix=2 / chromaloc=0 / display-window=0 / max-cll=0,0 / min-luma=0 / max-luma=1023 / log2-max-poc-lsb=8 / vui-timing-info / vui-hrd-info / slices=1 / opt-qp-pps / opt-ref-list-length-pps / no-multi-pass-opt-rps / scenecut-bias=0.05 / no-opt-cu-delta-qp / no-aq-motion / no-hdr / no-hdr-opt / no-dhdr10-opt / no-idr-recovery-sei / analysis-reuse-level=5 / scale-factor=0 / refine-intra=0 / refine-inter=0 / refine-mv=0 / refine-ctu-distortion=0 / no-limit-sao / ctu-info=0 / no-lowpass-dct / refine-analysis-type=0 / copy-pic=1 / max-ausize-factor=1.0 / no-dynamic-refine / no-single-sei / no-hevc-aq / qp-adaptation-range=1.00
  22. Default                                  : Yes
  23. Forced                                   : No

  24. Audio #1
  25. ID                                       : 2
  26. Format                                   : MLP FBA 16-ch
  27. Format/Info                              : Meridian Lossless Packing FBA with 16-channel presentation
  28. Commercial name                          : Dolby TrueHD with Dolby Atmos
  29. Codec ID                                 : A_TRUEHD
  30. Duration                                 : 1 h 49 min
  31. Bit rate mode                            : Variable
  32. Bit rate                                 : 3 188 kb/s
  33. Maximum bit rate                         : 5 454 kb/s
  34. Channel(s)                               : 8 channels
  35. Channel layout                           : L R C LFE Ls Rs Lb Rb
  36. Sampling rate                            : 48.0 kHz
  37. Frame rate                               : 1 200.000 FPS (40 SPF)
  38. Compression mode                         : Lossless
  39. Stream size                              : 2.43 GiB (8%)
  40. Title                                    : Bloodshot.2020.2160p.BluRay.x265.10bit.SDR.DTS-HD.MA.TrueHD.7.1.Atmos-SWTYBLZ
  41. Language                                 : English
  42. Default                                  : Yes
  43. Forced                                   : No
  44. Number of dynamic objects                : 11
  45. Bed channel count                        : 1 channel
  46. Bed channel configuration                : LFE

  47. Audio #2
  48. ID                                       : 3
  49. Format                                   : DTS XLL
  50. Format/Info                              : Digital Theater Systems
  51. Commercial name                          : DTS-HD Master Audio
  52. Codec ID                                 : A_DTS
  53. Duration                                 : 1 h 49 min
  54. Bit rate mode                            : Variable
  55. Bit rate                                 : 3 907 kb/s
  56. Channel(s)                               : 8 channels
  57. Channel layout                           : C L R LFE Lb Rb Lss Rss
  58. Sampling rate                            : 48.0 kHz
  59. Frame rate                               : 93.750 FPS (512 SPF)
  60. Bit depth                                : 24 bits
  61. Compression mode                         : Lossless
  62. Stream size                              : 2.98 GiB (10%)
  63. Title                                    : Bloodshot.2020.2160p.BluRay.x265.10bit.SDR.DTS-HD.MA.TrueHD.7.1.Atmos-SWTYBLZ
  64. Language                                 : English
  65. Default                                  : No
  66. Forced                                   : No

  67. Audio #3
  68. ID                                       : 4
  69. Format                                   : AC-3
  70. Format/Info                              : Audio Coding 3
  71. Commercial name                          : Dolby Digital
  72. Codec ID                                 : A_AC3
  73. Duration                                 : 1 h 49 min
  74. Bit rate mode                            : Constant
  75. Bit rate                                 : 640 kb/s
  76. Channel(s)                               : 6 channels
  77. Channel layout                           : L R C LFE Ls Rs
  78. Sampling rate                            : 48.0 kHz
  79. Frame rate                               : 31.250 FPS (1536 SPF)
  80. Bit depth                                : 16 bits
  81. Compression mode                         : Lossy
  82. Stream size                              : 500 MiB (2%)
  83. Title                                    : Bloodshot.2020.2160p.BluRay.x265.10bit.SDR.DTS-HD.MA.TrueHD.7.1.Atmos-SWTYBLZ
  84. Language                                 : English
  85. Service kind                             : Complete Main
  86. Default                                  : No
  87. Forced                                   : No

  88. Text #1
  89. ID                                       : 5
  90. Format                                   : UTF-8
  91. Codec ID                                 : S_TEXT/UTF8
  92. Codec ID/Info                            : UTF-8 Plain Text
  93. Duration                                 : 1 h 41 min
  94. Bit rate                                 : 45 b/s
  95. Count of elements                        : 1015
  96. Stream size                              : 33.9 KiB (0%)
  97. Title                                    : English-RST
  98. Language                                 : English
  99. Default                                  : Yes
  100. Forced                                   : No

  101. Text #2
  102. ID                                       : 6
  103. Format                                   : PGS
  104. Muxing mode                              : zlib
  105. Codec ID                                 : S_HDMV/PGS
  106. Codec ID/Info                            : Picture based subtitle format used on BDs/HD-DVDs
  107. Duration                                 : 1 h 41 min
  108. Bit rate                                 : 28.0 kb/s
  109. Count of elements                        : 2030
  110. Stream size                              : 20.3 MiB (0%)
  111. Title                                    : English-PGS
  112. Language                                 : English
  113. Default                                  : No
  114. Forced                                   : No

  115. Text #3
  116. ID                                       : 7
  117. Format                                   : PGS
  118. Muxing mode                              : zlib
  119. Codec ID                                 : S_HDMV/PGS
  120. Codec ID/Info                            : Picture based subtitle format used on BDs/HD-DVDs
  121. Duration                                 : 1 h 43 min
  122. Bit rate                                 : 30.9 kb/s
  123. Count of elements                        : 2318
  124. Stream size                              : 22.9 MiB (0%)
  125. Title                                    : English-SDH-PGS
  126. Language                                 : English
  127. Default                                  : No
  128. Forced                                   : No

  129. Text #4
  130. ID                                       : 8
  131. Format                                   : PGS
  132. Muxing mode                              : zlib
  133. Codec ID                                 : S_HDMV/PGS
  134. Codec ID/Info                            : Picture based subtitle format used on BDs/HD-DVDs
  135. Duration                                 : 1 h 48 min
  136. Bit rate                                 : 23.1 kb/s
  137. Count of elements                        : 2234
  138. Stream size                              : 17.8 MiB (0%)
  139. Title                                    : French-PGS
  140. Language                                 : French
  141. Default                                  : No
  142. Forced                                   : No

  143. Text #5
  144. ID                                       : 9
  145. Format                                   : PGS
  146. Muxing mode                              : zlib
  147. Codec ID                                 : S_HDMV/PGS
  148. Codec ID/Info                            : Picture based subtitle format used on BDs/HD-DVDs
  149. Duration                                 : 1 h 48 min
  150. Bit rate                                 : 25.7 kb/s
  151. Count of elements                        : 2204
  152. Stream size                              : 19.9 MiB (0%)
  153. Title                                    : Spanish-PGS
  154. Language                                 : Spanish
  155. Default                                  : No
  156. Forced                                   : No

  157. Menu
  158. 00:00:00.000                             : en:Chapter 01
  159. 00:07:06.384                             : en:Chapter 02
  160. 00:13:56.210                             : en:Chapter 03
  161. 00:20:36.861                             : en:Chapter 04
  162. 00:25:05.546                             : en:Chapter 05
  163. 00:32:11.179                             : en:Chapter 06
  164. 00:41:41.499                             : en:Chapter 07
  165. 00:46:39.380                             : en:Chapter 08
  166. 00:53:35.629                             : en:Chapter 09
  167. 01:02:28.495                             : en:Chapter 10
  168. 01:08:59.344                             : en:Chapter 11
  169. 01:12:42.525                             : en:Chapter 12
  170. 01:19:15.918                             : en:Chapter 13
  171. 01:26:49.996                             : en:Chapter 14
  172. 01:31:07.379                             : en:Chapter 15
  173. 01:38:31.531                             : en:Chapter 16
  174. 01:44:11.245                             : en:Chapter 17
复制代码

喋血战士/血卫 Bloodshot.2020.2160p.BluRay.x265.10bit.SDR.DTS-HD.MA.TrueHD.7.1.Atmos-SWTYBLZ 29.98GB-2.png 喋血战士/血卫 Bloodshot.2020.2160p.BluRay.x265.10bit.SDR.DTS-HD.MA.TrueHD.7.1.Atmos-SWTYBLZ 29.98GB-3.png 喋血战士/血卫 Bloodshot.2020.2160p.BluRay.x265.10bit.SDR.DTS-HD.MA.TrueHD.7.1.Atmos-SWTYBLZ 29.98GB-4.png 喋血战士/血卫 Bloodshot.2020.2160p.BluRay.x265.10bit.SDR.DTS-HD.MA.TrueHD.7.1.Atmos-SWTYBLZ 29.98GB-5.png 喋血战士/血卫 Bloodshot.2020.2160p.BluRay.x265.10bit.SDR.DTS-HD.MA.TrueHD.7.1.Atmos-SWTYBLZ 29.98GB-6.png 喋血战士/血卫 Bloodshot.2020.2160p.BluRay.x265.10bit.SDR.DTS-HD.MA.TrueHD.7.1.Atmos-SWTYBLZ 29.98GB-7.png







回复

使用道具 举报

已抛锚 成长值: 300

发表于 2020-4-30 08:44:36 | 显示全部楼层
沙发。
回复

使用道具 举报

发表于 2020-4-30 14:48:44 | 显示全部楼层
楼主发贴辛苦了,谢谢楼主分享!我觉得蓝光电影网是注册对了!
回复 支持 反对

使用道具 举报

发表于 2020-5-1 02:40:33 | 显示全部楼层

楼主发贴辛苦了,谢谢楼主分享!我觉得蓝光电影网是注册对了!
回复 支持 反对

使用道具 举报

发表于 2020-5-7 15:30:56 | 显示全部楼层
楼主发贴辛苦了,谢谢楼主分享!我觉得蓝光电影网是注册对了!
回复 支持 反对

使用道具 举报

发表于 2020-5-15 02:32:40 | 显示全部楼层

搞不懂10bitHDR和10bitSDR到底有什么区别。蓝光电影网给我了答案和想要的一切
回复 支持 反对

使用道具 举报

发表于 2020-5-17 10:54:16 | 显示全部楼层
期待有蓝光原盘DIY中文!
回复 支持 反对

使用道具 举报

懒得打字嘛,点击右侧快捷回复 【右侧内容,后台自定义】
您需要登录后才可以回帖 登录 | 立即加入

本版积分规则

现在加入蓝光电影网,注册一个账号
上个主题 下个主题 快速回复 收藏帖子 返回列表 客服中心 搜索

手机版|小黑屋| 蓝光电影网 |网站地图 

Copyright © 2015-2019 Comsenz Inc.  Template by 蓝光电影论坛 All Rights Reserved.

Powered by 蓝光电影网 X3.4

特别声明:本站所有资源均由网上收集而来,版权归原影音公司所有,如果侵犯了你的权益,请通知我们,我们会及时删除侵权内容.

快速回复 返回顶部 返回列表