找回密码

蓝光电影网

查看: 446|回复: 5

[8bit.SDR] 真人快打传奇:蝎子的复仇/真人快打:魔蝎的复仇 Mortal.Kombat.Legends.Scorpions.Revenge.2020.2160p.BluRay.x264.8bit.SDR.DTS-HD.MA.5.1-SWTYBLZ 10.24GB

[复制链接]

 成长值: 26125

发表于 2020-4-29 00:07:22 | 显示全部楼层 |阅读模式
真人快打传奇:蝎子的复仇/真人快打:魔蝎的复仇 Mortal.Kombat.Legends.Scorpions.Revenge.2020.2160p.BluRay.x264.8bit.SDR.DTS-HD.MA.5.1-SWTYBLZ 10.24GB-1.png

译  名 真人快打传奇:蝎子的复仇 / 真人快打:魔蝎的复仇(台)
片  名 Mortal Kombat Legends: Scorpions Revenge
年  代 2020
产  地 美国
类  别 动作 / 动画 / 冒险
语  言 英语
上映日期 2020-04-12(美国)
IMDb链接  https://www.imdb.com/title/tt9580138
豆瓣评分 0/10 from 0 users
豆瓣链接 https://movie.douban.com/subject/34875588/
片  长 80分钟
导  演 伊桑·斯波尔丁 Ethan Spaulding
编  剧 杰瑞米·亚当斯 Jeremy Adams / Ed Boon
主  演 Grey Griffin
       詹妮弗·卡朋特 Jennifer Carpenter
       乔尔·麦克哈尔 Joel McHale
       凯文·迈克尔·理查德森 Kevin Michael Richardson


标  签 动画 | 动作 | 2020 | 美国 | 暴力 | 动漫 | 剧情 | 冒险

简  介  

  Plot unknown. Reportedly an animated project based molikan.com on the long-running Mortal Kombat video game franchise.
  1. Video
  2. ID                                       : 1
  3. Format                                   : AVC
  4. Format/Info                              : Advanced Video Codec
  5. Format profile                           : High@L4
  6. Format settings                          : CABAC / 5 Ref Frames
  7. Format settings, CABAC                   : Yes
  8. Format settings, Reference frames        : 5 frames
  9. Codec ID                                 : V_MPEG4/ISO/AVC
  10. Duration                                 : 1 h 19 min
  11. Bit rate                                 : 15.1 Mb/s
  12. Width                                    : 3 840 pixels
  13. Height                                   : 2 160 pixels
  14. Display aspect ratio                     : 16:9
  15. Frame rate mode                          : Constant
  16. Frame rate                               : 23.976 (24000/1001/189150) FPS
  17. Color space                              : YUV
  18. Chroma subsampling                       : 4:2:0
  19. Bit depth                                : 8 bits
  20. Scan type                                : Progressive
  21. Bits/(Pixel*Frame)                       : 0.076
  22. Stream size                              : 8.44 GiB (83%)
  23. Title                                    : Mortal.Kombat.Legends.Scorpions.Revenge.2020.2160p.BluRay.x264.8bit.SDR.DTS-HD.MA.5.1-SWTYBLZ
  24. Writing library                          : x264 core 157 r2935 545de2f
  25. Encoding settings                        : cabac=1 / ref=5 / deblock=1:1:1 / analyse=0x3:0x113 / me=umh / subme=10 / psy=1 / psy_rd=0.40:0.00 / mixed_ref=1 / me_range=48 / chroma_me=1 / trellis=2 / 8x8dct=1 / cqm=0 / deadzone=21,11 / fast_pskip=1 / chroma_qp_offset=-2 / threads=48 / lookahead_threads=5 / sliced_threads=0 / nr=0 / decimate=0 / interlaced=0 / bluray_compat=0 / constrained_intra=0 / bframes=5 / b_pyramid=2 / b_adapt=2 / b_bias=0 / direct=3 / weightb=1 / open_gop=0 / weightp=2 / keyint=250 / keyint_min=23 / scenecut=40 / intra_refresh=0 / rc_lookahead=50 / rc=crf / mbtree=1 / crf=16.0 / qcomp=0.60 / qpmin=0 / qpmax=69 / qpstep=4 / ip_ratio=1.40 / aq=1:0.60
  26. Default                                  : Yes
  27. Forced                                   : No

  28. Audio #1
  29. ID                                       : 2
  30. Format                                   : DTS XLL
  31. Format/Info                              : Digital Theater Systems
  32. Commercial name                          : DTS-HD Master Audio
  33. Codec ID                                 : A_DTS
  34. Duration                                 : 1 h 19 min
  35. Bit rate mode                            : Variable
  36. Bit rate                                 : 2 398 kb/s
  37. Channel(s)                               : 6 channels
  38. Channel layout                           : C L R Ls Rs LFE
  39. Sampling rate                            : 48.0 kHz
  40. Frame rate                               : 93.750 FPS (512 SPF)
  41. Bit depth                                : 16 bits
  42. Compression mode                         : Lossless
  43. Stream size                              : 1.34 GiB (13%)
  44. Title                                    : Mortal.Kombat.Legends.Scorpions.Revenge.2020.2160p.BluRay.x264.8bit.SDR.DTS-HD.MA.5.1-SWTYBLZ
  45. Language                                 : English
  46. Default                                  : Yes
  47. Forced                                   : No

  48. Audio #2
  49. ID                                       : 3
  50. Format                                   : AC-3
  51. Format/Info                              : Audio Coding 3
  52. Commercial name                          : Dolby Digital
  53. Codec ID                                 : A_AC3
  54. Duration                                 : 1 h 19 min
  55. Bit rate mode                            : Constant
  56. Bit rate                                 : 640 kb/s
  57. Channel(s)                               : 6 channels
  58. Channel layout                           : L R C LFE Ls Rs
  59. Sampling rate                            : 48.0 kHz
  60. Frame rate                               : 31.250 FPS (1536 SPF)
  61. Bit depth                                : 16 bits
  62. Compression mode                         : Lossy
  63. Stream size                              : 366 MiB (4%)
  64. Title                                    : Mortal.Kombat.Legends.Scorpions.Revenge.2020.2160p.BluRay.x264.8bit.SDR.DTS-HD.MA.5.1-SWTYBLZ
  65. Language                                 : English
  66. Service kind                             : Complete Main
  67. Default                                  : No
  68. Forced                                   : No

  69. Text #1
  70. ID                                       : 4
  71. Format                                   : UTF-8
  72. Codec ID                                 : S_TEXT/UTF8
  73. Codec ID/Info                            : UTF-8 Plain Text
  74. Duration                                 : 1 h 17 min
  75. Bit rate                                 : 37 b/s
  76. Count of elements                        : 864
  77. Stream size                              : 21.4 KiB (0%)
  78. Title                                    : English-SRT
  79. Language                                 : English
  80. Default                                  : Yes
  81. Forced                                   : No

  82. Text #2
  83. ID                                       : 5
  84. Format                                   : PGS
  85. Muxing mode                              : zlib
  86. Codec ID                                 : S_HDMV/PGS
  87. Codec ID/Info                            : Picture based subtitle format used on BDs/HD-DVDs
  88. Duration                                 : 1 h 17 min
  89. Bit rate                                 : 27.0 kb/s
  90. Count of elements                        : 2120
  91. Stream size                              : 14.9 MiB (0%)
  92. Title                                    : English-PGS
  93. Language                                 : English
  94. Default                                  : No
  95. Forced                                   : No

  96. Text #3
  97. ID                                       : 6
  98. Format                                   : PGS
  99. Muxing mode                              : zlib
  100. Codec ID                                 : S_HDMV/PGS
  101. Codec ID/Info                            : Picture based subtitle format used on BDs/HD-DVDs
  102. Duration                                 : 1 h 19 min
  103. Bit rate                                 : 21.7 kb/s
  104. Count of elements                        : 1662
  105. Stream size                              : 12.3 MiB (0%)
  106. Title                                    : Dutch-PGS
  107. Language                                 : Dutch
  108. Default                                  : No
  109. Forced                                   : No

  110. Text #4
  111. ID                                       : 7
  112. Format                                   : PGS
  113. Muxing mode                              : zlib
  114. Codec ID                                 : S_HDMV/PGS
  115. Codec ID/Info                            : Picture based subtitle format used on BDs/HD-DVDs
  116. Duration                                 : 1 h 19 min
  117. Bit rate                                 : 23.7 kb/s
  118. Count of elements                        : 1718
  119. Stream size                              : 13.5 MiB (0%)
  120. Title                                    : French-PGS
  121. Language                                 : French
  122. Default                                  : No
  123. Forced                                   : No

  124. Text #5
  125. ID                                       : 8
  126. Format                                   : PGS
  127. Muxing mode                              : zlib
  128. Codec ID                                 : S_HDMV/PGS
  129. Codec ID/Info                            : Picture based subtitle format used on BDs/HD-DVDs
  130. Duration                                 : 1 h 17 min
  131. Bit rate                                 : 31.5 kb/s
  132. Count of elements                        : 2118
  133. Stream size                              : 17.4 MiB (0%)
  134. Title                                    : German-PGS
  135. Language                                 : German
  136. Default                                  : No
  137. Forced                                   : No

  138. Text #6
  139. ID                                       : 9
  140. Format                                   : PGS
  141. Muxing mode                              : zlib
  142. Codec ID                                 : S_HDMV/PGS
  143. Codec ID/Info                            : Picture based subtitle format used on BDs/HD-DVDs
  144. Duration                                 : 1 h 19 min
  145. Bit rate                                 : 22.1 kb/s
  146. Count of elements                        : 1714
  147. Stream size                              : 12.6 MiB (0%)
  148. Title                                    : Spanish-PGS
  149. Language                                 : Spanish
  150. Default                                  : No
  151. Forced                                   : No

  152. Menu
  153. 00:00:00.000                             : en:Chapter 01
  154. 00:09:21.978                             : en:Chapter 02
  155. 00:19:53.567                             : en:Chapter 03
  156. 00:28:12.107                             : en:Chapter 04
  157. 00:35:54.277                             : en:Chapter 05
  158. 00:45:51.082                             : en:Chapter 06
  159. 00:55:18.690                             : en:Chapter 07
  160. 01:04:28.448                             : en:Chapter 08
  161. 01:13:56.724                             : en:Chapter 09
  162. 01:17:22.429                             : en:Chapter 10
复制代码

真人快打传奇:蝎子的复仇/真人快打:魔蝎的复仇 Mortal.Kombat.Legends.Scorpions.Revenge.2020.2160p.BluRay.x264.8bit.SDR.DTS-HD.MA.5.1-SWTYBLZ 10.24GB-2.png 真人快打传奇:蝎子的复仇/真人快打:魔蝎的复仇 Mortal.Kombat.Legends.Scorpions.Revenge.2020.2160p.BluRay.x264.8bit.SDR.DTS-HD.MA.5.1-SWTYBLZ 10.24GB-3.png 真人快打传奇:蝎子的复仇/真人快打:魔蝎的复仇 Mortal.Kombat.Legends.Scorpions.Revenge.2020.2160p.BluRay.x264.8bit.SDR.DTS-HD.MA.5.1-SWTYBLZ 10.24GB-4.png 真人快打传奇:蝎子的复仇/真人快打:魔蝎的复仇 Mortal.Kombat.Legends.Scorpions.Revenge.2020.2160p.BluRay.x264.8bit.SDR.DTS-HD.MA.5.1-SWTYBLZ 10.24GB-5.png 真人快打传奇:蝎子的复仇/真人快打:魔蝎的复仇 Mortal.Kombat.Legends.Scorpions.Revenge.2020.2160p.BluRay.x264.8bit.SDR.DTS-HD.MA.5.1-SWTYBLZ 10.24GB-6.png 真人快打传奇:蝎子的复仇/真人快打:魔蝎的复仇 Mortal.Kombat.Legends.Scorpions.Revenge.2020.2160p.BluRay.x264.8bit.SDR.DTS-HD.MA.5.1-SWTYBLZ 10.24GB-7.png 真人快打传奇:蝎子的复仇/真人快打:魔蝎的复仇 Mortal.Kombat.Legends.Scorpions.Revenge.2020.2160p.BluRay.x264.8bit.SDR.DTS-HD.MA.5.1-SWTYBLZ 10.24GB-8.png







回复

使用道具 举报

发表于 2020-4-29 00:14:21 | 显示全部楼层
好电影~~谢谢分享!!
回复 支持 反对

使用道具 举报

发表于 2020-4-29 12:34:34 | 显示全部楼层

我看不错噢 谢谢楼主!蓝光电影网越来越好!
回复 支持 反对

使用道具 举报

发表于 2020-4-29 14:37:44 | 显示全部楼层
谢谢楼主!蓝光电影网越来越好
回复 支持 反对

使用道具 举报

发表于 2020-4-29 20:00:23 | 显示全部楼层
楼主发贴辛苦了,谢谢楼主分享!我觉得蓝光电影网是注册对了!
回复 支持 反对

使用道具 举报

发表于 2020-5-4 00:17:25 | 显示全部楼层
楼主发贴辛苦了,谢谢楼主分享!我觉得蓝光电影网是注册对了!
回复 支持 反对

使用道具 举报

懒得打字嘛,点击右侧快捷回复 【右侧内容,后台自定义】
您需要登录后才可以回帖 登录 | 立即加入

本版积分规则

现在加入蓝光电影网,注册一个账号
上个主题 下个主题 快速回复 收藏帖子 返回列表 客服中心 搜索

手机版|小黑屋| 蓝光电影网 |网站地图 

Copyright © 2015-2019 Comsenz Inc.  Template by 蓝光电影论坛 All Rights Reserved.

Powered by 蓝光电影网 X3.4

特别声明:本站所有资源均由网上收集而来,版权归原影音公司所有,如果侵犯了你的权益,请通知我们,我们会及时删除侵权内容.

快速回复 返回顶部 返回列表