找回密码

蓝光电影网

查看: 148|回复: 0

[10bit.SDR] 真人快打传奇:蝎子的复仇/真人快打:魔蝎的复仇 Mortal.Kombat.Legends.Scorpions.Revenge.2020.2160p.BluRay.x265.10bit.SDR.DTS-HD.MA.5.1-SWTYBLZ 10.45GB

[复制链接]

 成长值: 26125

发表于 2020-4-29 00:04:32 | 显示全部楼层 |阅读模式
真人快打传奇:蝎子的复仇/真人快打:魔蝎的复仇 Mortal.Kombat.Legends.Scorpions.Revenge.2020.2160p.BluRay.x265.10bit.SDR.DTS-HD.MA.5.1-SWTYBLZ 10.45GB-1.png

译  名 真人快打传奇:蝎子的复仇 / 真人快打:魔蝎的复仇(台)
片  名 Mortal Kombat Legends: Scorpions Revenge
年  代 2020
产  地 美国
类  别 动作 / 动画 / 冒险
语  言 英语
上映日期 2020-04-12(美国)
IMDb链接  https://www.imdb.com/title/tt9580138
豆瓣评分 0/10 from 0 users
豆瓣链接 https://movie.douban.com/subject/34875588/
片  长 80分钟
导  演 伊桑·斯波尔丁 Ethan Spaulding
编  剧 杰瑞米·亚当斯 Jeremy Adams / Ed Boon
主  演 Grey Griffin
       詹妮弗·卡朋特 Jennifer Carpenter
       乔尔·麦克哈尔 Joel McHale
       凯文·迈克尔·理查德森 Kevin Michael Richardson


标  签 动画 | 动作 | 2020 | 美国 | 暴力 | 动漫 | 剧情 | 冒险

简  介  

  Plot unknown. Reportedly an animated project based molikan.com on the long-running Mortal Kombat video game franchise.
  1. Video
  2. ID                                       : 1
  3. Format                                   : HEVC
  4. Format/Info                              : High Efficiency Video Coding
  5. Format profile                           : Main High@L4@High
  6. Codec ID                                 : V_MPEGH/ISO/HEVC
  7. Duration                                 : 1 h 19 min
  8. Bit rate                                 : 15.5 Mb/s
  9. Width                                    : 3 840 pixels
  10. Height                                   : 2 160 pixels
  11. Display aspect ratio                     : 16:9
  12. Frame rate mode                          : Constant
  13. Frame rate                               : 23.976 (24000/1001/189150) FPS
  14. Color space                              : YUV
  15. Chroma subsampling                       : 4:2:0
  16. Bit depth                                : 10 bits
  17. Bits/(Pixel*Frame)                       : 0.078
  18. Stream size                              : 8.66 GiB (83%)
  19. Title                                    : Mortal.Kombat.Legends.Scorpions.Revenge.2020.2160p.BluRay.x265.10bit.SDR.DTS-HD.MA.5.1-SWTYBLZ
  20. Writing library                          : x265 3.0ed72af837053:[Windows][GCC 8.2.0][64 bit] 10bit
  21. Encoding settings                        : cpuid=1111039 / frame-threads=6 / numa-pools=40 / wpp / no-pmode / no-pme / no-psnr / no-ssim / log-level=2 / input-csp=1 / input-res=3840x2160 / interlace=0 / total-frames=115042 / level-idc=51 / high-tier=1 / uhd-bd=0 / ref=3 / no-allow-non-conformance / repeat-headers / annexb / aud / hrd / info / hash=0 / no-temporal-layers / no-open-gop / min-keyint=1 / keyint=24 / gop-lookahead=0 / bframes=6 / b-adapt=2 / b-pyramid / bframe-bias=0 / rc-lookahead=25 / lookahead-slices=4 / scenecut=40 / radl=0 / no-splice / no-intra-refresh / ctu=64 / min-cu-size=8 / no-rect / no-amp / max-tu-size=32 / tu-inter-depth=1 / tu-intra-depth=1 / limit-tu=0 / rdoq-level=0 / dynamic-rd=0.00 / no-ssim-rd / signhide / no-tskip / nr-intra=0 / nr-inter=0 / no-constrained-intra / strong-intra-smoothing / max-merge=2 / limit-refs=3 / no-limit-modes / me=1 / subme=2 / merange=57 / temporal-mvp / weightp / no-weightb / no-analyze-src-pics / deblock=1:1 / no-sao / no-sao-non-deblock / rd=3 / no-early-skip / rskip / no-fast-intra / no-tskip-fast / no-cu-lossless / no-b-intra / no-splitrd-skip / rdpenalty=0 / psy-rd=0.40 / psy-rdoq=0.00 / no-rd-refine / no-lossless / cbqpoffs=0 / crqpoffs=0 / rc=crf / crf=14.0 / qcomp=0.60 / qpstep=4 / stats-write=0 / stats-read=0 / vbv-maxrate=160000 / vbv-bufsize=160000 / vbv-init=0.9 / crf-max=0.0 / crf-min=0.0 / ipratio=1.40 / pbratio=1.30 / aq-mode=1 / aq-strength=0.40 / cutree / zone-count=0 / no-strict-cbr / qg-size=32 / no-rc-grain / qpmax=69 / qpmin=0 / no-const-vbv / sar=1 / overscan=0 / videoformat=5 / range=0 / colorprim=2 / transfer=2 / colormatrix=2 / chromaloc=0 / display-window=0 / max-cll=0,0 / min-luma=0 / max-luma=1023 / log2-max-poc-lsb=8 / vui-timing-info / vui-hrd-info / slices=1 / opt-qp-pps / opt-ref-list-length-pps / no-multi-pass-opt-rps / scenecut-bias=0.05 / no-opt-cu-delta-qp / no-aq-motion / no-hdr / no-hdr-opt / no-dhdr10-opt / no-idr-recovery-sei / analysis-reuse-level=5 / scale-factor=0 / refine-intra=0 / refine-inter=0 / refine-mv=0 / refine-ctu-distortion=0 / no-limit-sao / ctu-info=0 / no-lowpass-dct / refine-analysis-type=0 / copy-pic=1 / max-ausize-factor=1.0 / no-dynamic-refine / no-single-sei / no-hevc-aq / qp-adaptation-range=1.00
  22. Default                                  : Yes
  23. Forced                                   : No

  24. Audio #1
  25. ID                                       : 2
  26. Format                                   : DTS XLL
  27. Format/Info                              : Digital Theater Systems
  28. Commercial name                          : DTS-HD Master Audio
  29. Codec ID                                 : A_DTS
  30. Duration                                 : 1 h 19 min
  31. Bit rate mode                            : Variable
  32. Bit rate                                 : 2 398 kb/s
  33. Channel(s)                               : 6 channels
  34. Channel layout                           : C L R Ls Rs LFE
  35. Sampling rate                            : 48.0 kHz
  36. Frame rate                               : 93.750 FPS (512 SPF)
  37. Bit depth                                : 16 bits
  38. Compression mode                         : Lossless
  39. Stream size                              : 1.34 GiB (13%)
  40. Title                                    : Mortal.Kombat.Legends.Scorpions.Revenge.2020.2160p.BluRay.x265.10bit.SDR.DTS-HD.MA.5.1-SWTYBLZ
  41. Language                                 : English
  42. Default                                  : Yes
  43. Forced                                   : No

  44. Audio #2
  45. ID                                       : 3
  46. Format                                   : AC-3
  47. Format/Info                              : Audio Coding 3
  48. Commercial name                          : Dolby Digital
  49. Codec ID                                 : A_AC3
  50. Duration                                 : 1 h 19 min
  51. Bit rate mode                            : Constant
  52. Bit rate                                 : 640 kb/s
  53. Channel(s)                               : 6 channels
  54. Channel layout                           : L R C LFE Ls Rs
  55. Sampling rate                            : 48.0 kHz
  56. Frame rate                               : 31.250 FPS (1536 SPF)
  57. Bit depth                                : 16 bits
  58. Compression mode                         : Lossy
  59. Stream size                              : 366 MiB (3%)
  60. Title                                    : Mortal.Kombat.Legends.Scorpions.Revenge.2020.2160p.BluRay.x265.10bit.SDR.DTS-HD.MA.5.1-SWTYBLZ
  61. Language                                 : English
  62. Service kind                             : Complete Main
  63. Default                                  : No
  64. Forced                                   : No

  65. Text #1
  66. ID                                       : 4
  67. Format                                   : UTF-8
  68. Codec ID                                 : S_TEXT/UTF8
  69. Codec ID/Info                            : UTF-8 Plain Text
  70. Duration                                 : 1 h 17 min
  71. Bit rate                                 : 37 b/s
  72. Count of elements                        : 864
  73. Stream size                              : 21.4 KiB (0%)
  74. Title                                    : English-SRT
  75. Language                                 : English
  76. Default                                  : Yes
  77. Forced                                   : No

  78. Text #2
  79. ID                                       : 5
  80. Format                                   : PGS
  81. Muxing mode                              : zlib
  82. Codec ID                                 : S_HDMV/PGS
  83. Codec ID/Info                            : Picture based subtitle format used on BDs/HD-DVDs
  84. Duration                                 : 1 h 17 min
  85. Bit rate                                 : 27.0 kb/s
  86. Count of elements                        : 2120
  87. Stream size                              : 14.9 MiB (0%)
  88. Title                                    : English-PGS
  89. Language                                 : English
  90. Default                                  : No
  91. Forced                                   : No

  92. Text #3
  93. ID                                       : 6
  94. Format                                   : PGS
  95. Muxing mode                              : zlib
  96. Codec ID                                 : S_HDMV/PGS
  97. Codec ID/Info                            : Picture based subtitle format used on BDs/HD-DVDs
  98. Duration                                 : 1 h 19 min
  99. Bit rate                                 : 21.7 kb/s
  100. Count of elements                        : 1662
  101. Stream size                              : 12.3 MiB (0%)
  102. Title                                    : Dutch-PGS
  103. Language                                 : Dutch
  104. Default                                  : No
  105. Forced                                   : No

  106. Text #4
  107. ID                                       : 7
  108. Format                                   : PGS
  109. Muxing mode                              : zlib
  110. Codec ID                                 : S_HDMV/PGS
  111. Codec ID/Info                            : Picture based subtitle format used on BDs/HD-DVDs
  112. Duration                                 : 1 h 19 min
  113. Bit rate                                 : 23.7 kb/s
  114. Count of elements                        : 1718
  115. Stream size                              : 13.5 MiB (0%)
  116. Title                                    : French-PGS
  117. Language                                 : French
  118. Default                                  : No
  119. Forced                                   : No

  120. Text #5
  121. ID                                       : 8
  122. Format                                   : PGS
  123. Muxing mode                              : zlib
  124. Codec ID                                 : S_HDMV/PGS
  125. Codec ID/Info                            : Picture based subtitle format used on BDs/HD-DVDs
  126. Duration                                 : 1 h 17 min
  127. Bit rate                                 : 31.5 kb/s
  128. Count of elements                        : 2118
  129. Stream size                              : 17.4 MiB (0%)
  130. Title                                    : German-PGS
  131. Language                                 : German
  132. Default                                  : No
  133. Forced                                   : No

  134. Text #6
  135. ID                                       : 9
  136. Format                                   : PGS
  137. Muxing mode                              : zlib
  138. Codec ID                                 : S_HDMV/PGS
  139. Codec ID/Info                            : Picture based subtitle format used on BDs/HD-DVDs
  140. Duration                                 : 1 h 19 min
  141. Bit rate                                 : 22.1 kb/s
  142. Count of elements                        : 1714
  143. Stream size                              : 12.6 MiB (0%)
  144. Title                                    : Spanish-PGS
  145. Language                                 : Spanish
  146. Default                                  : No
  147. Forced                                   : No

  148. Menu
  149. 00:00:00.000                             : en:Chapter 01
  150. 00:09:21.978                             : en:Chapter 02
  151. 00:19:53.567                             : en:Chapter 03
  152. 00:28:12.107                             : en:Chapter 04
  153. 00:35:54.277                             : en:Chapter 05
  154. 00:45:51.082                             : en:Chapter 06
  155. 00:55:18.690                             : en:Chapter 07
  156. 01:04:28.448                             : en:Chapter 08
  157. 01:13:56.724                             : en:Chapter 09
  158. 01:17:22.429                             : en:Chapter 10
复制代码

真人快打传奇:蝎子的复仇/真人快打:魔蝎的复仇 Mortal.Kombat.Legends.Scorpions.Revenge.2020.2160p.BluRay.x265.10bit.SDR.DTS-HD.MA.5.1-SWTYBLZ 10.45GB-2.png 真人快打传奇:蝎子的复仇/真人快打:魔蝎的复仇 Mortal.Kombat.Legends.Scorpions.Revenge.2020.2160p.BluRay.x265.10bit.SDR.DTS-HD.MA.5.1-SWTYBLZ 10.45GB-3.png 真人快打传奇:蝎子的复仇/真人快打:魔蝎的复仇 Mortal.Kombat.Legends.Scorpions.Revenge.2020.2160p.BluRay.x265.10bit.SDR.DTS-HD.MA.5.1-SWTYBLZ 10.45GB-4.png 真人快打传奇:蝎子的复仇/真人快打:魔蝎的复仇 Mortal.Kombat.Legends.Scorpions.Revenge.2020.2160p.BluRay.x265.10bit.SDR.DTS-HD.MA.5.1-SWTYBLZ 10.45GB-5.png 真人快打传奇:蝎子的复仇/真人快打:魔蝎的复仇 Mortal.Kombat.Legends.Scorpions.Revenge.2020.2160p.BluRay.x265.10bit.SDR.DTS-HD.MA.5.1-SWTYBLZ 10.45GB-6.png 真人快打传奇:蝎子的复仇/真人快打:魔蝎的复仇 Mortal.Kombat.Legends.Scorpions.Revenge.2020.2160p.BluRay.x265.10bit.SDR.DTS-HD.MA.5.1-SWTYBLZ 10.45GB-7.png 真人快打传奇:蝎子的复仇/真人快打:魔蝎的复仇 Mortal.Kombat.Legends.Scorpions.Revenge.2020.2160p.BluRay.x265.10bit.SDR.DTS-HD.MA.5.1-SWTYBLZ 10.45GB-8.png







回复

使用道具 举报

懒得打字嘛,点击右侧快捷回复 【右侧内容,后台自定义】
您需要登录后才可以回帖 登录 | 立即加入

本版积分规则

现在加入蓝光电影网,注册一个账号
上个主题 下个主题 快速回复 收藏帖子 返回列表 客服中心 搜索

手机版|小黑屋| 蓝光电影网 |网站地图 

Copyright © 2015-2019 Comsenz Inc.  Template by 蓝光电影论坛 All Rights Reserved.

Powered by 蓝光电影网 X3.4

特别声明:本站所有资源均由网上收集而来,版权归原影音公司所有,如果侵犯了你的权益,请通知我们,我们会及时删除侵权内容.

快速回复 返回顶部 返回列表