找回密码

蓝光电影网

查看: 243|回复: 1

星球大战9:天行者崛起 Star.Wars.Episode.IX.The.Rise.of.Skywalker.2019.1080p.3D.BluRay.Half-OU.x264.DTS-HD.MA.7.1-FGT 21.94GB

[复制链接]

 成长值: 26200

发表于 2020-4-23 11:57:10 | 显示全部楼层 |阅读模式
星球大战9:天行者崛起 Star.Wars.Episode.IX.The.Rise.of.Skywalker.2019.1080p.3D.BluRay.Half-OU.x264.DTS-HD.MA.7.1-FGT 21.94GB-1.png

译  名 星球大战9:天行者崛起 / Star Wars 9 / Star Wars: Episode IX / 星战9 / 星球大战9
片  名 Star Wars: The Rise of Skywalker
年  代 2019
产  地 美国
类  别 动作 / 科幻 / 冒险
语  言 英语
上映日期 2019-12-18(中国大陆) / 2019-12-20(美国)
IMDb评分  6.7/10 from 298838 users
IMDb链接  https://www.imdb.com/title/tt2527338
豆瓣评分 6.4/10 from 67666 users
豆瓣链接 https://movie.douban.com/subject/22265687/
片  长 142分钟
导  演 J·J·艾布拉姆斯 J.J. Abrams
编  剧 J·J·艾布拉姆斯 J.J. Abrams / 克里斯·特里奥 Chris Terrio / 乔治·卢卡斯 George Lucas / 科林·特雷沃罗 Colin Trevorrow / 德里克·康纳利 Derek Connolly
主  演 黛西·雷德利 Daisy Ridley
       亚当·德赖弗 Adam Driver
       奥斯卡·伊萨克 Oscar Isaac
       约翰·博耶加 John Boyega
       马克·哈米尔 Mark Hamill
       凯丽·费雪 Carrie Fisher
       比利·迪·威廉姆斯 Billy Dee Williams
       伊恩·麦克迪阿梅德 Ian McDiarmid
       凯丽·拉塞尔 Keri Russell
       哈里森·福特 Harrison Ford
       朱迪·科默 Jodie Comer
       比利·豪尔 Billy Howle
       马特·史密斯 Matt Smith
       露皮塔·尼永奥 Lupita Nyong'o
       多姆纳尔·格里森 Domhnall Gleeson
       凯莉·玛丽·陈 Kelly Marie Tran
       乔纳斯·索塔莫 Joonas Suotamo
       比莉·洛德 Billie Lourd
       安东尼·丹尼尔斯 Anthony Daniels
       娜奥米·阿基 Naomi Ackie
       理查德·E·格兰特 Richard E. Grant
       多米尼克·莫纳汉 Dominic Monaghan
       格雷戈·格伦伯格 Greg Grunberg
       艾德·希兰 Ed Sheeran
       林-曼努尔·米兰达 Lin-Manuel Miranda


标  签 星球大战 | 科幻 | 美国 | 2019 | 经典 | 史诗 | 动作 | 冒险

简  介  

  本片为2017年电影《星球大战:最后的绝地武士》的续集,“星球大战后传三部曲”的第三部作品,同时是“天行者传奇”的第九部作品以及最终章。在卢克·天行者化为绝地英灵的一年后,残存的抵抗势力将再次面对第一秩序。同时,绝地和西斯之间的大战将天行者的传奇带到最后。

获奖情况  

  第92届奥斯卡金像奖(2020)
  最佳视觉效果(提名) 尼尔·斯坎伦 / 帕特里克·图巴赫 / 罗杰·盖耶特 / 多米尼克·多伊
  最佳音效剪辑(提名)
  最佳原创配乐(提名) 约翰·威廉姆斯

  第73届英国电影学院奖(2020)
  电影奖 最佳特殊视觉效果(提名)
  电影奖 最佳原创配乐(提名) 约翰·威廉姆斯
  电影奖 最佳音效(提名)

  第24届美国艺术指导工会奖(2020)
  电影奖 最佳幻想电影艺术指导(提名) 凯文·詹金斯 / 瑞克·卡特

  第22届美国服装设计工会奖(2020)
  科幻/奇幻题材电影最佳服装设计(提名) 迈克尔·卡普兰

  第67届美国音效剪辑协会奖(2020)
  金卷轴奖 最佳电影音效剪辑(提名)

  第18届美国视觉效果协会奖(2020)
  最佳特效电影视觉效果(提名)
  最佳真人电影CG背景(提名)
  最佳真人电影模拟动画效果
  最佳电影视觉效果合成(提名)
  1. Video
  2. ID                                       : 1
  3. Format                                   : AVC
  4. Format/Info                              : Advanced Video Codec
  5. Format profile                           : High@L4
  6. Format settings                          : CABAC / 3 Ref Frames
  7. Format settings, CABAC                   : Yes
  8. Format settings, Reference frames        : 3 frames
  9. Codec ID                                 : V_MPEG4/ISO/AVC
  10. Duration                                 : 2 h 21 min
  11. Bit rate                                 : 16.0 Mb/s
  12. Width                                    : 1 920 pixels
  13. Height                                   : 1 080 pixels
  14. Display aspect ratio                     : 16:9
  15. Frame rate mode                          : Constant
  16. Frame rate                               : 23.976 (24000/1001/189150) FPS
  17. Color space                              : YUV
  18. Chroma subsampling                       : 4:2:0
  19. Bit depth                                : 8 bits
  20. Scan type                                : Progressive
  21. Bits/(Pixel*Frame)                       : 0.322
  22. Stream size                              : 15.8 GiB (72%)
  23. Title                                    : Star.Wars.Episode.IX.The.Rise.of.Skywalker.2019.1080p.3D.BluRay.Half-OU.x264.DTS-HD.MA.7.1-FGT
  24. Writing library                          : x264 core 148
  25. Encoding settings                        : cabac=1 / ref=3 / deblock=1:-1:-1 / analyse=0x3:0 / me=hex / subme=5 / psy=1 / psy_rd=1.00:0.00 / mixed_ref=0 / me_range=16 / chroma_me=1 / trellis=1 / 8x8dct=1 / cqm=0 / deadzone=21,11 / fast_pskip=0 / chroma_qp_offset=0 / threads=24 / lookahead_threads=6 / sliced_threads=0 / nr=0 / decimate=1 / interlaced=0 / bluray_compat=0 / constrained_intra=0 / bframes=2 / b_pyramid=0 / b_adapt=1 / b_bias=0 / direct=1 / weightb=0 / open_gop=0 / weightp=0 / keyint=24 / keyint_min=2 / scenecut=40 / intra_refresh=0 / rc=abr / mbtree=0 / bitrate=16000 / ratetol=1.0 / qcomp=0.60 / qpmin=0 / qpmax=69 / qpstep=4 / ip_ratio=1.40 / pb_ratio=1.30 / aq=1:1.00
  26. Default                                  : Yes
  27. Forced                                   : No
  28. Color range                              : Limited
  29. Color primaries                          : BT.709
  30. Transfer characteristics                 : BT.709
  31. Matrix coefficients                      : BT.709

  32. Audio #1
  33. ID                                       : 2
  34. Format                                   : DTS XLL
  35. Format/Info                              : Digital Theater Systems
  36. Commercial name                          : DTS-HD Master Audio
  37. Codec ID                                 : A_DTS
  38. Duration                                 : 2 h 21 min
  39. Bit rate mode                            : Variable
  40. Bit rate                                 : 4 997 kb/s
  41. Channel(s)                               : 8 channels
  42. Channel layout                           : C L R LFE Lb Rb Lss Rss
  43. Sampling rate                            : 48.0 kHz
  44. Frame rate                               : 93.750 FPS (512 SPF)
  45. Bit depth                                : 24 bits
  46. Compression mode                         : Lossless
  47. Stream size                              : 4.95 GiB (23%)
  48. Title                                    : Star.Wars.Episode.IX.The.Rise.of.Skywalker.2019.1080p.3D.BluRay.Half-OU.x264.DTS-HD.MA.7.1-FGT
  49. Language                                 : English
  50. Default                                  : Yes
  51. Forced                                   : No

  52. Audio #2
  53. ID                                       : 3
  54. Format                                   : AC-3
  55. Format/Info                              : Audio Coding 3
  56. Commercial name                          : Dolby Digital
  57. Codec ID                                 : A_AC3
  58. Duration                                 : 2 h 21 min
  59. Bit rate mode                            : Constant
  60. Bit rate                                 : 320 kb/s
  61. Channel(s)                               : 2 channels
  62. Channel layout                           : L R
  63. Sampling rate                            : 48.0 kHz
  64. Frame rate                               : 31.250 FPS (1536 SPF)
  65. Bit depth                                : 16 bits
  66. Compression mode                         : Lossy
  67. Stream size                              : 325 MiB (1%)
  68. Title                                    : Star.Wars.Episode.IX.The.Rise.of.Skywalker.2019.1080p.3D.BluRay.Half-OU.x264.DTS-HD.MA.7.1-FGT
  69. Language                                 : English
  70. Service kind                             : Complete Main
  71. Default                                  : No
  72. Forced                                   : No

  73. Audio #3
  74. ID                                       : 4
  75. Format                                   : E-AC-3
  76. Format/Info                              : Enhanced AC-3
  77. Commercial name                          : Dolby Digital Plus
  78. Format profile                           : Blu-ray Disc
  79. Codec ID                                 : A_EAC3
  80. Duration                                 : 2 h 21 min
  81. Bit rate mode                            : Constant
  82. Bit rate                                 : 896 kb/s
  83. Channel(s)                               : 8 channels
  84. Channel layout                           : L R C LFE Ls Rs Lb Rb
  85. Sampling rate                            : 48.0 kHz
  86. Frame rate                               : 31.250 FPS (1536 SPF)
  87. Compression mode                         : Lossy
  88. Stream size                              : 909 MiB (4%)
  89. Title                                    : Star.Wars.Episode.IX.The.Rise.of.Skywalker.2019.1080p.3D.BluRay.Half-OU.x264.DTS-HD.MA.7.1-FGT
  90. Language                                 : French
  91. Service kind                             : Complete Main
  92. Default                                  : No
  93. Forced                                   : No

  94. Text #1
  95. ID                                       : 5
  96. Format                                   : PGS
  97. Muxing mode                              : zlib
  98. Codec ID                                 : S_HDMV/PGS
  99. Codec ID/Info                            : Picture based subtitle format used on BDs/HD-DVDs
  100. Duration                                 : 2 h 11 min
  101. Bit rate                                 : 43.8 kb/s
  102. Count of elements                        : 3790
  103. Stream size                              : 41.3 MiB (0%)
  104. Title                                    : English-PGS
  105. Language                                 : English
  106. Default                                  : Yes
  107. Forced                                   : No

  108. Text #2
  109. ID                                       : 6
  110. Format                                   : PGS
  111. Muxing mode                              : zlib
  112. Codec ID                                 : S_HDMV/PGS
  113. Codec ID/Info                            : Picture based subtitle format used on BDs/HD-DVDs
  114. Duration                                 : 2 h 21 min
  115. Bit rate                                 : 27.6 kb/s
  116. Count of elements                        : 2820
  117. Stream size                              : 27.8 MiB (0%)
  118. Title                                    : French-PGS
  119. Language                                 : French
  120. Default                                  : No
  121. Forced                                   : No

  122. Text #3
  123. ID                                       : 7
  124. Format                                   : PGS
  125. Muxing mode                              : zlib
  126. Codec ID                                 : S_HDMV/PGS
  127. Codec ID/Info                            : Picture based subtitle format used on BDs/HD-DVDs
  128. Duration                                 : 2 h 21 min
  129. Bit rate                                 : 29.1 kb/s
  130. Count of elements                        : 2324
  131. Stream size                              : 29.4 MiB (0%)
  132. Title                                    : Dutch-PGS
  133. Language                                 : Dutch
  134. Default                                  : No
  135. Forced                                   : No

  136. Text #4
  137. ID                                       : 8
  138. Format                                   : PGS
  139. Muxing mode                              : zlib
  140. Codec ID                                 : S_HDMV/PGS
  141. Codec ID/Info                            : Picture based subtitle format used on BDs/HD-DVDs
  142. Duration                                 : 1 s 585 ms
  143. Bit rate                                 : 111 kb/s
  144. Count of elements                        : 2
  145. Stream size                              : 21.4 KiB (0%)
  146. Language                                 : English
  147. Default                                  : No
  148. Forced                                   : No

  149. Menu
  150. 00:00:00.000                             : en:Chapter 01
  151. 00:00:09.009                             : en:Chapter 02
  152. 00:01:40.934                             : en:Chapter 03
  153. 00:03:47.810                             : en:Chapter 04
  154. 00:06:42.944                             : en:Chapter 05
  155. 00:08:26.714                             : en:Chapter 06
  156. 00:10:04.687                             : en:Chapter 07
  157. 00:12:48.142                             : en:Chapter 08
  158. 00:13:53.999                             : en:Chapter 09
  159. 00:15:17.416                             : en:Chapter 10
  160. 00:17:13.157                             : en:Chapter 11
  161. 00:19:25.414                             : en:Chapter 12
  162. 00:21:28.578                             : en:Chapter 13
  163. 00:25:27.692                             : en:Chapter 14
  164. 00:27:14.883                             : en:Chapter 15
  165. 00:30:41.548                             : en:Chapter 16
  166. 00:35:49.230                             : en:Chapter 17
  167. 00:41:37.578                             : en:Chapter 18
  168. 00:43:15.259                             : en:Chapter 19
  169. 00:45:28.350                             : en:Chapter 20
  170. 00:48:24.192                             : en:Chapter 21
  171. 00:54:37.565                             : en:Chapter 22
  172. 00:58:49.192                             : en:Chapter 23
  173. 01:02:54.771                             : en:Chapter 24
  174. 01:06:22.895                             : en:Chapter 25
  175. 01:09:54.607                             : en:Chapter 26
  176. 01:13:07.383                             : en:Chapter 27
  177. 01:18:23.615                             : en:Chapter 28
  178. 01:23:41.224                             : en:Chapter 29
  179. 01:27:03.301                             : en:Chapter 30
  180. 01:30:23.126                             : en:Chapter 31
  181. 01:35:00.820                             : en:Chapter 32
  182. 01:38:47.880                             : en:Chapter 33
  183. 01:40:36.196                             : en:Chapter 34
  184. 01:43:03.135                             : en:Chapter 35
  185. 01:45:27.863                             : en:Chapter 36
  186. 01:48:48.480                             : en:Chapter 37
  187. 01:53:27.634                             : en:Chapter 38
  188. 01:55:30.757                             : en:Chapter 39
  189. 01:59:02.760                             : en:Chapter 40
  190. 02:01:37.748                             : en:Chapter 41
  191. 02:05:20.429                             : en:Chapter 42
  192. 02:09:43.150                             : en:Chapter 43
  193. 02:12:25.896                             : en:Chapter 44
复制代码

星球大战9:天行者崛起 Star.Wars.Episode.IX.The.Rise.of.Skywalker.2019.1080p.3D.BluRay.Half-OU.x264.DTS-HD.MA.7.1-FGT 21.94GB-2.png 星球大战9:天行者崛起 Star.Wars.Episode.IX.The.Rise.of.Skywalker.2019.1080p.3D.BluRay.Half-OU.x264.DTS-HD.MA.7.1-FGT 21.94GB-3.png 星球大战9:天行者崛起 Star.Wars.Episode.IX.The.Rise.of.Skywalker.2019.1080p.3D.BluRay.Half-OU.x264.DTS-HD.MA.7.1-FGT 21.94GB-4.png






回复

使用道具 举报

发表于 2020-4-24 15:43:24 | 显示全部楼层

楼主太厉害了!楼主,电影应该很好看我觉得蓝光电影网真是个好地方!
回复 支持 反对

使用道具 举报

懒得打字嘛,点击右侧快捷回复 【右侧内容,后台自定义】
您需要登录后才可以回帖 登录 | 立即加入

本版积分规则

现在加入蓝光电影网,注册一个账号
上个主题 下个主题 快速回复 收藏帖子 返回列表 客服中心 搜索

手机版|小黑屋| 蓝光电影网 |网站地图 

Copyright © 2015-2019 Comsenz Inc.  Template by 蓝光电影论坛 All Rights Reserved.

Powered by 蓝光电影网 X3.4

特别声明:本站所有资源均由网上收集而来,版权归原影音公司所有,如果侵犯了你的权益,请通知我们,我们会及时删除侵权内容.

快速回复 返回顶部 返回列表