找回密码

蓝光电影网

查看: 441|回复: 0

[进击的巨人/Attack.On.Titan 第二季][全12集打包][日语无中字][MKV][1080P]

[复制链接]

 成长值: 27190

发表于 2020-4-4 01:46:00 | 显示全部楼层 |阅读模式
[进击的巨人/Attack.On.Titan 第二季][全12集打包][日语无中字][MKV][1080P]-1.jpg

译  名 进击的巨人第二季/AttackonTitanSeason2

片  名 進撃の巨人 Season 2

年  代 2017

产  地 日本

类  别 科幻/动画/灾难

语  言 日语

上映日期 2017-04-01(日本)

豆瓣评分 9.1/10 from 24,237 users

豆瓣链接 https://movie.douban.com/subject/26268494/

片  长 24分钟

导  演 荒木哲郎 Tetsuro Araki / 肥塚正史

主  演 梶裕贵 Yûki Kaji

      石川由依 Ishikawa Yui

      井上麻里奈 Marina Inoue

      小野大辅 Daisuke Ono

      神谷浩史 Hiroshi Kamiya

      朴璐美 Romi Pak

      细谷佳正 Hosoya Yoshimasa

      桥诘知久

      谷山纪章 Kishô Taniyama

      下野纮 Hiro Shimono

      小林优 Yu Kobayashi

      三上枝织 Shiori Mikami

      藤田咲 Saki Fujita

      杉田智和 Tomokazu Sugita

      渡边明乃 Akeno Watanabe

      土田大 Hiroshi Tsuchida

      子安武人 Takehito Koyasu




简  介




  《进击的巨人第二季》是根据日本漫画家谏山创的漫画作品《进击的巨人》所改编的同名动画作品的第二季,讲述高墙内的人类们为了自己的生存对抗巨人的故事。动画由WIT STUDIO负责制作。

  该作品延续第一部的残酷,继续这一场悲壮的史诗。

  人类曾一度惨遭巨人捕食而崩溃,濒临灭绝。幸存下来的人们建造了三面巨大的防护墙来阻止了巨人的入侵,在这隔绝的环境里享受了一百年的和平。不过作为“和平”的代价,人类失去了到墙壁的外面的“自由”,如同圈养的畜牲一般,安稳地生活着。主人公艾伦·耶格尔对还没见过的墙外世界抱有兴趣,同时也对人类失去的 “自由”抱有向往,不同于惧怕巨人且盲目相信墙壁能保护自身安全,而甘愿生存在墙内的大多数人类,他极想到墙外的世界去探险,也因为这种想法,人皆视其为异端。

  就在这悠长的安逸持续了一百年,也就是艾伦·耶格尔十岁那年之际,突然,一个前所未见、身高60米的“超大型巨人”出现在人类面前,他以压倒性的力量破坏了巨墙,其后瞬间消失,巨人们成群地冲进墙内,人类惨成饵食。by:http://www.66yc.cc

  看到了人们、伙伴、母亲先后死在巨人口中,他怀着对巨人无以形容的恨意,誓言全歼巨人。母亲死亡、父亲失踪。其父可能掌握了巨人之谜,艾伦·耶格尔因父亲而获得了的“巨人之力”,在军队同期训练生里有着其他人无法比拟的强悍精神力,虽然见过地狱,依然敢于向巨人发起挑战,进而加入向往以久的调查军团,艾伦的生活,就在这一刻,开始发生了翻天覆地的变化……





  1. Video
  2. ID : 1
  3. Format : AVC
  4. Format/Info : Advanced Video Codec
  5. Format profile : High@L4
  6. Format settings : CABAC / 4 Ref Frames
  7. Format settings, CABAC : Yes
  8. Format settings, ReFrames : 4 frames
  9. Codec ID : V_MPEG4/ISO/AVC
  10. Duration : 24 min 12 s
  11. Bit rate : 7 268 kb/s
  12. Width : 1 920 pixels
  13. Height : 1 080 pixels
  14. Display aspect ratio : 16:9
  15. Frame rate mode : Constant
  16. Frame rate : 23.976 (24000/1001) FPS
  17. Color space : YUV
  18. Chroma subsampling : 4:2:0
  19. Bit depth : 8 bits
  20. Scan type : Progressive
  21. Bits/(Pixel*Frame) : 0.146
  22. Stream size : 1.23 GiB (85%)
  23. Writing library : x264 core 155 r2901 7d0ff22
  24. Encoding settings : cabac=1 / ref=4 / deblock=1:1:1 / analyse=0x3:0x113 / me=umh / subme=7 / psy=1 / psy_rd=0.40:0.00 / mixed_ref=1 / me_range=16 / chroma_me=1 / trellis=2 / 8x8dct=1 / cqm=0 / deadzone=21,11 / fast_pskip=1 / chroma_qp_offset=-2 / threads=18 / lookahead_threads=3 / sliced_threads=0 / nr=0 / decimate=1 / interlaced=0 / bluray_compat=0 / constrained_intra=0 / bframes=3 / b_pyramid=2 / b_adapt=1 / b_bias=0 / direct=3 / weightb=1 / open_gop=0 / weightp=2 / keyint=240 / keyint_min=23 / scenecut=40 / intra_refresh=0 / rc_lookahead=50 / rc=2pass / mbtree=1 / bitrate=7268 / ratetol=1.0 / qcomp=0.60 / qpmin=0 / qpmax=69 / qpstep=4 / cplxblur=20.0 / qblur=0.5 / ip_ratio=1.40 / aq=1:0.60
  25. Default : Yes
  26. Forced : No

  27. Audio #1
  28. ID : 2
  29. Format : AC-3
  30. Format/Info : Audio Coding 3
  31. Codec ID : A_AC3
  32. Duration : 24 min 12 s
  33. Bit rate mode : Constant
  34. Bit rate : 640 kb/s
  35. Channel(s) : 2 channels
  36. Channel positions : Front: L R
  37. Sampling rate : 48.0 kHz
  38. Frame rate : 31.250 FPS (1536 SPF)
  39. Bit depth : 16 bits
  40. Compression mode : Lossy
  41. Stream size : 111 MiB (7%)
  42. Language : Japanese
  43. Service kind : Complete Main
  44. Default : Yes
  45. Forced : No

  46. Audio #2
  47. ID : 3
  48. Format : AC-3
  49. Format/Info : Audio Coding 3
  50. Codec ID : A_AC3
  51. Duration : 24 min 12 s
  52. Bit rate mode : Constant
  53. Bit rate : 640 kb/s
  54. Channel(s) : 6 channels
  55. Channel positions : Front: L C R, Side: L R, LFE
  56. Sampling rate : 48.0 kHz
  57. Frame rate : 31.250 FPS (1536 SPF)
  58. Bit depth : 16 bits
  59. Compression mode : Lossy
  60. Stream size : 111 MiB (7%)
  61. Language : English
  62. Service kind : Complete Main
  63. Default : No
  64. Forced : No

  65. Text
  66. ID : 4
  67. Format : UTF-8
  68. Codec ID : S_TEXT/UTF8
  69. Codec ID/Info : UTF-8 Plain Text
  70. Duration : 22 min 9 s
  71. Bit rate : 55 b/s
  72. Count of elements : 300
  73. Stream size : 8.96 KiB (0%)
  74. Language : English
  75. Default : Yes
  76. Forced : No

  77. Menu
  78. 00:00:00.000 : en:00:00:00.000
  79. 00:01:31.008 : en:00:01:31.008
  80. 00:11:59.969 : en:00:11:59.969
  81. 00:22:10.996 : en:00:22:10.996
  82. 00:23:41.003 : en:00:23:41.003
复制代码





[进击的巨人/Attack.On.Titan 第二季][全12集打包][日语无中字][MKV][1080P]-2.jpg [进击的巨人/Attack.On.Titan 第二季][全12集打包][日语无中字][MKV][1080P]-3.jpg





回复

使用道具 举报

懒得打字嘛,点击右侧快捷回复 【右侧内容,后台自定义】
您需要登录后才可以回帖 登录 | 立即加入

本版积分规则

现在加入蓝光电影网,注册一个账号
上个主题 下个主题 快速回复 收藏帖子 返回列表 客服中心 搜索

手机版|小黑屋| 蓝光电影网 |网站地图 

Copyright © 2015-2019 Comsenz Inc.  Template by 蓝光电影论坛 All Rights Reserved.

Powered by 蓝光电影网 X3.4

特别声明:本站所有资源均由网上收集而来,版权归原影音公司所有,如果侵犯了你的权益,请通知我们,我们会及时删除侵权内容.

快速回复 返回顶部 返回列表