找回密码

蓝光电影网

查看: 13799|回复: 343

[喜剧片] 绝地战警:疾速追击 Bad.Boys.for.Life.2020.1080p.WEB-DL.DD5.1.H264-FGT 4.23GB

  [复制链接]

 成长值: 26230

发表于 2020-3-31 17:31:16 | 显示全部楼层 |阅读模式
绝地战警:疾速追击 Bad.Boys.for.Life.2020.1080p.WEB-DL.DD5.1.H264-FGT 4.23GB-1.png

译  名 绝地战警:疾速追击 / Bad Boys 3 / 绝地战警3 / 绝地战警FOR LIFE(台) / 重案梦幻再重组(港)
片  名 Bad Boys for Life
年  代 2020
产  地 美国
类  别 喜剧 / 动作 / 犯罪
语  言 英语
上映日期 2020(中国大陆) / 2020-01-17(美国)
IMDb评分  7.2/10 from 45081 users
IMDb链接  https://www.imdb.com/title/tt1502397
豆瓣评分 6.8/10 from 5030 users
豆瓣链接 https://movie.douban.com/subject/4014397/
片  长 124分钟
导  演 阿迪尔·埃尔·阿比 Adil El Arbi / 比拉勒·法拉赫 Bilall Fallah
编  剧 克里斯·布雷姆纳 Chris Bremner / 乔·卡纳汉 Joe Carnahan / 乔治·加洛 George Gallo / 大卫·古根海姆 David Guggenheim / 安东尼·塔姆巴基斯 Anthony Tambakis
主  演 威尔·史密斯 Will Smith
       马丁·劳伦斯 Martin Lawrence
       凡妮莎·哈金斯 Vanessa Hudgens
       亚历山大·路德韦格 Alexander Ludwig
       乔·潘托里亚诺 Joe Pantoliano
       海皮·安德森 Happy Anderson
       查尔斯·梅尔顿 Charles Melton
       凯特·德尔·卡斯蒂洛 Kate del Castillo
       葆拉·努涅斯 Paola Nú?ez
       Sharon Pfeiffer
       DJ卡拉德 DJ Khaled
       Jennifer Badger
       Massi Furlan
       玛丽亚·Z·威尔逊 Maria Z. Wilson
       Emily Towles
       伊沃·南迪 Ivo Nandi
       大卫·莫拉蒂 David Moretti
       安东尼·莫利纳利 Anthony Molinari
       汉斯·马雷罗 Hans Marrero
       Troy Brenna
       巴迪·沃特金斯 Buddy Watkins
       David L. Marston
       约翰·盖蒂尔 John Gettier
       塞尔吉奥·布里奥内斯 Sergio Briones
       卡洛斯·格雷罗 Carlos Guerrero
       德里克?吉尔伯特 Derrick Gilbert
       Chick Bernhardt


标  签 动作 | 美国 | 喜剧 | 犯罪 | 2020 | 黑色幽默 | 搞笑 | WillSmith

简  介  

  曾制作《珍珠港》、《壮志凌云》、《加勒比海盗》系列等爆款电影的好莱坞金牌制片人全新倾力打造的《绝地战警:疾速追击》,讲述了迈阿密警员麦克(威尔·史密斯饰)遭遇神秘黑帮势力的暗杀伏击,为了迎战势力庞大火力惊人的黑帮分子,解决隐藏在暗处的危机,麦克找回曾经的搭档马库斯(马丁·劳伦斯饰),“嘴炮二人组”再度集结开启沙雕模式,不仅时刻上演逗比互怼,更在迈阿密街头与黑帮展开空前绝后的飙车枪战大戏。这对最佳搭档究竟能否在枪林弹雨下突出重围,找出幕后黑手完成绝地反杀?
  1. Video
  2. ID                                       : 1
  3. Format                                   : AVC
  4. Format/Info                              : Advanced Video Codec
  5. Format profile                           : High@L4
  6. Format settings                          : CABAC / 5 Ref Frames
  7. Format settings, CABAC                   : Yes
  8. Format settings, Reference frames        : 5 frames
  9. Codec ID                                 : V_MPEG4/ISO/AVC
  10. Duration                                 : 2 h 3 min
  11. Bit rate                                 : 4 500 kb/s
  12. Width                                    : 1 920 pixels
  13. Height                                   : 790 pixels
  14. Display aspect ratio                     : 2.40:1
  15. Frame rate mode                          : Constant
  16. Frame rate                               : 23.976 (24000/1001/189150) FPS
  17. Color space                              : YUV
  18. Chroma subsampling                       : 4:2:0
  19. Bit depth                                : 8 bits
  20. Scan type                                : Progressive
  21. Bits/(Pixel*Frame)                       : 0.124
  22. Stream size                              : 3.90 GiB (92%)
  23. Title                                    : Bad.Boys.for.Life.2020.1080p.WEB-DL.DD5.1.H264-FGT
  24. Language                                 : English
  25. Default                                  : Yes
  26. Forced                                   : No
  27. Color range                              : Limited
  28. Color primaries                          : BT.709
  29. Transfer characteristics                 : BT.709
  30. Matrix coefficients                      : BT.709

  31. Audio
  32. ID                                       : 2
  33. Format                                   : AC-3
  34. Format/Info                              : Audio Coding 3
  35. Commercial name                          : Dolby Digital
  36. Codec ID                                 : A_AC3
  37. Duration                                 : 2 h 3 min
  38. Bit rate mode                            : Constant
  39. Bit rate                                 : 384 kb/s
  40. Channel(s)                               : 6 channels
  41. Channel layout                           : L R C LFE Ls Rs
  42. Sampling rate                            : 48.0 kHz
  43. Frame rate                               : 31.250 FPS (1536 SPF)
  44. Bit depth                                : 16 bits
  45. Compression mode                         : Lossy
  46. Stream size                              : 340 MiB (8%)
  47. Title                                    : Bad.Boys.for.Life.2020.1080p.WEB-DL.DD5.1.H264-FGT
  48. Language                                 : English
  49. Service kind                             : Complete Main
  50. Default                                  : Yes
  51. Forced                                   : No

  52. Text #1
  53. ID                                       : 3
  54. Format                                   : UTF-8
  55. Codec ID                                 : S_TEXT/UTF8
  56. Codec ID/Info                            : UTF-8 Plain Text
  57. Duration                                 : 1 h 45 min
  58. Bit rate                                 : 2 b/s
  59. Count of elements                        : 77
  60. Stream size                              : 2.12 KiB (0%)
  61. Title                                    : FORCED
  62. Language                                 : English
  63. Default                                  : Yes
  64. Forced                                   : Yes

  65. Text #2
  66. ID                                       : 4
  67. Format                                   : UTF-8
  68. Codec ID                                 : S_TEXT/UTF8
  69. Codec ID/Info                            : UTF-8 Plain Text
  70. Duration                                 : 1 h 57 min
  71. Bit rate                                 : 61 b/s
  72. Count of elements                        : 1765
  73. Stream size                              : 52.9 KiB (0%)
  74. Language                                 : English
  75. Default                                  : No
  76. Forced                                   : No

  77. Text #3
  78. ID                                       : 5
  79. Format                                   : UTF-8
  80. Codec ID                                 : S_TEXT/UTF8
  81. Codec ID/Info                            : UTF-8 Plain Text
  82. Duration                                 : 2 h 1 min
  83. Bit rate                                 : 73 b/s
  84. Count of elements                        : 2282
  85. Stream size                              : 65.2 KiB (0%)
  86. Title                                    : SDH
  87. Language                                 : English
  88. Default                                  : No
  89. Forced                                   : No

  90. Menu
  91. 00:00:00.000                             : en:1
  92. 00:07:33.203                             : en:2
  93. 00:14:56.646                             : en:3
  94. 00:23:43.255                             : en:4
  95. 00:31:05.613                             : en:5
  96. 00:38:43.069                             : en:6
  97. 00:45:26.347                             : en:7
  98. 00:53:27.327                             : en:8
  99. 01:00:22.033                             : en:9
  100. 01:07:29.250                             : en:10
  101. 01:12:55.159                             : en:11
  102. 01:22:12.340                             : en:12
  103. 01:29:49.087                             : en:13
  104. 01:36:47.797                             : en:14
  105. 01:42:08.576                             : en:15
  106. 01:53:55.908                             : en:16
复制代码

绝地战警:疾速追击 Bad.Boys.for.Life.2020.1080p.WEB-DL.DD5.1.H264-FGT 4.23GB-2.png 绝地战警:疾速追击 Bad.Boys.for.Life.2020.1080p.WEB-DL.DD5.1.H264-FGT 4.23GB-3.png 绝地战警:疾速追击 Bad.Boys.for.Life.2020.1080p.WEB-DL.DD5.1.H264-FGT 4.23GB-4.png






回复

使用道具 举报

发表于 2020-3-31 20:42:25 | 显示全部楼层
楼主发贴辛苦了,谢谢楼主分享!我觉得蓝光电影网是注册对了!
回复 支持 反对

使用道具 举报

发表于 2020-3-31 21:33:08 | 显示全部楼层
楼主发贴辛苦了,谢谢楼主分享!我觉得蓝光电影网是注册对了!
回复 支持 反对

使用道具 举报

发表于 2020-3-31 22:02:01 | 显示全部楼层

其实我一直觉得楼主的品味不错!呵呵!蓝光电影网太棒了!
回复 支持 反对

使用道具 举报

已抛锚 成长值: 3555

发表于 2020-4-1 03:40:16 | 显示全部楼层
其实我一直觉得楼主的品味不错!呵呵
回复 支持 反对

使用道具 举报

 成长值: 3280

发表于 2020-4-1 08:14:33 | 显示全部楼层
情怀。。。。
回复

使用道具 举报

发表于 2020-4-1 11:22:12 | 显示全部楼层

这东西我收了!谢谢楼主!蓝光电影网真好!
回复 支持 反对

使用道具 举报

发表于 2020-4-1 11:42:34 | 显示全部楼层
绝地战警:疾速追击
回复 支持 反对

使用道具 举报

发表于 2020-4-1 13:00:50 | 显示全部楼层
楼主发贴辛苦了,谢谢楼主分享!我觉得蓝光电影网是注册对了!
回复 支持 反对

使用道具 举报

发表于 2020-4-1 13:07:32 | 显示全部楼层
权限有限,只能看看这大片,下载不起。
威尔史密斯大片不断啊!
回复 支持 反对

使用道具 举报

懒得打字嘛,点击右侧快捷回复 【右侧内容,后台自定义】
您需要登录后才可以回帖 登录 | 立即加入

本版积分规则

现在加入蓝光电影网,注册一个账号
上个主题 下个主题 快速回复 收藏帖子 返回列表 客服中心 搜索

手机版|小黑屋| 蓝光电影网 |网站地图 

Copyright © 2015-2019 Comsenz Inc.  Template by 蓝光电影论坛 All Rights Reserved.

Powered by 蓝光电影网 X3.4

特别声明:本站所有资源均由网上收集而来,版权归原影音公司所有,如果侵犯了你的权益,请通知我们,我们会及时删除侵权内容.

快速回复 返回顶部 返回列表