找回密码

蓝光电影网

查看: 68|回复: 4

[悬疑片] 出租的村舍 Cottage.to.Let.1941.720p.BluRay.x264-GHOULS 3.28GB

[复制链接]

 成长值: 25300

发表于 2020-3-26 00:36:23 | 显示全部楼层 |阅读模式
出租的村舍 Cottage.to.Let.1941.720p.BluRay.x264-GHOULS 3.28GB-1.png

译  名 出租的村舍
片  名 Cottage to Let
年  代 1941
产  地 英国
类  别 悬疑 / 惊悚 / 战争
语  言 英语
上映日期 1941-09-06
IMDb评分  6.8/10 from 942 users
IMDb链接  https://www.imdb.com/title/tt0033491
豆瓣评分 0/10 from 0 users
豆瓣链接 https://movie.douban.com/subject/2297192/
片  长 90 分钟
导  演 安东尼·阿斯奎斯 Anthony Asquith
编  剧 Geoffrey Kerr
主  演 莱斯利·班克斯 Leslie Banks
       Jeanne De Casalis
       Carla Lehmann
       阿拉斯塔尔·西姆 Alastair Sim
       约翰·米尔斯 John Mills
       乔治·科尔 George Cole
       迈克·怀尔登 Michael Wilding


标  签 英国 | tik

简  介  

  盟军和德国特工纷纷潜入苏格兰的一处村舍内,他们都对住这里的发明家即将完工的投弹瞄准器格外有兴趣
  1. Video
  2. ID                                       : 1
  3. Format                                   : AVC
  4. Format/Info                              : Advanced Video Codec
  5. Format profile                           : High@L4
  6. Format settings                          : CABAC / 11 Ref Frames
  7. Format settings, CABAC                   : Yes
  8. Format settings, Reference frames        : 11 frames
  9. Codec ID                                 : V_MPEG4/ISO/AVC
  10. Duration                                 : 1 h 30 min
  11. Bit rate                                 : 4 828 kb/s
  12. Width                                    : 992 pixels
  13. Height                                   : 720 pixels
  14. Display aspect ratio                     : 1.378
  15. Frame rate mode                          : Constant
  16. Frame rate                               : 24.000 FPS
  17. Color space                              : YUV
  18. Chroma subsampling                       : 4:2:0
  19. Bit depth                                : 8 bits
  20. Scan type                                : Progressive
  21. Bits/(Pixel*Frame)                       : 0.282
  22. Stream size                              : 3.04 GiB (93%)
  23. Writing library                          : x264 core 159 r2991 1771b55
  24. Encoding settings                        : cabac=1 / ref=11 / deblock=1:-3:-3 / analyse=0x3:0x133 / me=umh / subme=9 / psy=1 / psy_rd=1.00:0.00 / mixed_ref=1 / me_range=24 / chroma_me=1 / trellis=1 / 8x8dct=1 / cqm=0 / deadzone=21,11 / fast_pskip=0 / chroma_qp_offset=-2 / threads=22 / lookahead_threads=3 / sliced_threads=0 / nr=0 / decimate=1 / interlaced=0 / bluray_compat=0 / constrained_intra=0 / bframes=8 / b_pyramid=2 / b_adapt=2 / b_bias=0 / direct=3 / weightb=1 / open_gop=0 / weightp=2 / keyint=250 / keyint_min=24 / scenecut=40 / intra_refresh=0 / rc_lookahead=60 / rc=2pass / mbtree=1 / bitrate=4828 / ratetol=1.0 / qcomp=0.60 / qpmin=0 / qpmax=69 / qpstep=4 / cplxblur=20.0 / qblur=0.5 / vbv_maxrate=62500 / vbv_bufsize=78125 / nal_hrd=none / filler=0 / ip_ratio=1.40 / aq=1:1.00
  25. Default                                  : Yes
  26. Forced                                   : No

  27. Audio
  28. ID                                       : 2
  29. Format                                   : FLAC
  30. Format/Info                              : Free Lossless Audio Codec
  31. Codec ID                                 : A_FLAC
  32. Duration                                 : 1 h 30 min
  33. Bit rate mode                            : Variable
  34. Bit rate                                 : 373 kb/s
  35. Channel(s)                               : 2 channels
  36. Channel layout                           : L R
  37. Sampling rate                            : 48.0 kHz
  38. Frame rate                               : 10.417 FPS (4608 SPF)
  39. Bit depth                                : 16 bits
  40. Compression mode                         : Lossless
  41. Stream size                              : 241 MiB (7%)
  42. Writing library                          : Lavf58.29.100
  43. Language                                 : English
  44. Default                                  : Yes
  45. Forced                                   : No

  46. Menu
  47. 00:00:00.000                             : en:Chapter 01
  48. 00:07:48.250                             : en:Chapter 02
  49. 00:15:22.625                             : en:Chapter 03
  50. 00:24:00.333                             : en:Chapter 04
  51. 00:31:34.250                             : en:Chapter 05
  52. 00:39:02.167                             : en:Chapter 06
  53. 00:45:49.042                             : en:Chapter 07
  54. 00:53:41.750                             : en:Chapter 08
  55. 01:01:49.083                             : en:Chapter 09
  56. 01:06:34.833                             : en:Chapter 10
  57. 01:13:44.625                             : en:Chapter 11
  58. 01:21:22.750                             : en:Chapter 12
复制代码

出租的村舍 Cottage.to.Let.1941.720p.BluRay.x264-GHOULS 3.28GB-2.png






回复

使用道具 举报

发表于 2020-3-26 01:21:30 | 显示全部楼层
楼主发贴辛苦了,谢谢楼主分享!我觉得蓝光电影网是注册对了!
回复 支持 反对

使用道具 举报

发表于 2020-3-26 08:48:31 | 显示全部楼层
楼主发贴辛苦了,谢谢楼主分享!我觉得蓝光电影网是注册对了!
回复 支持 反对

使用道具 举报

发表于 2020-3-26 13:32:12 | 显示全部楼层

这东西我收了!谢谢楼主!蓝光电影网真好!
回复 支持 反对

使用道具 举报

发表于 2020-3-27 15:09:00 | 显示全部楼层

楼主太厉害了!楼主,电影应该很好看我觉得蓝光电影网真是个好地方!
回复 支持 反对

使用道具 举报

懒得打字嘛,点击右侧快捷回复 【右侧内容,后台自定义】
您需要登录后才可以回帖 登录 | 立即加入

本版积分规则

现在加入蓝光电影网,注册一个账号
上个主题 下个主题 快速回复 收藏帖子 返回列表 客服中心 搜索

手机版|小黑屋| 蓝光电影网 |网站地图 

Copyright © 2015-2019 Comsenz Inc.  Template by 蓝光电影论坛 All Rights Reserved.

Powered by 蓝光电影网 X3.4

特别声明:本站所有资源均由网上收集而来,版权归原影音公司所有,如果侵犯了你的权益,请通知我们,我们会及时删除侵权内容.

快速回复 返回顶部 返回列表