找回密码

蓝光电影网

查看: 38|回复: 3

[剧情片] 名字之歌 The.Song.Of.Names.2019.1080p.AMZN.WEBRip.DDP5.1.x264-NTG 3.60GB

[复制链接]

 成长值: 25285

发表于 2020-3-26 00:35:29 | 显示全部楼层 |阅读模式
003519qj2z2p7zzk1j7k8e.png

译  名 名字之歌
片  名 The Song of Names
年  代 2019
产  地 加拿大 / 匈牙利
类  别 剧情
语  言 英语
上映日期 2019-09-08(多伦多电影节) / 2019-12-25(美国)
IMDb评分  6.2/10 from 410 users
IMDb链接  https://www.imdb.com/title/tt1657517
豆瓣评分 0/10 from 0 users
豆瓣链接 https://movie.douban.com/subject/5151788/
片  长 113分钟
导  演 佛朗索瓦·吉拉德 Fran?ois Girard
编  剧 杰弗里·凯恩 Jeffrey Caine / Norman Lebrecht
主  演 蒂姆·罗斯 Tim Roth
       克里夫·欧文 Clive Owen
       艾迪·伊扎德 Eddie Izzard
       绍尔·鲁宾内克 Saul Rubinek
       凯瑟琳·麦克马克 Catherine McCormack
       乔纳·豪尔-金 Jonah Hauer-King
       格伦·霍威尔 Gerran Howell
       朱利安·沃德姆 Julian Wadham
       卡米尔·雷米泽斯基 Kamil Lemieszewski
       艾米·斯洛安 Amy Sloan
       理查德·布雷默 Richard Bremmer
       麦克斯·麦克米兰 Max Macmillan
       斯坦利·汤森德 Stanley Townsend
       马格达莱娜·谢莱卡 Magdalena Cielecka
       马特·戴维尔 Matt Devere
       杰弗里·凯恩 Jeffrey Caine
       莎伦·佩尔西 Sharon Percy
       Yank Azman
       Tamás Puskás
       Lidia Bogacz
       Jakub Kotynski


标  签 蒂姆·罗斯 | 英国 | 安东尼·霍普金斯 | 音乐 | 二战 | 剧情 | 戏骨飚戏 | 达斯汀霍夫曼

简  介  

  根据诺曼·莱布得勒支创作的同名小说改编,讲述二战时的伦敦,两个少年马丁和道维多尔成为生死之交。道维多尔是个从华沙流亡过来的小提琴手,寄居在马丁家。然而,就在道维多尔的小提琴独奏会的首演当晚,他却神秘地失踪了,这件事成了马丁几十年的心结。
  1. Video
  2. ID                                       : 1
  3. Format                                   : AVC
  4. Format/Info                              : Advanced Video Codec
  5. Format profile                           : High@L4
  6. Format settings                          : CABAC / 4 Ref Frames
  7. Format settings, CABAC                   : Yes
  8. Format settings, Reference frames        : 4 frames
  9. Codec ID                                 : V_MPEG4/ISO/AVC
  10. Duration                                 : 1 h 53 min
  11. Bit rate mode                            : Constant
  12. Bit rate                                 : 3 908 kb/s
  13. Nominal bit rate                         : 10 000 kb/s
  14. Width                                    : 1 920 pixels
  15. Height                                   : 800 pixels
  16. Display aspect ratio                     : 2.40:1
  17. Frame rate mode                          : Constant
  18. Frame rate                               : 23.976 (24000/1001/189150) FPS
  19. Color space                              : YUV
  20. Chroma subsampling                       : 4:2:0
  21. Bit depth                                : 8 bits
  22. Scan type                                : Progressive
  23. Bits/(Pixel*Frame)                       : 0.106
  24. Stream size                              : 3.09 GiB (86%)
  25. Default                                  : Yes
  26. Forced                                   : No
  27. Color range                              : Limited
  28. Color primaries                          : BT.709
  29. Transfer characteristics                 : BT.709
  30. Matrix coefficients                      : BT.709

  31. Audio
  32. ID                                       : 2
  33. Format                                   : E-AC-3
  34. Format/Info                              : Enhanced AC-3
  35. Commercial name                          : Dolby Digital Plus
  36. Codec ID                                 : A_EAC3
  37. Duration                                 : 1 h 53 min
  38. Bit rate mode                            : Constant
  39. Bit rate                                 : 640 kb/s
  40. Channel(s)                               : 6 channels
  41. Channel layout                           : L R C LFE Ls Rs
  42. Sampling rate                            : 48.0 kHz
  43. Frame rate                               : 31.250 FPS (1536 SPF)
  44. Compression mode                         : Lossy
  45. Stream size                              : 518 MiB (14%)
  46. Language                                 : English
  47. Service kind                             : Complete Main
  48. Default                                  : Yes
  49. Forced                                   : No

  50. Text #1
  51. ID                                       : 3
  52. Format                                   : UTF-8
  53. Codec ID                                 : S_TEXT/UTF8
  54. Codec ID/Info                            : UTF-8 Plain Text
  55. Duration                                 : 1 h 42 min
  56. Bit rate                                 : 41 b/s
  57. Count of elements                        : 1029
  58. Stream size                              : 31.6 KiB (0%)
  59. Language                                 : English
  60. Default                                  : No
  61. Forced                                   : No

  62. Text #2
  63. ID                                       : 4
  64. Format                                   : UTF-8
  65. Codec ID                                 : S_TEXT/UTF8
  66. Codec ID/Info                            : UTF-8 Plain Text
  67. Duration                                 : 1 h 48 min
  68. Bit rate                                 : 44 b/s
  69. Count of elements                        : 1239
  70. Stream size                              : 35.5 KiB (0%)
  71. Title                                    : SDH
  72. Language                                 : English
  73. Default                                  : No
  74. Forced                                   : No
复制代码

名字之歌 The.Song.Of.Names.2019.1080p.AMZN.WEBRip.DDP5.1.x264-NTG 3.60GB-2.png 名字之歌 The.Song.Of.Names.2019.1080p.AMZN.WEBRip.DDP5.1.x264-NTG 3.60GB-3.png 名字之歌 The.Song.Of.Names.2019.1080p.AMZN.WEBRip.DDP5.1.x264-NTG 3.60GB-4.png






回复

使用道具 举报

 成长值: 2710

发表于 2020-3-26 08:32:15 | 显示全部楼层
太好啦&萬分感謝版主的無私發佈分享%
回复 支持 反对

使用道具 举报

发表于 2020-3-26 11:22:15 | 显示全部楼层

我看不错噢 谢谢楼主!蓝光电影网越来越好!
回复 支持 反对

使用道具 举报

发表于 2020-3-26 20:05:53 | 显示全部楼层

这个帖子不回对不起自己!我想我是一天也不能离开蓝光电影网
回复 支持 反对

使用道具 举报

懒得打字嘛,点击右侧快捷回复 【右侧内容,后台自定义】
您需要登录后才可以回帖 登录 | 立即加入

本版积分规则

现在加入蓝光电影网,注册一个账号
上个主题 下个主题 快速回复 收藏帖子 返回列表 客服中心 搜索

手机版|小黑屋| 蓝光电影网 |网站地图 

Copyright © 2015-2019 Comsenz Inc.  Template by 蓝光电影论坛 All Rights Reserved.

Powered by 蓝光电影网 X3.4

特别声明:本站所有资源均由网上收集而来,版权归原影音公司所有,如果侵犯了你的权益,请通知我们,我们会及时删除侵权内容.

快速回复 返回顶部 返回列表