找回密码

蓝光电影网

查看: 737|回复: 20

[其他] 撩乱的裸舞曲 Aroused.By.Gymnopedies.2016.1080p.BluRay.x264-REGRET 6.56GB

[复制链接]

 成长值: 25300

发表于 2020-3-26 00:34:07 | 显示全部楼层 |阅读模式
撩乱的裸舞曲 Aroused.By.Gymnopedies.2016.1080p.BluRay.x264-REGRET 6.56GB-1.png

译  名 撩乱的裸舞曲 / Aroused by Gymnopedies / 裸舞狂情
片  名 ジムノペディに乱れる
年  代 2016
产  地 日本
类  别 情色
语  言 日语
上映日期 2016-11-26(日本)
IMDb评分  5.5/10 from 164 users
IMDb链接  https://www.imdb.com/title/tt5999588
豆瓣评分 5.9/10 from 2785 users
豆瓣链接 https://movie.douban.com/subject/26872550/
片  长 81分钟
导  演 行定勋 Isao Yukisada
编  剧 行定勋 Isao Yukisada / 堀泉杏 Anne Horiizumi
主  演 板尾创路 Itsuji Itao
       芦那すみれ Sumire Ashina
       岡村いずみ Izumi Okamura


标  签 情色 | 日本电影 | 日本 | 粉红电影 | 2016 | 日影 | 粉红映画 | 日活

简  介  

  电影公司「日活」创业百年,最具代表性的一个品牌,是在七、 八十年代风靡一时的「粉红映画」(日文叫Roman Porno,海外称之为Pink Movie),亦即是浪漫化的成人电影。今年适逢「粉红映画」诞生四十五周年,「日活」特别筹划了「Roman Porno Reboot」计划,找来园子温、行定勳、中田秀夫、盐田明彦、白石和弥五位名导操刀,各拍一部粉红片。五人要跟足过往的游戏规则:每十分钟要有一场情慾戏、片长必须在七十至八十分钟之间、一律只有很低的製作费、要一星期内完成拍摄,其他一切自由发挥。结果证明五位导演不但玩得起,而且还玩得极有一手。
  盐田的《湿濡的女人》最先曝光,重新演绎「粉红」经典《湿濡的恋人们》,讲野性少女在海边故意湿身,然后贱价卖身给路过的男人。白石执导的《雌猫们》同样向经典《雌猫们之夜》致敬,新版搬到池袋街头上演,讲在网吧打趸的难民、单亲妈妈和不育人妻在夜间浪荡的性活动。行定勳的《撩乱的裸舞曲》则是原创故事,谐星板尾创路演脑闭塞导演,陷入了女色陷阱,搞到身败名裂。《午夜凶铃》导演中田秀夫初战成人世界,打动了九十后女优飞鸟凛全裸演出女同志故事《白百合》。向来出位的园子温就尽展其反叛本色,以毒攻毒,用色情反色情拍了《Antiporno》,找来前AKB成员富手麻妙首次全裸主演。
  「粉红映画」之所以留名几十年,是因为「淫」得有道,成本低但剧本扎实,而且是当时年轻新导磨练技艺的修罗场,《礼仪师》奥斯卡导演泷田洋二郎、《谈谈情,跳跳舞》的周防正行、《死亡笔记》的金子修介、《后乐园》已故导演森田芳光等大导出道时都拍过粉红片。停产了廿八年的粉红系列今次一口气推出五片,别具意义,将陆续于十一月底起在日本上映。
  1. Video
  2. ID                                       : 1
  3. Format                                   : AVC
  4. Format/Info                              : Advanced Video Codec
  5. Format profile                           : High@L4
  6. Format settings                          : CABAC / 5 Ref Frames
  7. Format settings, CABAC                   : Yes
  8. Format settings, Reference frames        : 5 frames
  9. Codec ID                                 : V_MPEG4/ISO/AVC
  10. Duration                                 : 1 h 22 min
  11. Bit rate                                 : 9 839 kb/s
  12. Width                                    : 1 920 pixels
  13. Height                                   : 808 pixels
  14. Display aspect ratio                     : 2.40:1
  15. Frame rate mode                          : Constant
  16. Frame rate                               : 24.000 FPS
  17. Color space                              : YUV
  18. Chroma subsampling                       : 4:2:0
  19. Bit depth                                : 8 bits
  20. Scan type                                : Progressive
  21. Bits/(Pixel*Frame)                       : 0.264
  22. Stream size                              : 5.69 GiB (87%)
  23. Writing library                          : x264 core 159 r2991 1771b55
  24. Encoding settings                        : cabac=1 / ref=5 / deblock=1:-3:-3 / analyse=0x3:0x133 / me=umh / subme=9 / psy=1 / psy_rd=1.00:0.00 / mixed_ref=1 / me_range=16 / chroma_me=1 / trellis=2 / 8x8dct=1 / cqm=0 / deadzone=21,11 / fast_pskip=0 / chroma_qp_offset=-2 / threads=24 / lookahead_threads=2 / sliced_threads=0 / nr=0 / decimate=1 / interlaced=0 / bluray_compat=0 / constrained_intra=0 / bframes=3 / b_pyramid=2 / b_adapt=1 / b_bias=0 / direct=3 / weightb=1 / open_gop=0 / weightp=2 / keyint=240 / keyint_min=24 / scenecut=40 / intra_refresh=0 / rc_lookahead=50 / rc=2pass / mbtree=1 / bitrate=9839 / ratetol=1.0 / qcomp=0.60 / qpmin=0 / qpmax=69 / qpstep=4 / cplxblur=20.0 / qblur=0.5 / ip_ratio=1.40 / aq=1:1.00
  25. Language                                 : English
  26. Default                                  : Yes
  27. Forced                                   : No

  28. Audio
  29. ID                                       : 2
  30. Format                                   : DTS
  31. Format/Info                              : Digital Theater Systems
  32. Codec ID                                 : A_DTS
  33. Duration                                 : 1 h 22 min
  34. Bit rate mode                            : Constant
  35. Bit rate                                 : 1 509 kb/s
  36. Channel(s)                               : 2 channels
  37. Channel layout                           : L R
  38. Sampling rate                            : 48.0 kHz
  39. Frame rate                               : 93.750 FPS (512 SPF)
  40. Bit depth                                : 24 bits
  41. Compression mode                         : Lossy
  42. Stream size                              : 893 MiB (13%)
  43. Language                                 : Japanese
  44. Default                                  : Yes
  45. Forced                                   : No

  46. Text #1
  47. ID                                       : 3
  48. Format                                   : UTF-8
  49. Codec ID                                 : S_TEXT/UTF8
  50. Codec ID/Info                            : UTF-8 Plain Text
  51. Duration                                 : 1 h 22 min
  52. Bit rate                                 : 20 b/s
  53. Count of elements                        : 618
  54. Stream size                              : 12.3 KiB (0%)
  55. Title                                    : English Forced
  56. Language                                 : English
  57. Default                                  : Yes
  58. Forced                                   : Yes

  59. Text #2
  60. ID                                       : 4
  61. Format                                   : UTF-8
  62. Codec ID                                 : S_TEXT/UTF8
  63. Codec ID/Info                            : UTF-8 Plain Text
  64. Duration                                 : 1 h 22 min
  65. Bit rate                                 : 25 b/s
  66. Count of elements                        : 600
  67. Stream size                              : 15.3 KiB (0%)
  68. Title                                    : French
  69. Language                                 : French
  70. Default                                  : No
  71. Forced                                   : No

  72. Menu
  73. 00:00:00.000                             : en:Chapter 01
  74. 00:08:34.083                             : en:Chapter 02
  75. 00:15:31.417                             : en:Chapter 03
  76. 00:22:54.875                             : en:Chapter 04
  77. 00:29:56.833                             : en:Chapter 05
  78. 00:37:27.333                             : en:Chapter 06
  79. 00:42:37.375                             : en:Chapter 07
  80. 00:47:48.458                             : en:Chapter 08
  81. 00:55:41.958                             : en:Chapter 09
  82. 01:04:13.625                             : en:Chapter 10
  83. 01:09:06.833                             : en:Chapter 11
  84. 01:15:46.375                             : en:Chapter 12
  85. 00:10:00.000                             : en:Chapter 13
复制代码

撩乱的裸舞曲 Aroused.By.Gymnopedies.2016.1080p.BluRay.x264-REGRET 6.56GB-2.png






回复

使用道具 举报

 成长值: 1045

发表于 2020-3-26 08:22:32 | 显示全部楼层
楼主发贴辛苦了,谢谢楼主分享!我觉得蓝光电影网是注册对了!
回复 支持 反对

使用道具 举报

发表于 2020-3-26 08:35:44 | 显示全部楼层
谢谢分享快乐每一天
回复 支持 反对

使用道具 举报

发表于 2020-3-26 08:46:31 | 显示全部楼层
楼主发贴辛苦了,谢谢楼主分享!我觉得蓝光电影网是注册对了!
回复 支持 反对

使用道具 举报

发表于 2020-3-26 08:55:22 | 显示全部楼层
喜欢日本的电影
回复 支持 反对

使用道具 举报

发表于 2020-3-26 08:58:13 | 显示全部楼层
楼主发贴辛苦了,谢谢楼主分享!我觉得蓝光电影网是注册对了!
回复 支持 反对

使用道具 举报

发表于 2020-3-26 10:34:49 | 显示全部楼层
这到底是情色片还是故事片?
回复 支持 反对

使用道具 举报

发表于 2020-3-26 11:10:31 | 显示全部楼层

这东西我收了!谢谢楼主!蓝光电影网真好!
回复 支持 反对

使用道具 举报

发表于 2020-3-26 11:17:42 | 显示全部楼层

楼主太厉害了!楼主,电影应该很好看我觉得蓝光电影网真是个好地方!
回复 支持 反对

使用道具 举报

发表于 2020-3-26 13:18:38 | 显示全部楼层

其实我一直觉得楼主的品味不错!呵呵!蓝光电影网太棒了!
回复 支持 反对

使用道具 举报

懒得打字嘛,点击右侧快捷回复 【右侧内容,后台自定义】
您需要登录后才可以回帖 登录 | 立即加入

本版积分规则

现在加入蓝光电影网,注册一个账号
上个主题 下个主题 快速回复 收藏帖子 返回列表 客服中心 搜索

手机版|小黑屋| 蓝光电影网 |网站地图 

Copyright © 2015-2019 Comsenz Inc.  Template by 蓝光电影论坛 All Rights Reserved.

Powered by 蓝光电影网 X3.4

特别声明:本站所有资源均由网上收集而来,版权归原影音公司所有,如果侵犯了你的权益,请通知我们,我们会及时删除侵权内容.

快速回复 返回顶部 返回列表