找回密码

蓝光电影网

查看: 767|回复: 21

[REMUX.HEVC] 速度与激情7 Furious.Seven.2015.EXTENDED.2160p.BluRay.REMUX.HEVC.DTS-HR.7.1-FGT 46.16GB

[复制链接]

 成长值: 25300

发表于 2020-3-20 00:03:14 | 显示全部楼层 |阅读模式
速度与激情7 Furious.Seven.2015.EXTENDED.2160p.BluRay.REMUX.HEVC.DTS-HR.7.1-FGT 46.16GB-1.jpg

译  名 速度与激情7/狂野时速7(港)/玩命关头7(台)

片  名 Furious 7

年  代 2015

产  地 美国/中国大陆/日本

类  别 动作/犯罪/惊悚

语  言 英语

上映日期 2015-04-03(美国)/2015-04-12(中国大陆)

IMDb评分  7.2/10 from 310,269 users

IMDb链接  http://www.imdb.com/title/tt2820852/

豆瓣评分 8.3/10 from 256,305 users

豆瓣链接 https://movie.douban.com/subject/23761370/

片  长 137分钟/140分钟(加长版)

导  演 温子仁 James Wan

主  演 范·迪塞尔 Vin Diesel

      保罗·沃克 Paul Walker

      杰森·斯坦森 Jason Statham

      米歇尔·罗德里格兹 Michelle Rodriguez

      乔丹娜·布鲁斯特 Jordana Brewster

      泰瑞斯·吉布森 Tyrese Gibson

      卢达·克里斯 Ludacris

      道恩·强森 Dwayne Johnson

      卢卡斯·布莱克 Lucas Black

      库尔特·拉塞尔 Kurt Russell

      娜塔莉·伊曼纽尔 Nathalie Emmanuel

      埃尔莎·帕塔奇 Elsa Pataky

      盖尔·加朵 Gal Gadot

      约翰·布罗特顿 John Brotherton

      卢克·伊万斯 Luke Evans

      托尼·贾 Tony Jaa

      杰曼·翰苏 Djimon Hounsou

      诺尔·古格雷米 Noel Gugliemi

      阿里·扎勒 Ali Fazal

      姜成镐 Sung Kang

      龙达·鲁西 Ronda Rousey

      伊吉·阿德利亚 Iggy Azalea

      乔恩·李·布罗迪 Jon Lee Brody




简  介




  经历了紧张刺激的伦敦大战,多米尼克·托雷托(范·迪塞尔 Vin Diesel 饰)和他的伙伴们重新回归平静的生活,但是江湖的恩恩怨怨却决不允许他们轻易抽身而去。棘手的死对头欧文·肖瘫在医院,不得动弹,他的哥哥戴克·肖(杰森·斯坦森 Jason Stantham 饰)则发誓要为弟弟复仇。戴克曾是美国特种部队的王牌杀手,不仅身怀绝技,而且心狠手辣。他干掉了远在东京的韩,还几乎把探长卢克·霍布斯(道恩·强森 Dwayne Johnson 饰)送到另一个世界,甚至多米尼克那世外桃源般的家也被对方炸毁。

  复仇的利刃已经架在脖子上,多米尼克再也没有选择,他找到长久以来最为信赖的团队,与来势汹汹的戴克展开生死对决……




获奖情况




  第73届金球奖  (2016)

  电影类 最佳原创歌曲(提名)




  第22届美国演员工会奖  (2016)

  电影最佳特技群像(提名)




  第14届美国视觉效果协会奖  (2016)

  最佳特效电影视觉效果(提名)




  第21届美国评论家选择电影奖  (2016)

  最佳歌曲

  最佳动作片(提名)




  第17届美国青少年选择奖  (2015)

  最佳动作片

  最佳动作片男演员 保罗·沃克

  最佳动作片男演员(提名) 范·迪塞尔

  最佳动作片女演员(提名) 乔丹娜·布鲁斯特 / 米歇尔·罗德里格兹

  最佳电影反派(提名) 杰森·斯坦森

  最佳银幕拍档(提名) 道恩·强森 / 乔丹娜·布鲁斯特 / 米歇尔·罗德里格兹 / 保罗·沃克 / 卢达克里斯 / 泰瑞斯·吉布森 / 范·迪塞尔




  第6届豆瓣电影鑫像奖  (2016)

  鑫豆单元 最佳影片(外语)(提名)

  鑫豆单元 最佳科幻/动作片(提名)

  鑫豆单元 最佳歌曲(提名)




  第2届豆瓣电影年度榜单  (2015)

  4月最受关注电影

  评分最高的外语电影(提名)

  最受关注的院线电影(提名)





  1. Video
  2. ID                                       : 1
  3. Format                                   : HEVC
  4. Format/Info                              : High Efficiency Video Coding
  5. Format profile                           : Main High@L4@High
  6. Codec ID                                 : V_MPEGH/ISO/HEVC
  7. Duration                                 : 2 h 19 min
  8. Bit rate                                 : 42.0 Mb/s
  9. Width                                    : 3 840 pixels
  10. Height                                   : 2 160 pixels
  11. Display aspect ratio                     : 16:9
  12. Frame rate mode                          : Constant
  13. Frame rate                               : 23.976 (24000/1001) FPS
  14. Color space                              : YUV
  15. Chroma subsampling                       : 4:2:0 (Type 2)
  16. Bit depth                                : 10 bits
  17. Bits/(Pixel*Frame)                       : 0.211
  18. Stream size                              : 41.0 GiB (89%)
  19. Title                                    : Furious.Seven.2015.EXTENDED.2160p.BluRay.REMUX.HEVC.DTS-HR.7.1-FGT
  20. Writing library                          : ATEME Titan File 3.7.8 (4.7.8.0)
  21. Default                                  : Yes
  22. Forced                                   : No
  23. Color range                              : Limited
  24. Color primaries                          : BT.2020
  25. Transfer characteristics                 : SMPTE ST 2084
  26. Matrix coefficients                      : BT.2020 non-constant
  27. Mastering display color primaries        : R: x=0.680000 y=0.320000, G: x=0.265000 y=0.690000, B: x=0.150000 y=0.060000, White point: x=0.312700 y=0.329000
  28. Mastering display luminance              : min: 0.0050 cd/m2, max: 1000.0000 cd/m2
  29. Maximum Content Light Level              : 703 cd/m2
  30. Maximum Frame-Average Light Level        : 304 cd/m2

  31. Audio #1
  32. ID                                       : 2
  33. Format                                   : DTS
  34. Format/Info                              : Digital Theater Systems
  35. Format profile                           : HRA / Core
  36. Mode                                     : 16
  37. Format settings, Endianness              : Big
  38. Codec ID                                 : A_DTS
  39. Duration                                 : 2 h 19 min
  40. Bit rate mode                            : Constant
  41. Bit rate                                 : 3 456 kb/s / 1 509 kb/s
  42. Channel(s)                               : 8 channels / 6 channels
  43. Channel positions                        : Front: L C R, Side: L R, Back: L R, LFE / Front: L C R, Side: L R, LFE
  44. Sampling rate                            : 48.0 kHz
  45. Frame rate                               : 93.750 FPS (512 spf)
  46. Bit depth                                : 24 bits
  47. Compression mode                         : Lossy
  48. Stream size                              : 3.38 GiB (7%)
  49. Title                                    : Furious.Seven.2015.EXTENDED.2160p.BluRay.REMUX.HEVC.DTS-HR.7.1-FGT
  50. Language                                 : English
  51. Default                                  : Yes
  52. Forced                                   : No

  53. Audio #2
  54. ID                                       : 3
  55. Format                                   : DTS
  56. Format/Info                              : Digital Theater Systems
  57. Mode                                     : 16
  58. Format settings, Endianness              : Big
  59. Codec ID                                 : A_DTS
  60. Duration                                 : 2 h 19 min
  61. Bit rate mode                            : Constant
  62. Bit rate                                 : 255 kb/s
  63. Channel(s)                               : 2 channels
  64. Channel positions                        : Front: L R
  65. Sampling rate                            : 48.0 kHz
  66. Frame rate                               : 93.750 FPS (512 spf)
  67. Bit depth                                : 24 bits
  68. Compression mode                         : Lossy
  69. Stream size                              : 255 MiB (1%)
  70. Title                                    : Furious.Seven.2015.EXTENDED.2160p.BluRay.REMUX.HEVC.DTS-HR.7.1-FGT
  71. Language                                 : English
  72. Default                                  : No
  73. Forced                                   : No

  74. Audio #3
  75. ID                                       : 4
  76. Format                                   : DTS
  77. Format/Info                              : Digital Theater Systems
  78. Mode                                     : 16
  79. Format settings, Endianness              : Big
  80. Codec ID                                 : A_DTS
  81. Duration                                 : 2 h 19 min
  82. Bit rate mode                            : Constant
  83. Bit rate                                 : 768 kb/s
  84. Channel(s)                               : 6 channels
  85. Channel positions                        : Front: L C R, Side: L R, LFE
  86. Sampling rate                            : 48.0 kHz
  87. Frame rate                               : 93.750 FPS (512 spf)
  88. Bit depth                                : 24 bits
  89. Compression mode                         : Lossy
  90. Stream size                              : 768 MiB (2%)
  91. Title                                    : Furious.Seven.2015.EXTENDED.2160p.BluRay.REMUX.HEVC.DTS-HR.7.1-FGT
  92. Language                                 : Spanish
  93. Default                                  : No
  94. Forced                                   : No

  95. Audio #4
  96. ID                                       : 5
  97. Format                                   : DTS
  98. Format/Info                              : Digital Theater Systems
  99. Mode                                     : 16
  100. Format settings, Endianness              : Big
  101. Codec ID                                 : A_DTS
  102. Duration                                 : 2 h 19 min
  103. Bit rate mode                            : Constant
  104. Bit rate                                 : 768 kb/s
  105. Channel(s)                               : 6 channels
  106. Channel positions                        : Front: L C R, Side: L R, LFE
  107. Sampling rate                            : 48.0 kHz
  108. Frame rate                               : 93.750 FPS (512 spf)
  109. Bit depth                                : 24 bits
  110. Compression mode                         : Lossy
  111. Stream size                              : 768 MiB (2%)
  112. Title                                    : Furious.Seven.2015.EXTENDED.2160p.BluRay.REMUX.HEVC.DTS-HR.7.1-FGT
  113. Language                                 : French
  114. Default                                  : No
  115. Forced                                   : No

  116. Text #1
  117. ID                                       : 6
  118. Format                                   : PGS
  119. Muxing mode                              : zlib
  120. Codec ID                                 : S_HDMV/PGS
  121. Codec ID/Info                            : Picture based subtitle format used on BDs/HD-DVDs
  122. Duration                                 : 2 h 10 min
  123. Bit rate                                 : 33.0 kb/s
  124. Count of elements                        : 3340
  125. Stream size                              : 30.9 MiB (0%)
  126. Title                                    : English-PGS
  127. Language                                 : English
  128. Default                                  : Yes
  129. Forced                                   : No

  130. Text #2
  131. ID                                       : 7
  132. Format                                   : PGS
  133. Muxing mode                              : zlib
  134. Codec ID                                 : S_HDMV/PGS
  135. Codec ID/Info                            : Picture based subtitle format used on BDs/HD-DVDs
  136. Duration                                 : 2 h 10 min
  137. Bit rate                                 : 26.5 kb/s
  138. Count of elements                        : 2844
  139. Stream size                              : 24.8 MiB (0%)
  140. Title                                    : Spanish-PGS
  141. Language                                 : Spanish
  142. Default                                  : No
  143. Forced                                   : No

  144. Text #3
  145. ID                                       : 8
  146. Format                                   : PGS
  147. Muxing mode                              : zlib
  148. Codec ID                                 : S_HDMV/PGS
  149. Codec ID/Info                            : Picture based subtitle format used on BDs/HD-DVDs
  150. Duration                                 : 2 h 19 min
  151. Bit rate                                 : 25.7 kb/s
  152. Count of elements                        : 2822
  153. Stream size                              : 25.5 MiB (0%)
  154. Title                                    : French-PGS
  155. Language                                 : French
  156. Default                                  : No
  157. Forced                                   : No

  158. Text #4
  159. ID                                       : 9
  160. Format                                   : PGS
  161. Muxing mode                              : zlib
  162. Codec ID                                 : S_HDMV/PGS
  163. Codec ID/Info                            : Picture based subtitle format used on BDs/HD-DVDs
  164. Duration                                 : 2 h 11 min
  165. Bit rate                                 : 280 b/s
  166. Count of elements                        : 56
  167. Stream size                              : 270 KiB (0%)
  168. Title                                    : Spanish-FORCED-PGS
  169. Language                                 : Spanish
  170. Default                                  : No
  171. Forced                                   : No

  172. Text #5
  173. ID                                       : 10
  174. Format                                   : PGS
  175. Muxing mode                              : zlib
  176. Codec ID                                 : S_HDMV/PGS
  177. Codec ID/Info                            : Picture based subtitle format used on BDs/HD-DVDs
  178. Duration                                 : 2 h 19 min
  179. Bit rate                                 : 1 300 b/s
  180. Count of elements                        : 126
  181. Stream size                              : 1.29 MiB (0%)
  182. Title                                    : French-FORCED-PGS
  183. Language                                 : French
  184. Default                                  : No
  185. Forced                                   : No

  186. Menu
  187. 00:00:00.000                             : en:Chapter 1
  188. 00:04:39.946                             : en:Chapter 2
  189. 00:11:29.480                             : en:Chapter 3
  190. 00:16:39.289                             : en:Chapter 4
  191. 00:25:54.052                             : en:Chapter 5
  192. 00:33:43.896                             : en:Chapter 6
  193. 00:41:44.585                             : en:Chapter 7
  194. 00:46:41.006                             : en:Chapter 8
  195. 00:52:10.710                             : en:Chapter 9
  196. 01:02:31.414                             : en:Chapter 10
  197. 01:06:16.680                             : en:Chapter 11
  198. 01:14:16.868                             : en:Chapter 12
  199. 01:22:34.032                             : en:Chapter 13
  200. 01:33:21.137                             : en:Chapter 14
  201. 01:38:27.484                             : en:Chapter 15
  202. 01:45:40.083                             : en:Chapter 16
  203. 01:53:54.452                             : en:Chapter 17
  204. 01:58:31.062                             : en:Chapter 18
  205. 02:06:19.863                             : en:Chapter 19
  206. 02:11:31.174                             : en:Chapter 20
复制代码







速度与激情7 Furious.Seven.2015.EXTENDED.2160p.BluRay.REMUX.HEVC.DTS-HR.7.1-FGT 46.16GB-2.jpg 速度与激情7 Furious.Seven.2015.EXTENDED.2160p.BluRay.REMUX.HEVC.DTS-HR.7.1-FGT 46.16GB-3.jpg
速度与激情7 Furious.Seven.2015.EXTENDED.2160p.BluRay.REMUX.HEVC.DTS-HR.7.1-FGT 46.16GB-4.jpg 速度与激情7 Furious.Seven.2015.EXTENDED.2160p.BluRay.REMUX.HEVC.DTS-HR.7.1-FGT 46.16GB-5.jpg
速度与激情7 Furious.Seven.2015.EXTENDED.2160p.BluRay.REMUX.HEVC.DTS-HR.7.1-FGT 46.16GB-6.jpg 速度与激情7 Furious.Seven.2015.EXTENDED.2160p.BluRay.REMUX.HEVC.DTS-HR.7.1-FGT 46.16GB-7.jpg





回复

使用道具 举报

发表于 2020-3-20 16:01:00 | 显示全部楼层

我看不错噢 谢谢楼主!蓝光电影网越来越好!
回复 支持 反对

使用道具 举报

发表于 2020-3-20 17:46:52 | 显示全部楼层
谢谢分享好片
回复 支持 反对

使用道具 举报

 成长值: 2400

发表于 2020-3-20 18:19:58 | 显示全部楼层
谢谢楼主无私分享。
回复 支持 反对

使用道具 举报

发表于 2020-3-21 09:39:14 | 显示全部楼层
楼主发贴辛苦了,谢谢楼主分享!我觉得蓝光电影网是注册对了!
回复 支持 反对

使用道具 举报

发表于 2020-3-21 12:53:28 | 显示全部楼层

这东西我收了!谢谢楼主!蓝光电影网真好!
回复 支持 反对

使用道具 举报

发表于 2020-3-21 22:32:26 | 显示全部楼层
楼主发贴辛苦了,谢谢楼主分享!我觉得蓝光电影网是注册对了!
回复 支持 反对

使用道具 举报

发表于 2020-3-22 00:07:38 | 显示全部楼层
楼主发贴辛苦了,谢谢楼主分享!我觉得蓝光电影网是注册对了!
回复 支持 反对

使用道具 举报

发表于 2020-3-23 11:03:44 | 显示全部楼层

楼主太厉害了!楼主,电影应该很好看我觉得蓝光电影网真是个好地方!
回复 支持 反对

使用道具 举报

 成长值: 3570

发表于 2020-3-23 18:12:03 | 显示全部楼层
先谢楼主分享资源
回复 支持 反对

使用道具 举报

懒得打字嘛,点击右侧快捷回复 【右侧内容,后台自定义】
您需要登录后才可以回帖 登录 | 立即加入

本版积分规则

现在加入蓝光电影网,注册一个账号
上个主题 下个主题 快速回复 收藏帖子 返回列表 客服中心 搜索

手机版|小黑屋| 蓝光电影网 |网站地图 

Copyright © 2015-2019 Comsenz Inc.  Template by 蓝光电影论坛 All Rights Reserved.

Powered by 蓝光电影网 X3.4

特别声明:本站所有资源均由网上收集而来,版权归原影音公司所有,如果侵犯了你的权益,请通知我们,我们会及时删除侵权内容.

快速回复 返回顶部 返回列表