找回密码

蓝光电影网

查看: 419|回复: 16

[8bit.SDR] 速度与激情7 Furious.Seven.2015.EXTENDED.2160p.BluRay.x264.8bit.SDR.DTS-HR.7.1-SWTYBLZ 39.12GB

[复制链接]

 成长值: 25300

发表于 2020-3-20 00:01:50 | 显示全部楼层 |阅读模式
速度与激情7 Furious.Seven.2015.EXTENDED.2160p.BluRay.x264.8bit.SDR.DTS-HR.7.1-SWTYBLZ 39.12GB-1.jpg

译  名 速度与激情7/狂野时速7(港)/玩命关头7(台)

片  名 Furious 7

年  代 2015

产  地 美国/中国大陆/日本

类  别 动作/犯罪/惊悚

语  言 英语

上映日期 2015-04-03(美国)/2015-04-12(中国大陆)

IMDb评分  7.2/10 from 310,269 users

IMDb链接  http://www.imdb.com/title/tt2820852/

豆瓣评分 8.3/10 from 256,305 users

豆瓣链接 https://movie.douban.com/subject/23761370/

片  长 137分钟/140分钟(加长版)

导  演 温子仁 James Wan

主  演 范·迪塞尔 Vin Diesel

      保罗·沃克 Paul Walker

      杰森·斯坦森 Jason Statham

      米歇尔·罗德里格兹 Michelle Rodriguez

      乔丹娜·布鲁斯特 Jordana Brewster

      泰瑞斯·吉布森 Tyrese Gibson

      卢达·克里斯 Ludacris

      道恩·强森 Dwayne Johnson

      卢卡斯·布莱克 Lucas Black

      库尔特·拉塞尔 Kurt Russell

      娜塔莉·伊曼纽尔 Nathalie Emmanuel

      埃尔莎·帕塔奇 Elsa Pataky

      盖尔·加朵 Gal Gadot

      约翰·布罗特顿 John Brotherton

      卢克·伊万斯 Luke Evans

      托尼·贾 Tony Jaa

      杰曼·翰苏 Djimon Hounsou

      诺尔·古格雷米 Noel Gugliemi

      阿里·扎勒 Ali Fazal

      姜成镐 Sung Kang

      龙达·鲁西 Ronda Rousey

      伊吉·阿德利亚 Iggy Azalea

      乔恩·李·布罗迪 Jon Lee Brody




简  介




  经历了紧张刺激的伦敦大战,多米尼克·托雷托(范·迪塞尔 Vin Diesel 饰)和他的伙伴们重新回归平静的生活,但是江湖的恩恩怨怨却决不允许他们轻易抽身而去。棘手的死对头欧文·肖瘫在医院,不得动弹,他的哥哥戴克·肖(杰森·斯坦森 Jason Stantham 饰)则发誓要为弟弟复仇。戴克曾是美国特种部队的王牌杀手,不仅身怀绝技,而且心狠手辣。他干掉了远在东京的韩,还几乎把探长卢克·霍布斯(道恩·强森 Dwayne Johnson 饰)送到另一个世界,甚至多米尼克那世外桃源般的家也被对方炸毁。

  复仇的利刃已经架在脖子上,多米尼克再也没有选择,他找到长久以来最为信赖的团队,与来势汹汹的戴克展开生死对决……




获奖情况




  第73届金球奖  (2016)

  电影类 最佳原创歌曲(提名)




  第22届美国演员工会奖  (2016)

  电影最佳特技群像(提名)




  第14届美国视觉效果协会奖  (2016)

  最佳特效电影视觉效果(提名)




  第21届美国评论家选择电影奖  (2016)

  最佳歌曲

  最佳动作片(提名)




  第17届美国青少年选择奖  (2015)

  最佳动作片

  最佳动作片男演员 保罗·沃克

  最佳动作片男演员(提名) 范·迪塞尔

  最佳动作片女演员(提名) 乔丹娜·布鲁斯特 / 米歇尔·罗德里格兹

  最佳电影反派(提名) 杰森·斯坦森

  最佳银幕拍档(提名) 道恩·强森 / 乔丹娜·布鲁斯特 / 米歇尔·罗德里格兹 / 保罗·沃克 / 卢达克里斯 / 泰瑞斯·吉布森 / 范·迪塞尔




  第6届豆瓣电影鑫像奖  (2016)

  鑫豆单元 最佳影片(外语)(提名)

  鑫豆单元 最佳科幻/动作片(提名)

  鑫豆单元 最佳歌曲(提名)




  第2届豆瓣电影年度榜单  (2015)

  4月最受关注电影

  评分最高的外语电影(提名)

  最受关注的院线电影(提名)






  1. Video
  2. ID                                       : 1
  3. Format                                   : AVC
  4. Format/Info                              : Advanced Video Codec
  5. Format profile                           : High@L4
  6. Format settings, CABAC                   : Yes
  7. Format settings, ReFrames                : 5 frames
  8. Codec ID                                 : V_MPEG4/ISO/AVC
  9. Duration                                 : 2 h 19 min
  10. Bit rate                                 : 35.6 Mb/s
  11. Width                                    : 3 840 pixels
  12. Height                                   : 1 600 pixels
  13. Display aspect ratio                     : 2.40:1
  14. Frame rate mode                          : Constant
  15. Frame rate                               : 23.976 (24000/1001) FPS
  16. Color space                              : YUV
  17. Chroma subsampling                       : 4:2:0
  18. Bit depth                                : 8 bits
  19. Scan type                                : Progressive
  20. Bits/(Pixel*Frame)                       : 0.241
  21. Stream size                              : 34.8 GiB (90%)
  22. Title                                    : Furious.7.2015.EXTENDED.2160p.BluRay.x264.8bit.SDR.DTS-HR.7.1-SWTYBLZ
  23. Writing library                          : x264 core 148 r2748 97eaef2
  24. Encoding settings                        : cabac=1 / ref=5 / deblock=1:-1:-1 / analyse=0x3:0x113 / me=umh / subme=10 / psy=1 / psy_rd=1.00:0.15 / mixed_ref=1 / me_range=48 / chroma_me=1 / trellis=2 / 8x8dct=1 / cqm=0 / deadzone=21,11 / fast_pskip=1 / chroma_qp_offset=-3 / threads=50 / lookahead_threads=4 / sliced_threads=0 / nr=0 / decimate=0 / interlaced=0 / bluray_compat=0 / constrained_intra=0 / bframes=3 / b_pyramid=2 / b_adapt=2 / b_bias=0 / direct=3 / weightb=1 / open_gop=0 / weightp=2 / keyint=250 / keyint_min=23 / scenecut=40 / intra_refresh=0 / rc_lookahead=50 / rc=crf / mbtree=1 / crf=18.0 / qcomp=0.60 / qpmin=0 / qpmax=69 / qpstep=4 / ip_ratio=1.40 / aq=1:1.00
  25. Default                                  : Yes
  26. Forced                                   : No

  27. Audio #1
  28. ID                                       : 2
  29. Format                                   : DTS
  30. Format/Info                              : Digital Theater Systems
  31. Format profile                           : HRA / Core
  32. Mode                                     : 16
  33. Format settings, Endianness              : Big
  34. Codec ID                                 : A_DTS
  35. Duration                                 : 2 h 19 min
  36. Bit rate mode                            : Constant
  37. Bit rate                                 : 3 456 kb/s / 1 509 kb/s
  38. Channel(s)                               : 8 channels / 6 channels
  39. Channel positions                        : Front: L C R, Side: L R, Back: L R, LFE / Front: L C R, Side: L R, LFE
  40. Sampling rate                            : 48.0 kHz
  41. Frame rate                               : 93.750 FPS (512 spf)
  42. Bit depth                                : 24 bits
  43. Compression mode                         : Lossy
  44. Stream size                              : 3.38 GiB (9%)
  45. Title                                    : Furious.7.2015.EXTENDED.2160p.BluRay.x264.8bit.SDR.DTS-HR.7.1-SWTYBLZ
  46. Language                                 : English
  47. Default                                  : Yes
  48. Forced                                   : No

  49. Audio #2
  50. ID                                       : 3
  51. Format                                   : AC-3
  52. Format/Info                              : Audio Coding 3
  53. Format settings, Endianness              : Big
  54. Codec ID                                 : A_AC3
  55. Duration                                 : 2 h 19 min
  56. Bit rate mode                            : Constant
  57. Bit rate                                 : 640 kb/s
  58. Channel(s)                               : 6 channels
  59. Channel positions                        : Front: L C R, Side: L R, LFE
  60. Sampling rate                            : 48.0 kHz
  61. Frame rate                               : 31.250 FPS (1536 spf)
  62. Bit depth                                : 16 bits
  63. Compression mode                         : Lossy
  64. Stream size                              : 640 MiB (2%)
  65. Title                                    : Furious.7.2015.EXTENDED.2160p.BluRay.x264.8bit.SDR.DTS-HR.7.1-SWTYBLZ
  66. Language                                 : English
  67. Service kind                             : Complete Main
  68. Default                                  : No
  69. Forced                                   : No

  70. Text #1
  71. ID                                       : 4
  72. Format                                   : UTF-8
  73. Codec ID                                 : S_TEXT/UTF8
  74. Codec ID/Info                            : UTF-8 Plain Text
  75. Duration                                 : 2 h 10 min
  76. Bit rate                                 : 45 b/s
  77. Count of elements                        : 1464
  78. Stream size                              : 43.4 KiB (0%)
  79. Title                                    : English-SRT
  80. Language                                 : English
  81. Default                                  : Yes
  82. Forced                                   : No

  83. Text #2
  84. ID                                       : 5
  85. Format                                   : PGS
  86. Muxing mode                              : zlib
  87. Codec ID                                 : S_HDMV/PGS
  88. Codec ID/Info                            : Picture based subtitle format used on BDs/HD-DVDs
  89. Duration                                 : 2 h 10 min
  90. Bit rate                                 : 33.0 kb/s
  91. Count of elements                        : 3340
  92. Stream size                              : 30.9 MiB (0%)
  93. Title                                    : English-PGS
  94. Language                                 : English
  95. Default                                  : No
  96. Forced                                   : No

  97. Text #3
  98. ID                                       : 6
  99. Format                                   : PGS
  100. Muxing mode                              : zlib
  101. Codec ID                                 : S_HDMV/PGS
  102. Codec ID/Info                            : Picture based subtitle format used on BDs/HD-DVDs
  103. Duration                                 : 2 h 10 min
  104. Bit rate                                 : 26.5 kb/s
  105. Count of elements                        : 2844
  106. Stream size                              : 24.8 MiB (0%)
  107. Title                                    : Spanish-PGS
  108. Language                                 : Spanish
  109. Default                                  : No
  110. Forced                                   : No

  111. Text #4
  112. ID                                       : 7
  113. Format                                   : PGS
  114. Muxing mode                              : zlib
  115. Codec ID                                 : S_HDMV/PGS
  116. Codec ID/Info                            : Picture based subtitle format used on BDs/HD-DVDs
  117. Duration                                 : 2 h 19 min
  118. Bit rate                                 : 25.7 kb/s
  119. Count of elements                        : 2822
  120. Stream size                              : 25.5 MiB (0%)
  121. Title                                    : French-PGS
  122. Language                                 : French
  123. Default                                  : No
  124. Forced                                   : No

  125. Text #5
  126. ID                                       : 8
  127. Format                                   : PGS
  128. Muxing mode                              : zlib
  129. Codec ID                                 : S_HDMV/PGS
  130. Codec ID/Info                            : Picture based subtitle format used on BDs/HD-DVDs
  131. Duration                                 : 2 h 11 min
  132. Bit rate                                 : 280 b/s
  133. Count of elements                        : 56
  134. Stream size                              : 270 KiB (0%)
  135. Title                                    : Spanish-FORCED-PGS
  136. Language                                 : Spanish
  137. Default                                  : No
  138. Forced                                   : No

  139. Text #6
  140. ID                                       : 9
  141. Format                                   : PGS
  142. Muxing mode                              : zlib
  143. Codec ID                                 : S_HDMV/PGS
  144. Codec ID/Info                            : Picture based subtitle format used on BDs/HD-DVDs
  145. Duration                                 : 2 h 19 min
  146. Bit rate                                 : 1 300 b/s
  147. Count of elements                        : 126
  148. Stream size                              : 1.29 MiB (0%)
  149. Title                                    : French-FORCED-PGS
  150. Language                                 : French
  151. Default                                  : No
  152. Forced                                   : No

  153. Menu
  154. 00:00:00.000                             : en:Chapter 1
  155. 00:04:39.946                             : en:Chapter 2
  156. 00:11:29.480                             : en:Chapter 3
  157. 00:16:39.289                             : en:Chapter 4
  158. 00:25:54.052                             : en:Chapter 5
  159. 00:33:43.896                             : en:Chapter 6
  160. 00:41:44.585                             : en:Chapter 7
  161. 00:46:41.006                             : en:Chapter 8
  162. 00:52:10.710                             : en:Chapter 9
  163. 01:02:31.414                             : en:Chapter 10
  164. 01:06:16.680                             : en:Chapter 11
  165. 01:14:16.868                             : en:Chapter 12
  166. 01:22:34.032                             : en:Chapter 13
  167. 01:33:21.137                             : en:Chapter 14
  168. 01:38:27.484                             : en:Chapter 15
  169. 01:45:40.083                             : en:Chapter 16
  170. 01:53:54.452                             : en:Chapter 17
  171. 01:58:31.062                             : en:Chapter 18
  172. 02:06:19.863                             : en:Chapter 19
  173. 02:11:31.174                             : en:Chapter 20
复制代码





速度与激情7 Furious.Seven.2015.EXTENDED.2160p.BluRay.x264.8bit.SDR.DTS-HR.7.1-SWTYBLZ 39.12GB-2.jpg 速度与激情7 Furious.Seven.2015.EXTENDED.2160p.BluRay.x264.8bit.SDR.DTS-HR.7.1-SWTYBLZ 39.12GB-3.jpg
速度与激情7 Furious.Seven.2015.EXTENDED.2160p.BluRay.x264.8bit.SDR.DTS-HR.7.1-SWTYBLZ 39.12GB-4.jpg 速度与激情7 Furious.Seven.2015.EXTENDED.2160p.BluRay.x264.8bit.SDR.DTS-HR.7.1-SWTYBLZ 39.12GB-5.jpg
速度与激情7 Furious.Seven.2015.EXTENDED.2160p.BluRay.x264.8bit.SDR.DTS-HR.7.1-SWTYBLZ 39.12GB-6.jpg 速度与激情7 Furious.Seven.2015.EXTENDED.2160p.BluRay.x264.8bit.SDR.DTS-HR.7.1-SWTYBLZ 39.12GB-7.jpg




回复

使用道具 举报

发表于 2020-3-20 00:55:31 | 显示全部楼层
楼主发贴辛苦了,谢谢楼主分享!我觉得蓝光电影网是注册对了!
回复 支持 反对

使用道具 举报

发表于 2020-3-20 09:39:26 | 显示全部楼层

既然你诚信诚意的推荐了,那我就勉为其难的看看吧!蓝光电影网不走平凡路。
回复 支持 反对

使用道具 举报

发表于 2020-3-20 15:29:55 | 显示全部楼层

这个帖子不回对不起自己!我想我是一天也不能离开蓝光电影网
回复 支持 反对

使用道具 举报

发表于 2020-3-20 20:11:07 | 显示全部楼层

楼主发贴辛苦了,谢谢楼主分享!我觉得蓝光电影网是注册对了!
回复 支持 反对

使用道具 举报

发表于 2020-3-21 12:50:16 | 显示全部楼层

这个帖子不回对不起自己!我想我是一天也不能离开蓝光电影网
回复 支持 反对

使用道具 举报

发表于 2020-3-22 08:45:41 | 显示全部楼层

楼主太厉害了!楼主,电影应该很好看我觉得蓝光电影网真是个好地方!
回复 支持 反对

使用道具 举报

发表于 2020-3-22 12:20:37 | 显示全部楼层

楼主太厉害了!楼主,电影应该很好看我觉得蓝光电影网真是个好地方!
回复 支持 反对

使用道具 举报

发表于 2020-3-22 20:09:41 | 显示全部楼层

楼主太厉害了!楼主,电影应该很好看我觉得蓝光电影网真是个好地方!
回复 支持 反对

使用道具 举报

发表于 2020-3-23 20:19:47 | 显示全部楼层

这东西我收了!谢谢楼主!蓝光电影网真好!
回复 支持 反对

使用道具 举报

懒得打字嘛,点击右侧快捷回复 【右侧内容,后台自定义】
您需要登录后才可以回帖 登录 | 立即加入

本版积分规则

现在加入蓝光电影网,注册一个账号
上个主题 下个主题 快速回复 收藏帖子 返回列表 客服中心 搜索

手机版|小黑屋| 蓝光电影网 |网站地图 

Copyright © 2015-2019 Comsenz Inc.  Template by 蓝光电影论坛 All Rights Reserved.

Powered by 蓝光电影网 X3.4

特别声明:本站所有资源均由网上收集而来,版权归原影音公司所有,如果侵犯了你的权益,请通知我们,我们会及时删除侵权内容.

快速回复 返回顶部 返回列表