找回密码

蓝光电影网

查看: 471|回复: 12

[10bit.SDR] 速度与激情7 Furious.Seven.2015.EXTENDED.2160p.BluRay.x265.10bit.SDR.DTS-HR.7.1-SWTYBLZ 33.39GB

[复制链接]

 成长值: 25300

发表于 2020-3-20 00:00:34 | 显示全部楼层 |阅读模式

速度与激情7 Furious.Seven.2015.EXTENDED.2160p.BluRay.x265.10bit.SDR.DTS-HR.7.1-SWTYBLZ 33.39GB-1.jpg

译  名 速度与激情7/狂野时速7(港)/玩命关头7(台)

片  名 Furious 7

年  代 2015

产  地 美国/中国大陆/日本

类  别 动作/犯罪/惊悚

语  言 英语

上映日期 2015-04-03(美国)/2015-04-12(中国大陆)

IMDb评分  7.2/10 from 310,269 users

IMDb链接  http://www.imdb.com/title/tt2820852/

豆瓣评分 8.3/10 from 256,305 users

豆瓣链接 https://movie.douban.com/subject/23761370/

片  长 137分钟/140分钟(加长版)

导  演 温子仁 James Wan

主  演 范·迪塞尔 Vin Diesel

      保罗·沃克 Paul Walker

      杰森·斯坦森 Jason Statham

      米歇尔·罗德里格兹 Michelle Rodriguez

      乔丹娜·布鲁斯特 Jordana Brewster

      泰瑞斯·吉布森 Tyrese Gibson

      卢达·克里斯 Ludacris

      道恩·强森 Dwayne Johnson

      卢卡斯·布莱克 Lucas Black

      库尔特·拉塞尔 Kurt Russell

      娜塔莉·伊曼纽尔 Nathalie Emmanuel

      埃尔莎·帕塔奇 Elsa Pataky

      盖尔·加朵 Gal Gadot

      约翰·布罗特顿 John Brotherton

      卢克·伊万斯 Luke Evans

      托尼·贾 Tony Jaa

      杰曼·翰苏 Djimon Hounsou

      诺尔·古格雷米 Noel Gugliemi

      阿里·扎勒 Ali Fazal

      姜成镐 Sung Kang

      龙达·鲁西 Ronda Rousey

      伊吉·阿德利亚 Iggy Azalea

      乔恩·李·布罗迪 Jon Lee Brody




简  介




  经历了紧张刺激的伦敦大战,多米尼克·托雷托(范·迪塞尔 Vin Diesel 饰)和他的伙伴们重新回归平静的生活,但是江湖的恩恩怨怨却决不允许他们轻易抽身而去。棘手的死对头欧文·肖瘫在医院,不得动弹,他的哥哥戴克·肖(杰森·斯坦森 Jason Stantham 饰)则发誓要为弟弟复仇。戴克曾是美国特种部队的王牌杀手,不仅身怀绝技,而且心狠手辣。他干掉了远在东京的韩,还几乎把探长卢克·霍布斯(道恩·强森 Dwayne Johnson 饰)送到另一个世界,甚至多米尼克那世外桃源般的家也被对方炸毁。

  复仇的利刃已经架在脖子上,多米尼克再也没有选择,他找到长久以来最为信赖的团队,与来势汹汹的戴克展开生死对决……




获奖情况




  第73届金球奖  (2016)

  电影类 最佳原创歌曲(提名)




  第22届美国演员工会奖  (2016)

  电影最佳特技群像(提名)




  第14届美国视觉效果协会奖  (2016)

  最佳特效电影视觉效果(提名)




  第21届美国评论家选择电影奖  (2016)

  最佳歌曲

  最佳动作片(提名)




  第17届美国青少年选择奖  (2015)

  最佳动作片

  最佳动作片男演员 保罗·沃克

  最佳动作片男演员(提名) 范·迪塞尔

  最佳动作片女演员(提名) 乔丹娜·布鲁斯特 / 米歇尔·罗德里格兹

  最佳电影反派(提名) 杰森·斯坦森

  最佳银幕拍档(提名) 道恩·强森 / 乔丹娜·布鲁斯特 / 米歇尔·罗德里格兹 / 保罗·沃克 / 卢达克里斯 / 泰瑞斯·吉布森 / 范·迪塞尔




  第6届豆瓣电影鑫像奖  (2016)

  鑫豆单元 最佳影片(外语)(提名)

  鑫豆单元 最佳科幻/动作片(提名)

  鑫豆单元 最佳歌曲(提名)




  第2届豆瓣电影年度榜单  (2015)

  4月最受关注电影

  评分最高的外语电影(提名)

  最受关注的院线电影(提名)






  1. Video
  2. ID                                       : 1
  3. Format                                   : HEVC
  4. Format/Info                              : High Efficiency Video Coding
  5. Format profile                           : Main High@L4@High
  6. Codec ID                                 : V_MPEGH/ISO/HEVC
  7. Duration                                 : 2 h 19 min
  8. Bit rate                                 : 29.8 Mb/s
  9. Width                                    : 3 840 pixels
  10. Height                                   : 1 600 pixels
  11. Display aspect ratio                     : 2.40:1
  12. Frame rate mode                          : Constant
  13. Frame rate                               : 23.976 (24000/1001) FPS
  14. Color space                              : YUV
  15. Chroma subsampling                       : 4:2:0
  16. Bit depth                                : 10 bits
  17. Bits/(Pixel*Frame)                       : 0.202
  18. Stream size                              : 29.1 GiB (88%)
  19. Title                                    : Furious.7.2015.2160p.BluRay.x265.10bit.SDR.DTS-HR.7.1-SWTYBLZ
  20. Writing library                          : x265 2.5b4a5bcfe29c7:[Windows][GCC 4.9.3][64 bit] 10bit
  21. Encoding settings                        : cpuid=1173503 / frame-threads=16 / numa-pools=24,24,24,24 / wpp / no-pmode / no-pme / no-psnr / no-ssim / log-level=2 / input-csp=1 / input-res=3840x1600 / interlace=0 / total-frames=0 / level-idc=51 / high-tier=1 / uhd-bd=0 / ref=3 / no-allow-non-conformance / repeat-headers / annexb / aud / hrd / info / hash=0 / no-temporal-layers / no-open-gop / min-keyint=1 / keyint=24 / bframes=4 / b-adapt=2 / b-pyramid / bframe-bias=0 / rc-lookahead=25 / lookahead-slices=4 / scenecut=40 / no-intra-refresh / ctu=64 / min-cu-size=8 / no-rect / no-amp / max-tu-size=32 / tu-inter-depth=1 / tu-intra-depth=1 / limit-tu=0 / rdoq-level=0 / dynamic-rd=0.00 / no-ssim-rd / signhide / no-tskip / nr-intra=0 / nr-inter=0 / no-constrained-intra / strong-intra-smoothing / max-merge=2 / limit-refs=3 / no-limit-modes / me=1 / subme=2 / merange=57 / temporal-mvp / weightp / no-weightb / no-analyze-src-pics / deblock=0:0 / no-sao / no-sao-non-deblock / rd=3 / no-early-skip / rskip / no-fast-intra / no-tskip-fast / no-cu-lossless / no-b-intra / rdpenalty=0 / psy-rd=2.00 / psy-rdoq=0.00 / no-rd-refine / analysis-reuse-mode=0 / no-lossless / cbqpoffs=0 / crqpoffs=0 / rc=crf / crf=16.0 / qcomp=0.60 / qpstep=4 / stats-write=0 / stats-read=0 / vbv-maxrate=160000 / vbv-bufsize=160000 / vbv-init=0.9 / crf-max=0.0 / crf-min=0.0 / ipratio=1.40 / pbratio=1.30 / aq-mode=1 / aq-strength=1.00 / cutree / zone-count=0 / no-strict-cbr / qg-size=32 / no-rc-grain / qpmax=69 / qpmin=0 / no-const-vbv / sar=1 / overscan=0 / videoformat=5 / range=0 / colorprim=2 / transfer=2 / colormatrix=2 / chromaloc=0 / display-window=0 / max-cll=0,0 / min-luma=0 / max-luma=1023 / log2-max-poc-lsb=8 / vui-timing-info / vui-hrd-info / slices=1 / opt-qp-pps / opt-ref-list-length-pps / no-multi-pass-opt-rps / scenecut-bias=0.05 / no-opt-cu-delta-qp / no-aq-motion / no-hdr / no-hdr-opt / no-dhdr10-opt / analysis-reuse-level=5 / scale-factor=0 / refine-intra=0 / refine-inter=0 / refine-mv=0 / no-limit-sao / ctu-info=0
  22. Language                                 : English
  23. Default                                  : Yes
  24. Forced                                   : No

  25. Audio #1
  26. ID                                       : 2
  27. Format                                   : DTS
  28. Format/Info                              : Digital Theater Systems
  29. Format profile                           : HRA / Core
  30. Mode                                     : 16
  31. Format settings, Endianness              : Big
  32. Codec ID                                 : A_DTS
  33. Duration                                 : 2 h 19 min
  34. Bit rate mode                            : Constant
  35. Bit rate                                 : 3 456 kb/s / 1 509 kb/s
  36. Channel(s)                               : 8 channels / 6 channels
  37. Channel positions                        : Front: L C R, Side: L R, Back: L R, LFE / Front: L C R, Side: L R, LFE
  38. Sampling rate                            : 48.0 kHz
  39. Frame rate                               : 93.750 FPS (512 spf)
  40. Bit depth                                : 24 bits
  41. Compression mode                         : Lossy
  42. Stream size                              : 3.38 GiB (10%)
  43. Title                                    : Furious.7.2015.2160p.BluRay.x265.10bit.SDR.DTS-HR.7.1-SWTYBLZ
  44. Language                                 : English
  45. Default                                  : Yes
  46. Forced                                   : No

  47. Audio #2
  48. ID                                       : 3
  49. Format                                   : AC-3
  50. Format/Info                              : Audio Coding 3
  51. Format settings, Endianness              : Big
  52. Codec ID                                 : A_AC3
  53. Duration                                 : 2 h 19 min
  54. Bit rate mode                            : Constant
  55. Bit rate                                 : 640 kb/s
  56. Channel(s)                               : 6 channels
  57. Channel positions                        : Front: L C R, Side: L R, LFE
  58. Sampling rate                            : 48.0 kHz
  59. Frame rate                               : 31.250 FPS (1536 spf)
  60. Bit depth                                : 16 bits
  61. Compression mode                         : Lossy
  62. Stream size                              : 640 MiB (2%)
  63. Title                                    : Furious.7.2015.2160p.BluRay.x265.10bit.SDR.DTS-HR.7.1-SWTYBLZ
  64. Language                                 : English
  65. Service kind                             : Complete Main
  66. Default                                  : No
  67. Forced                                   : No

  68. Text #1
  69. ID                                       : 4
  70. Format                                   : UTF-8
  71. Codec ID                                 : S_TEXT/UTF8
  72. Codec ID/Info                            : UTF-8 Plain Text
  73. Duration                                 : 2 h 10 min
  74. Bit rate                                 : 45 b/s
  75. Count of elements                        : 1465
  76. Stream size                              : 43.4 KiB (0%)
  77. Title                                    : English-SRT
  78. Language                                 : English
  79. Default                                  : Yes
  80. Forced                                   : No

  81. Text #2
  82. ID                                       : 5
  83. Format                                   : PGS
  84. Muxing mode                              : zlib
  85. Codec ID                                 : S_HDMV/PGS
  86. Codec ID/Info                            : Picture based subtitle format used on BDs/HD-DVDs
  87. Duration                                 : 2 h 10 min
  88. Bit rate                                 : 33.0 kb/s
  89. Count of elements                        : 3340
  90. Stream size                              : 30.9 MiB (0%)
  91. Title                                    : English-PGS
  92. Language                                 : English
  93. Default                                  : No
  94. Forced                                   : No

  95. Text #3
  96. ID                                       : 6
  97. Format                                   : PGS
  98. Muxing mode                              : zlib
  99. Codec ID                                 : S_HDMV/PGS
  100. Codec ID/Info                            : Picture based subtitle format used on BDs/HD-DVDs
  101. Duration                                 : 2 h 10 min
  102. Bit rate                                 : 26.5 kb/s
  103. Count of elements                        : 2844
  104. Stream size                              : 24.8 MiB (0%)
  105. Title                                    : Spanish-PGS
  106. Language                                 : Spanish
  107. Default                                  : No
  108. Forced                                   : No

  109. Text #4
  110. ID                                       : 7
  111. Format                                   : PGS
  112. Muxing mode                              : zlib
  113. Codec ID                                 : S_HDMV/PGS
  114. Codec ID/Info                            : Picture based subtitle format used on BDs/HD-DVDs
  115. Duration                                 : 2 h 19 min
  116. Bit rate                                 : 25.7 kb/s
  117. Count of elements                        : 2822
  118. Stream size                              : 25.5 MiB (0%)
  119. Title                                    : French-PGS
  120. Language                                 : French
  121. Default                                  : No
  122. Forced                                   : No

  123. Text #5
  124. ID                                       : 8
  125. Format                                   : PGS
  126. Muxing mode                              : zlib
  127. Codec ID                                 : S_HDMV/PGS
  128. Codec ID/Info                            : Picture based subtitle format used on BDs/HD-DVDs
  129. Duration                                 : 2 h 11 min
  130. Bit rate                                 : 280 b/s
  131. Count of elements                        : 56
  132. Stream size                              : 270 KiB (0%)
  133. Title                                    : Spanish-FORCED-PGS
  134. Language                                 : Spanish
  135. Default                                  : No
  136. Forced                                   : No

  137. Text #6
  138. ID                                       : 9
  139. Format                                   : PGS
  140. Muxing mode                              : zlib
  141. Codec ID                                 : S_HDMV/PGS
  142. Codec ID/Info                            : Picture based subtitle format used on BDs/HD-DVDs
  143. Duration                                 : 2 h 19 min
  144. Bit rate                                 : 1 300 b/s
  145. Count of elements                        : 126
  146. Stream size                              : 1.29 MiB (0%)
  147. Title                                    : French-FORCED-PGS
  148. Language                                 : French
  149. Default                                  : No
  150. Forced                                   : No

  151. Menu
  152. 00:00:00.000                             : en:Chapter 1
  153. 00:04:39.946                             : en:Chapter 2
  154. 00:11:29.480                             : en:Chapter 3
  155. 00:16:39.289                             : en:Chapter 4
  156. 00:25:54.052                             : en:Chapter 5
  157. 00:33:43.896                             : en:Chapter 6
  158. 00:41:44.585                             : en:Chapter 7
  159. 00:46:41.006                             : en:Chapter 8
  160. 00:52:10.710                             : en:Chapter 9
  161. 01:02:31.414                             : en:Chapter 10
  162. 01:06:16.680                             : en:Chapter 11
  163. 01:14:16.868                             : en:Chapter 12
  164. 01:22:34.032                             : en:Chapter 13
  165. 01:33:21.137                             : en:Chapter 14
  166. 01:38:27.484                             : en:Chapter 15
  167. 01:45:40.083                             : en:Chapter 16
  168. 01:53:54.452                             : en:Chapter 17
  169. 01:58:31.062                             : en:Chapter 18
  170. 02:06:19.863                             : en:Chapter 19
  171. 02:11:31.174                             : en:Chapter 20
复制代码





速度与激情7 Furious.Seven.2015.EXTENDED.2160p.BluRay.x265.10bit.SDR.DTS-HR.7.1-SWTYBLZ 33.39GB-2.jpg 速度与激情7 Furious.Seven.2015.EXTENDED.2160p.BluRay.x265.10bit.SDR.DTS-HR.7.1-SWTYBLZ 33.39GB-3.jpg
速度与激情7 Furious.Seven.2015.EXTENDED.2160p.BluRay.x265.10bit.SDR.DTS-HR.7.1-SWTYBLZ 33.39GB-4.jpg 速度与激情7 Furious.Seven.2015.EXTENDED.2160p.BluRay.x265.10bit.SDR.DTS-HR.7.1-SWTYBLZ 33.39GB-5.jpg
速度与激情7 Furious.Seven.2015.EXTENDED.2160p.BluRay.x265.10bit.SDR.DTS-HR.7.1-SWTYBLZ 33.39GB-6.jpg 速度与激情7 Furious.Seven.2015.EXTENDED.2160p.BluRay.x265.10bit.SDR.DTS-HR.7.1-SWTYBLZ 33.39GB-7.jpg




回复

使用道具 举报

发表于 2020-3-20 06:35:13 | 显示全部楼层
楼主发贴辛苦了,谢谢楼主分享!我觉得蓝光电影网是注册对了!
回复 支持 反对

使用道具 举报

发表于 2020-3-21 01:35:05 | 显示全部楼层
楼主发贴辛苦了,谢谢楼主分享!我觉得蓝光电影网是注册对了!
回复 支持 反对

使用道具 举报

 成长值: 1615

发表于 2020-3-21 08:50:02 | 显示全部楼层
早就发过了,版权问题不让下。
回复 支持 反对

使用道具 举报

发表于 2020-3-22 01:21:20 | 显示全部楼层
感谢分享,支持一下
回复 支持 反对

使用道具 举报

发表于 2020-3-22 08:14:36 | 显示全部楼层

楼主太厉害了!楼主,电影应该很好看我觉得蓝光电影网真是个好地方!
回复 支持 反对

使用道具 举报

发表于 2020-3-22 18:56:15 | 显示全部楼层
楼主发贴辛苦了,谢谢楼主分享!我觉得蓝光电影网是注册对了!
回复 支持 反对

使用道具 举报

发表于 2020-3-24 09:32:30 | 显示全部楼层

楼主太厉害了!楼主,电影应该很好看我觉得蓝光电影网真是个好地方!
回复 支持 反对

使用道具 举报

发表于 2020-3-24 10:14:44 | 显示全部楼层
楼主发贴辛苦了,谢谢楼主分享!我觉得蓝光电影网是注册对了!
回复 支持 反对

使用道具 举报

发表于 2020-3-26 18:37:44 | 显示全部楼层
楼主发贴辛苦了,谢谢楼主分享!我觉得蓝光电影网是注册对了!
回复 支持 反对

使用道具 举报

懒得打字嘛,点击右侧快捷回复 【右侧内容,后台自定义】
您需要登录后才可以回帖 登录 | 立即加入

本版积分规则

现在加入蓝光电影网,注册一个账号
上个主题 下个主题 快速回复 收藏帖子 返回列表 客服中心 搜索

手机版|小黑屋| 蓝光电影网 |网站地图 

Copyright © 2015-2019 Comsenz Inc.  Template by 蓝光电影论坛 All Rights Reserved.

Powered by 蓝光电影网 X3.4

特别声明:本站所有资源均由网上收集而来,版权归原影音公司所有,如果侵犯了你的权益,请通知我们,我们会及时删除侵权内容.

快速回复 返回顶部 返回列表