找回密码

蓝光电影网

查看: 288|回复: 7

[10bit.HDR] 睡梦医生 Doctor.Sleep.2019.THEATRICAL.2160p.UHD.BluRay.X265.10bit.HDR10Plus.TrueHD.7.1.Atmos-JustWatch 15.49GB

[复制链接]

 成长值: 25285

发表于 2020-3-19 15:18:19 | 显示全部楼层 |阅读模式
睡梦医生 Doctor.Sleep.2019.THEATRICAL.2160p.UHD.BluRay.X265.10bit.HDR10Plus.TrueHD.7.1.Atmos-JustWatch 15.49GB-1.png

译  名 睡梦医生 / Dr. Sleep / 《闪灵》续集 / 安眠医生(台) / 睡眠医师 / 睡眠医生 / 长眠医生
片  名 Doctor Sleep
年  代 2019
产  地 美国 / 英国
类  别 剧情 / 惊悚 / 恐怖 / 奇幻
语  言 英语
上映日期 2019-10-30(法国) / 2019-10-31(英国) / 2019-11-08(美国)
IMDb评分  7.4/10 from 83923 users
IMDb链接  https://www.imdb.com/title/tt5606664
豆瓣评分 6.9/10 from 16942 users
豆瓣链接 https://movie.douban.com/subject/25932065/
片  长 151分钟
导  演 迈克·弗拉纳根 Mike Flanagan
编  剧 斯蒂芬·金 Stephen King / 迈克·弗拉纳根 Mike Flanagan
主  演 伊万·麦克格雷格 Ewan McGregor
       丽贝卡·弗格森 Rebecca Ferguson
       凯丽·卡伦 Kyliegh Curran
       雅各布·特伦布莱 Jacob Tremblay
       卡雷尔·斯特鲁基 Carel Struycken
       丹尼·劳埃德 Danny Lloyd
       艾米丽·阿琳·林德 Emily Alyn Lind
       克利夫·柯蒂斯 Cliff Curtis
       扎恩·迈克拉农 Zahn McClarnon
       切尔西·塔尔玛琪 Chelsea Talmadge
       艾丽克斯·埃索 Alex Essoe
       布鲁斯·格林伍德 Bruce Greenwood
       乔赛琳·唐娜休 Jocelin Donahue
       卡尔·卢波利 Carl Lumbly
       维奥莱特·麦格劳 Violet McGraw
       凯瑟琳·帕克 Catherine Parker
       罗伯特·朗斯特里特 Robert Longstreet
       赛琳娜·安杜兹 Selena Anduze
       尼古拉斯·普罗约尔 Nicholas Pryor
       贝瑟妮·安妮·林德 Bethany Anne Lind
       查尔斯·格林 Charles Green
       扎克瑞·莫莫 Zackary Momoh
       杰森·戴维斯 Jason Davis
       胡安·贾斯帕 Juan Gaspard
       路易斯·桑切斯 Luis Sanchez


标  签 恐怖 | 惊悚 | 闪灵续集 | 美国 | 灵异 | 2019 | 奇幻 | 小说改编

简  介  

  《闪灵》续集《睡眠医师》(Doctor Sleep)北美定档2020年1月24日,依然根据斯蒂芬·金的同名小说改编,迈克·弗拉纳甘(《杰罗德游戏》《死亡占卜2》《梦醒之前》)执导。本片聚焦闪灵里的儿子Danny Torrance,经历了Overlook Hotel里可怕的童年时光后,他已经流浪了几十年,渴望摆脱父亲的绝望、酒精、暴力等特质,最终定居在新罕布什尔州的一个小镇上,这是一个支持他的AA制社区,他在一家养老院找到工作,在那里他残余的“闪灵”之力为垂死之人提供了至关重要的最终安慰。在一只有预知能力的猫的帮助下,他成为了“睡眠医师”。2001年女婴Abra Stone诞生,她逐渐开始展现超自然之力,似乎预测到了911事件。她缓慢而无意地与Danny建立起心灵感应的纽带,随着她的成长,力量也比Danny的更加强大,Danny被重新激起他心中的恶魔,并召唤他为Abra的灵魂和生存战斗。
  弗拉纳甘重写剧本,此前由Akiva Goldsman改编。
  1. Video
  2. ID                                       : 1
  3. Format                                   : HEVC
  4. Format/Info                              : High Efficiency Video Coding
  5. Format profile                           : Main High@L4@High
  6. HDR format                               : SMPTE ST 2094 App 4, Version 1, HDR10+ Profile B compatible
  7. Codec ID                                 : V_MPEGH/ISO/HEVC
  8. Duration                                 : 2 h 32 min
  9. Bit rate                                 : 9 455 kb/s
  10. Width                                    : 3 840 pixels
  11. Height                                   : 2 160 pixels
  12. Display aspect ratio                     : 16:9
  13. Frame rate mode                          : Constant
  14. Frame rate                               : 23.976 (24000/1001/189150) FPS
  15. Color space                              : YUV
  16. Chroma subsampling                       : 4:2:0 (Type 2)
  17. Bit depth                                : 10 bits
  18. Bits/(Pixel*Frame)                       : 0.048
  19. Stream size                              : 10.0 GiB (65%)
  20. Writing library                          : x265 3.3g554c887ac:[Windows][MSVC 1924][64 bit] 10bit
  21. Encoding settings                        : cpuid=1111039 / frame-threads=6 / numa-pools=16,16 / wpp / no-pmode / no-pme / no-psnr / no-ssim / log-level=2 / input-csp=1 / input-res=3840x2160 / interlace=0 / total-frames=218696 / level-idc=51 / high-tier=1 / uhd-bd=0 / ref=4 / no-allow-non-conformance / repeat-headers / annexb / aud / hrd / info / hash=0 / no-temporal-layers / no-open-gop / min-keyint=24 / keyint=240 / gop-lookahead=0 / bframes=4 / b-adapt=2 / b-pyramid / bframe-bias=0 / rc-lookahead=25 / lookahead-slices=4 / scenecut=40 / hist-scenecut=0 / radl=0 / no-splice / no-intra-refresh / ctu=64 / min-cu-size=8 / rect / no-amp / max-tu-size=32 / tu-inter-depth=1 / tu-intra-depth=1 / limit-tu=0 / rdoq-level=2 / dynamic-rd=0.00 / no-ssim-rd / signhide / no-tskip / nr-intra=0 / nr-inter=0 / no-constrained-intra / no-strong-intra-smoothing / max-merge=3 / limit-refs=3 / limit-modes / me=3 / subme=3 / merange=57 / temporal-mvp / no-frame-dup / no-hme / weightp / no-weightb / no-analyze-src-pics / deblock=-3:-3 / no-sao / no-sao-non-deblock / rd=4 / selective-sao=0 / no-early-skip / rskip / no-fast-intra / no-tskip-fast / no-cu-lossless / no-b-intra / no-splitrd-skip / rdpenalty=0 / psy-rd=2.00 / psy-rdoq=1.00 / no-rd-refine / no-lossless / cbqpoffs=0 / crqpoffs=0 / rc=crf / crf=16.0 / qcomp=0.60 / qpstep=4 / stats-write=0 / stats-read=0 / vbv-maxrate=160000 / vbv-bufsize=160000 / vbv-init=0.9 / crf-max=0.0 / crf-min=0.0 / ipratio=1.40 / pbratio=1.30 / aq-mode=2 / aq-strength=1.00 / cutree / zone-count=0 / no-strict-cbr / qg-size=32 / no-rc-grain / qpmax=69 / qpmin=0 / no-const-vbv / sar=1 / overscan=0 / videoformat=5 / range=0 / colorprim=9 / transfer=16 / colormatrix=9 / chromaloc=1 / chromaloc-top=2 / chromaloc-bottom=2 / display-window=0 / master-display=G(13250,34500)B(7500,3000)R(34000,16000)WP(15635,16450)L(10000000,01) / cll=745,47 / min-luma=0 / max-luma=1023 / log2-max-poc-lsb=8 / vui-timing-info / vui-hrd-info / slices=1 / no-opt-qp-pps / no-opt-ref-list-length-pps / no-multi-pass-opt-rps / scenecut-bias=0.05 / hist-threshold=0.01 / no-opt-cu-delta-qp / no-aq-motion / hdr10 / hdr10-opt / dhdr10-opt / no-idr-recovery-sei / analysis-reuse-level=0 / analysis-save-reuse-level=0 / analysis-load-reuse-level=0 / scale-factor=0 / refine-intra=0 / refine-inter=0 / refine-mv=1 / refine-ctu-distortion=0 / no-limit-sao / ctu-info=0 / no-lowpass-dct / refine-analysis-type=0 / copy-pic=1 / max-ausize-factor=1.0 / no-dynamic-refine / no-single-sei / no-hevc-aq / no-svt / no-field / qp-adaptation-range=1.00 / no-scenecut-aware-qpconformance-window-offsets / right=0 / bottom=0
  22. Default                                  : Yes
  23. Forced                                   : No
  24. Color range                              : Limited
  25. Color primaries                          : BT.2020
  26. Transfer characteristics                 : PQ
  27. Matrix coefficients                      : BT.2020 non-constant
  28. Mastering display color primaries        : Display P3
  29. Mastering display luminance              : min: 0.0001 cd/m2, max: 1000 cd/m2
  30. Maximum Content Light Level              : 745 cd/m2
  31. Maximum Frame-Average Light Level        : 47 cd/m2

  32. Audio #1
  33. ID                                       : 2
  34. Format                                   : MLP FBA 16-ch
  35. Format/Info                              : Meridian Lossless Packing FBA with 16-channel presentation
  36. Commercial name                          : Dolby TrueHD with Dolby Atmos
  37. Codec ID                                 : A_TRUEHD
  38. Duration                                 : 2 h 32 min
  39. Bit rate mode                            : Variable
  40. Bit rate                                 : 3 939 kb/s
  41. Maximum bit rate                         : 7 347 kb/s
  42. Channel(s)                               : 8 channels
  43. Channel layout                           : L R C LFE Ls Rs Lb Rb
  44. Sampling rate                            : 48.0 kHz
  45. Frame rate                               : 1 200.000 FPS (40 SPF)
  46. Compression mode                         : Lossless
  47. Stream size                              : 4.18 GiB (27%)
  48. Title                                    : Surround 7.1
  49. Language                                 : English
  50. Default                                  : No
  51. Forced                                   : No
  52. Number of dynamic objects                : 15
  53. Bed channel count                        : 1 channel
  54. Bed channel configuration                : LFE

  55. Audio #2
  56. ID                                       : 3
  57. Format                                   : AC-3
  58. Format/Info                              : Audio Coding 3
  59. Commercial name                          : Dolby Digital
  60. Codec ID                                 : A_AC3
  61. Duration                                 : 2 h 32 min
  62. Bit rate mode                            : Constant
  63. Bit rate                                 : 640 kb/s
  64. Channel(s)                               : 6 channels
  65. Channel layout                           : L R C LFE Ls Rs
  66. Sampling rate                            : 48.0 kHz
  67. Frame rate                               : 31.250 FPS (1536 SPF)
  68. Compression mode                         : Lossy
  69. Stream size                              : 696 MiB (4%)
  70. Title                                    : Surround 5.1
  71. Language                                 : English
  72. Service kind                             : Complete Main
  73. Default                                  : No
  74. Forced                                   : No

  75. Audio #3
  76. ID                                       : 4
  77. Format                                   : AC-3
  78. Format/Info                              : Audio Coding 3
  79. Commercial name                          : Dolby Digital
  80. Codec ID                                 : A_AC3
  81. Duration                                 : 2 h 32 min
  82. Bit rate mode                            : Constant
  83. Bit rate                                 : 448 kb/s
  84. Channel(s)                               : 6 channels
  85. Channel layout                           : L R C LFE Ls Rs
  86. Sampling rate                            : 48.0 kHz
  87. Frame rate                               : 31.250 FPS (1536 SPF)
  88. Compression mode                         : Lossy
  89. Stream size                              : 487 MiB (3%)
  90. Title                                    : Surround 5.1
  91. Language                                 : English
  92. Service kind                             : Complete Main
  93. Default                                  : No
  94. Forced                                   : No

  95. Text
  96. ID                                       : 5
  97. Format                                   : PGS
  98. Codec ID                                 : S_HDMV/PGS
  99. Codec ID/Info                            : Picture based subtitle format used on BDs/HD-DVDs
  100. Duration                                 : 2 h 27 min
  101. Bit rate                                 : 27.1 kb/s
  102. Count of elements                        : 3878
  103. Stream size                              : 28.5 MiB (0%)
  104. Language                                 : English
  105. Default                                  : No
  106. Forced                                   : No

  107. Menu
  108. 00:00:00.000                             : en:Chapter 01
  109. 00:10:36.260                             : en:Chapter 02
  110. 00:19:44.349                             : en:Chapter 03
  111. 00:29:23.011                             : en:Chapter 04
  112. 00:39:51.555                             : en:Chapter 05
  113. 00:49:47.317                             : en:Chapter 06
  114. 00:58:24.584                             : en:Chapter 07
  115. 01:06:00.414                             : en:Chapter 08
  116. 01:11:00.756                             : en:Chapter 09
  117. 01:20:35.413                             : en:Chapter 10
  118. 01:27:07.013                             : en:Chapter 11
  119. 01:35:13.457                             : en:Chapter 12
  120. 01:44:01.902                             : en:Chapter 13
  121. 01:52:52.474                             : en:Chapter 14
  122. 02:01:22.733                             : en:Chapter 15
  123. 02:08:01.507                             : en:Chapter 16
  124. 02:17:27.155                             : en:Chapter 17
  125. 02:23:06.536                             : en:Chapter 18
  126. 02:26:22.064                             : en:Chapter 19
复制代码

睡梦医生 Doctor.Sleep.2019.THEATRICAL.2160p.UHD.BluRay.X265.10bit.HDR10Plus.TrueHD.7.1.Atmos-JustWatch 15.49GB-2.png 睡梦医生 Doctor.Sleep.2019.THEATRICAL.2160p.UHD.BluRay.X265.10bit.HDR10Plus.TrueHD.7.1.Atmos-JustWatch 15.49GB-3.png 睡梦医生 Doctor.Sleep.2019.THEATRICAL.2160p.UHD.BluRay.X265.10bit.HDR10Plus.TrueHD.7.1.Atmos-JustWatch 15.49GB-4.png





回复

使用道具 举报

发表于 2020-3-19 18:21:14 | 显示全部楼层
支持新外语电影!!!
回复 支持 反对

使用道具 举报

发表于 2020-3-19 22:42:31 | 显示全部楼层
楼主发贴辛苦了,谢谢楼主分享!我觉得蓝光电影网是注册对了!
回复 支持 反对

使用道具 举报

发表于 2020-3-19 23:16:44 | 显示全部楼层
这个真好谢谢
回复 支持 反对

使用道具 举报

发表于 2020-3-25 10:07:05 | 显示全部楼层
感谢楼主分享
回复 支持 反对

使用道具 举报

发表于 2020-3-25 20:14:34 | 显示全部楼层
楼主辛苦了
回复 支持 反对

使用道具 举报

发表于 7 天前 | 显示全部楼层

这个帖子不回对不起自己!我想我是一天也不能离开蓝光电影网
回复 支持 反对

使用道具 举报

发表于 7 天前 | 显示全部楼层
楼主辛苦了
回复 支持 反对

使用道具 举报

懒得打字嘛,点击右侧快捷回复 【右侧内容,后台自定义】
您需要登录后才可以回帖 登录 | 立即加入

本版积分规则

现在加入蓝光电影网,注册一个账号
上个主题 下个主题 快速回复 收藏帖子 返回列表 客服中心 搜索

手机版|小黑屋| 蓝光电影网 |网站地图 

Copyright © 2015-2019 Comsenz Inc.  Template by 蓝光电影论坛 All Rights Reserved.

Powered by 蓝光电影网 X3.4

特别声明:本站所有资源均由网上收集而来,版权归原影音公司所有,如果侵犯了你的权益,请通知我们,我们会及时删除侵权内容.

快速回复 返回顶部 返回列表