找回密码

蓝光电影网

查看: 444|回复: 3

贝茨旅馆惊魂记/杀戮鬼屋 The.Bates.Haunting.3D.2012.1080p.BluRay.x264-UNVEiL 6.55GB

[复制链接]

 成长值: 26200

发表于 2020-3-19 01:28:09 | 显示全部楼层 |阅读模式
贝茨旅馆惊魂记/杀戮鬼屋 The.Bates.Haunting.3D.2012.1080p.BluRay.x264-UNVEiL 6.55GB-1.png

译  名 贝茨旅馆惊魂记 / 杀戮鬼屋 / 杀母鬼屋 / 贝茨困扰
片  名 The Bates Haunting
年  代 2012
产  地 美国
类  别 惊悚
语  言 英语
IMDb评分  3.1/10 from 519 users
IMDb链接  https://www.imdb.com/title/tt1833887
豆瓣评分 3.6/10 from 137 users
豆瓣链接 https://movie.douban.com/subject/25211406/
片  长 87分钟
导  演 Byron Turk
主  演 Jean Louise O'Sullivan
       Zachary Fletcher
       Ryan Dunn
       Rocco A. Amato
       Randy Bates
       Ashley Caspermeyer
       Jim Cope
       Ali Crozier
       Karen Eckstein-sarkissian
       Marissa Eldridge
       Kimmy Foraker
       Robert Haag
       Bryan Haas
       Norman Hillbish


标  签 美国 | 惊悚 | 恐怖 | 2013 | 血腥 | 美国电影 | 难看 | 这部电影侮辱了恐怖片

简  介  

  一年前,女主角在贝茨旅馆举行的表演上看到她最好的朋友不幸被烧死。一年后旅馆重新开业,女主角去那故地重游试图治疗心灵创伤。却是遇上不断有人死亡,这背后到底隐藏着什么不为人知的真相呢?
  1. Video
  2. ID                                       : 1
  3. Format                                   : AVC
  4. Format/Info                              : Advanced Video Codec
  5. Format profile                           : High@L4
  6. Format settings                          : CABAC / 4 Ref Frames
  7. Format settings, CABAC                   : Yes
  8. Format settings, Reference frames        : 4 frames
  9. Codec ID                                 : V_MPEG4/ISO/AVC
  10. Duration                                 : 1 h 17 min
  11. Bit rate                                 : 10.7 Mb/s
  12. Width                                    : 1 920 pixels
  13. Height                                   : 1 080 pixels
  14. Display aspect ratio                     : 16:9
  15. Frame rate mode                          : Constant
  16. Frame rate                               : 23.976 FPS
  17. Color space                              : YUV
  18. Chroma subsampling                       : 4:2:0
  19. Bit depth                                : 8 bits
  20. Scan type                                : Progressive
  21. Bits/(Pixel*Frame)                       : 0.214
  22. Stream size                              : 5.61 GiB (86%)
  23. Writing library                          : x264 core 158 r2988 7817004
  24. Encoding settings                        : cabac=1 / ref=4 / deblock=1:-3:-3 / analyse=0x3:0x133 / me=umh / subme=8 / psy=1 / psy_rd=1.00:0.15 / mixed_ref=1 / me_range=16 / chroma_me=1 / trellis=2 / 8x8dct=1 / cqm=0 / deadzone=21,11 / fast_pskip=0 / chroma_qp_offset=-3 / threads=34 / lookahead_threads=5 / sliced_threads=0 / nr=0 / decimate=1 / interlaced=0 / bluray_compat=0 / constrained_intra=0 / bframes=3 / b_pyramid=2 / b_adapt=2 / b_bias=0 / direct=3 / weightb=1 / open_gop=0 / weightp=2 / keyint=240 / keyint_min=24 / scenecut=40 / intra_refresh=0 / rc_lookahead=50 / rc=2pass / mbtree=1 / bitrate=10662 / ratetol=1.0 / qcomp=0.60 / qpmin=0 / qpmax=69 / qpstep=4 / cplxblur=20.0 / qblur=0.5 / ip_ratio=1.40 / aq=1:1.00
  25. Language                                 : English
  26. Default                                  : Yes
  27. Forced                                   : No

  28. Audio
  29. ID                                       : 2
  30. Format                                   : DTS
  31. Format/Info                              : Digital Theater Systems
  32. Codec ID                                 : A_DTS
  33. Duration                                 : 1 h 17 min
  34. Bit rate mode                            : Constant
  35. Bit rate                                 : 1 509 kb/s
  36. Channel(s)                               : 6 channels
  37. Channel layout                           : C L R Ls Rs LFE
  38. Sampling rate                            : 48.0 kHz
  39. Frame rate                               : 93.750 FPS (512 SPF)
  40. Bit depth                                : 24 bits
  41. Compression mode                         : Lossy
  42. Stream size                              : 832 MiB (12%)
  43. Language                                 : English
  44. Default                                  : Yes
  45. Forced                                   : No

  46. Menu
  47. 00:00:00.000                             : en:00:00:00.000
  48. 00:09:59.974                             : en:00:09:59.974
  49. 00:19:59.990                             : en:00:19:59.990
  50. 00:29:59.965                             : en:00:29:59.965
  51. 00:39:59.981                             : en:00:39:59.981
  52. 00:49:59.997                             : en:00:49:59.997
  53. 00:59:59.971                             : en:00:59:59.971
  54. 01:09:59.987                             : en:01:09:59.987
复制代码

012809y7bi7lo74nllnrc7.png






回复

使用道具 举报

发表于 2020-3-19 14:07:24 | 显示全部楼层

楼主太厉害了!楼主,电影应该很好看我觉得蓝光电影网真是个好地方!
回复 支持 反对

使用道具 举报

 成长值: 3000

发表于 2020-3-24 09:53:22 | 显示全部楼层
谢谢楼主无私分享。
回复 支持 反对

使用道具 举报

发表于 2020-3-28 17:35:48 | 显示全部楼层
楼主发贴辛苦了,谢谢楼主分享!我觉得蓝光电影网是注册对了!
回复 支持 反对

使用道具 举报

懒得打字嘛,点击右侧快捷回复 【右侧内容,后台自定义】
您需要登录后才可以回帖 登录 | 立即加入

本版积分规则

现在加入蓝光电影网,注册一个账号
上个主题 下个主题 快速回复 收藏帖子 返回列表 客服中心 搜索

手机版|小黑屋| 蓝光电影网 |网站地图 

Copyright © 2015-2019 Comsenz Inc.  Template by 蓝光电影论坛 All Rights Reserved.

Powered by 蓝光电影网 X3.4

特别声明:本站所有资源均由网上收集而来,版权归原影音公司所有,如果侵犯了你的权益,请通知我们,我们会及时删除侵权内容.

快速回复 返回顶部 返回列表