找回密码

蓝光电影网

查看: 625|回复: 20

[2160p-WEB] 大象女王 The.Elephant.Queen.2019.HDR.2160p.WEB.h265-NiXON 16.52GB

[复制链接]

 成长值: 25285

发表于 2020-3-15 00:24:13 | 显示全部楼层 |阅读模式
大象女王 The.Elephant.Queen.2019.HDR.2160p.WEB.h265-NiXON 16.52GB-1.png

译  名 大象女王
片  名 The Elephant Queen
年  代 2018
产  地 英国 / 肯尼亚
类  别 纪录片
语  言 英语
上映日期 2018-09-08(多伦多国际电影节)
IMDb评分  8.0/10 from 770 users
IMDb链接  https://www.imdb.com/title/tt6722976
豆瓣评分 9.2/10 from 1782 users
豆瓣链接 https://movie.douban.com/subject/30326966/
片  长 96分钟
导  演 Mark Deeble / Victoria Stone
编  剧 Mark Deeble
主  演 切瓦特·埃加福 Chiwetel Ejiofor


标  签 纪录片 | 动物 | 自然 | 英国 | 肯尼亚 | 2019 | AppleTV+ | 2018

简  介  

  雅典娜是一位母亲,当他们被迫离开他们的水坑时,她会尽她所能保护她的牧群。这一史诗般的旅程,由Chiwetel Ejiofor讲述,带领观众穿越非洲大草原,进入大象家庭的核心。一个关于爱,失去和回家的故事。
  1. Video
  2. ID                                       : 1
  3. Format                                   : HEVC
  4. Format/Info                              : High Efficiency Video Coding
  5. Format profile                           : Main High@L4@High
  6. HDR format                               : SMPTE ST 2086, HDR10 compatible
  7. Codec ID                                 : V_MPEGH/ISO/HEVC
  8. Duration                                 : 1 h 36 min
  9. Bit rate                                 : 23.5 Mb/s
  10. Width                                    : 3 840 pixels
  11. Height                                   : 2 076 pixels
  12. Display aspect ratio                     : 1.85:1
  13. Frame rate mode                          : Constant
  14. Frame rate                               : 23.976 FPS
  15. Color space                              : YUV
  16. Chroma subsampling                       : 4:2:0 (Type 2)
  17. Bit depth                                : 10 bits
  18. Bits/(Pixel*Frame)                       : 0.123
  19. Stream size                              : 15.8 GiB (97%)
  20. Language                                 : English
  21. Default                                  : Yes
  22. Forced                                   : No
  23. Color range                              : Limited
  24. Color primaries                          : BT.2020
  25. Transfer characteristics                 : PQ
  26. Matrix coefficients                      : BT.2020 non-constant
  27. Mastering display color primaries        : BT.2020
  28. Mastering display luminance              : min: 0.0050 cd/m2, max: 1000 cd/m2
  29. Maximum Content Light Level              : 691 cd/m2
  30. Maximum Frame-Average Light Level        : 182 cd/m2

  31. Audio
  32. ID                                       : 2
  33. Format                                   : E-AC-3 JOC
  34. Format/Info                              : Enhanced AC-3 with Joint Object Coding
  35. Commercial name                          : Dolby Digital Plus with Dolby Atmos
  36. Codec ID                                 : A_EAC3
  37. Duration                                 : 1 h 36 min
  38. Bit rate mode                            : Constant
  39. Bit rate                                 : 768 kb/s
  40. Channel(s)                               : 6 channels
  41. Channel layout                           : L R C LFE Ls Rs
  42. Sampling rate                            : 48.0 kHz
  43. Frame rate                               : 31.250 FPS (1536 SPF)
  44. Compression mode                         : Lossy
  45. Stream size                              : 528 MiB (3%)
  46. Language                                 : English
  47. Service kind                             : Complete Main
  48. Default                                  : Yes
  49. Forced                                   : No
  50. Complexity index                         : 16
  51. Number of dynamic objects                : 15
  52. Bed channel count                        : 1 channel
  53. Bed channel configuration                : LFE

  54. Text #1
  55. ID                                       : 3
  56. Format                                   : UTF-8
  57. Codec ID                                 : S_TEXT/UTF8
  58. Codec ID/Info                            : UTF-8 Plain Text
  59. Duration                                 : 1 h 35 min
  60. Bit rate                                 : 45 b/s
  61. Count of elements                        : 454
  62. Stream size                              : 31.8 KiB (0%)
  63. Title                                    : ???????
  64. Language                                 : Arabic
  65. Default                                  : No
  66. Forced                                   : No

  67. Text #2
  68. ID                                       : 4
  69. Format                                   : UTF-8
  70. Codec ID                                 : S_TEXT/UTF8
  71. Codec ID/Info                            : UTF-8 Plain Text
  72. Duration                                 : 1 h 35 min
  73. Bit rate                                 : 43 b/s
  74. Count of elements                        : 454
  75. Stream size                              : 30.5 KiB (0%)
  76. Title                                    : български
  77. Language                                 : Bulgarian
  78. Default                                  : No
  79. Forced                                   : No

  80. Text #3
  81. ID                                       : 5
  82. Format                                   : UTF-8
  83. Codec ID                                 : S_TEXT/UTF8
  84. Codec ID/Info                            : UTF-8 Plain Text
  85. Duration                                 : 1 h 35 min
  86. Bit rate                                 : 26 b/s
  87. Count of elements                        : 452
  88. Stream size                              : 18.4 KiB (0%)
  89. Title                                    : ?e?tina
  90. Language                                 : Czech
  91. Default                                  : No
  92. Forced                                   : No

  93. Text #4
  94. ID                                       : 6
  95. Format                                   : UTF-8
  96. Codec ID                                 : S_TEXT/UTF8
  97. Codec ID/Info                            : UTF-8 Plain Text
  98. Duration                                 : 1 h 35 min
  99. Bit rate                                 : 29 b/s
  100. Count of elements                        : 452
  101. Stream size                              : 20.9 KiB (0%)
  102. Title                                    : dansk
  103. Language                                 : Danish
  104. Default                                  : No
  105. Forced                                   : No

  106. Text #5
  107. ID                                       : 7
  108. Format                                   : UTF-8
  109. Codec ID                                 : S_TEXT/UTF8
  110. Codec ID/Info                            : UTF-8 Plain Text
  111. Duration                                 : 1 h 35 min
  112. Bit rate                                 : 32 b/s
  113. Count of elements                        : 471
  114. Stream size                              : 22.5 KiB (0%)
  115. Title                                    : Deutsch
  116. Language                                 : German
  117. Default                                  : No
  118. Forced                                   : No

  119. Text #6
  120. ID                                       : 8
  121. Format                                   : UTF-8
  122. Codec ID                                 : S_TEXT/UTF8
  123. Codec ID/Info                            : UTF-8 Plain Text
  124. Duration                                 : 1 h 35 min
  125. Bit rate                                 : 51 b/s
  126. Count of elements                        : 454
  127. Stream size                              : 36.0 KiB (0%)
  128. Title                                    : Ελληνικ?
  129. Language                                 : Greek
  130. Default                                  : No
  131. Forced                                   : No

  132. Text #7
  133. ID                                       : 9
  134. Format                                   : UTF-8
  135. Codec ID                                 : S_TEXT/UTF8
  136. Codec ID/Info                            : UTF-8 Plain Text
  137. Duration                                 : 1 h 31 min
  138. Bit rate                                 : 28 b/s
  139. Count of elements                        : 443
  140. Stream size                              : 19.3 KiB (0%)
  141. Title                                    : English
  142. Language                                 : English
  143. Default                                  : No
  144. Forced                                   : No

  145. Text #8
  146. ID                                       : 10
  147. Format                                   : UTF-8
  148. Codec ID                                 : S_TEXT/UTF8
  149. Codec ID/Info                            : UTF-8 Plain Text
  150. Duration                                 : 1 h 33 min
  151. Bit rate                                 : 30 b/s
  152. Count of elements                        : 563
  153. Stream size                              : 21.0 KiB (0%)
  154. Title                                    : English (SDH)
  155. Language                                 : English
  156. Default                                  : No
  157. Forced                                   : No

  158. Text #9
  159. ID                                       : 11
  160. Format                                   : UTF-8
  161. Codec ID                                 : S_TEXT/UTF8
  162. Codec ID/Info                            : UTF-8 Plain Text
  163. Duration                                 : 1 h 35 min
  164. Bit rate                                 : 27 b/s
  165. Count of elements                        : 453
  166. Stream size                              : 19.3 KiB (0%)
  167. Title                                    : Espa?ol
  168. Language                                 : Spanish
  169. Default                                  : No
  170. Forced                                   : No

  171. Text #10
  172. ID                                       : 12
  173. Format                                   : UTF-8
  174. Codec ID                                 : S_TEXT/UTF8
  175. Codec ID/Info                            : UTF-8 Plain Text
  176. Duration                                 : 1 h 35 min
  177. Bit rate                                 : 29 b/s
  178. Count of elements                        : 453
  179. Stream size                              : 20.5 KiB (0%)
  180. Title                                    : Espa?ol (Latinoamérica)
  181. Language                                 : Spanish
  182. Default                                  : No
  183. Forced                                   : No

  184. Text #11
  185. ID                                       : 13
  186. Format                                   : UTF-8
  187. Codec ID                                 : S_TEXT/UTF8
  188. Codec ID/Info                            : UTF-8 Plain Text
  189. Duration                                 : 1 h 35 min
  190. Bit rate                                 : 26 b/s
  191. Count of elements                        : 452
  192. Stream size                              : 18.6 KiB (0%)
  193. Title                                    : eesti
  194. Language                                 : Estonian
  195. Default                                  : No
  196. Forced                                   : No

  197. Text #12
  198. ID                                       : 14
  199. Format                                   : UTF-8
  200. Codec ID                                 : S_TEXT/UTF8
  201. Codec ID/Info                            : UTF-8 Plain Text
  202. Duration                                 : 1 h 35 min
  203. Bit rate                                 : 26 b/s
  204. Count of elements                        : 453
  205. Stream size                              : 18.6 KiB (0%)
  206. Title                                    : Suomi
  207. Language                                 : Finnish
  208. Default                                  : No
  209. Forced                                   : No

  210. Text #13
  211. ID                                       : 15
  212. Format                                   : UTF-8
  213. Codec ID                                 : S_TEXT/UTF8
  214. Codec ID/Info                            : UTF-8 Plain Text
  215. Duration                                 : 1 h 35 min
  216. Bit rate                                 : 28 b/s
  217. Count of elements                        : 505
  218. Stream size                              : 20.1 KiB (0%)
  219. Title                                    : Fran?ais (France)
  220. Language                                 : French
  221. Default                                  : No
  222. Forced                                   : No

  223. Text #14
  224. ID                                       : 16
  225. Format                                   : UTF-8
  226. Codec ID                                 : S_TEXT/UTF8
  227. Codec ID/Info                            : UTF-8 Plain Text
  228. Duration                                 : 1 h 35 min
  229. Bit rate                                 : 38 b/s
  230. Count of elements                        : 454
  231. Stream size                              : 26.6 KiB (0%)
  232. Title                                    : ?????
  233. Language                                 : Hebrew
  234. Default                                  : No
  235. Forced                                   : No

  236. Text #15
  237. ID                                       : 17
  238. Format                                   : UTF-8
  239. Codec ID                                 : S_TEXT/UTF8
  240. Codec ID/Info                            : UTF-8 Plain Text
  241. Duration                                 : 1 h 35 min
  242. Bit rate                                 : 75 b/s
  243. Count of elements                        : 454
  244. Stream size                              : 52.7 KiB (0%)
  245. Title                                    : ??????
  246. Language                                 : Hindi
  247. Default                                  : No
  248. Forced                                   : No

  249. Text #16
  250. ID                                       : 18
  251. Format                                   : UTF-8
  252. Codec ID                                 : S_TEXT/UTF8
  253. Codec ID/Info                            : UTF-8 Plain Text
  254. Duration                                 : 1 h 35 min
  255. Bit rate                                 : 27 b/s
  256. Count of elements                        : 451
  257. Stream size                              : 18.9 KiB (0%)
  258. Title                                    : magyar
  259. Language                                 : Hungarian
  260. Default                                  : No
  261. Forced                                   : No

  262. Text #17
  263. ID                                       : 19
  264. Format                                   : UTF-8
  265. Codec ID                                 : S_TEXT/UTF8
  266. Codec ID/Info                            : UTF-8 Plain Text
  267. Duration                                 : 1 h 35 min
  268. Bit rate                                 : 28 b/s
  269. Count of elements                        : 452
  270. Stream size                              : 19.7 KiB (0%)
  271. Title                                    : Bahasa Indonesia
  272. Language                                 : Indonesian
  273. Default                                  : No
  274. Forced                                   : No

  275. Text #18
  276. ID                                       : 20
  277. Format                                   : UTF-8
  278. Codec ID                                 : S_TEXT/UTF8
  279. Codec ID/Info                            : UTF-8 Plain Text
  280. Duration                                 : 1 h 35 min
  281. Bit rate                                 : 30 b/s
  282. Count of elements                        : 451
  283. Stream size                              : 21.6 KiB (0%)
  284. Title                                    : Italiano
  285. Language                                 : Italian
  286. Default                                  : No
  287. Forced                                   : No

  288. Text #19
  289. ID                                       : 21
  290. Format                                   : UTF-8
  291. Codec ID                                 : S_TEXT/UTF8
  292. Codec ID/Info                            : UTF-8 Plain Text
  293. Duration                                 : 1 h 35 min
  294. Bit rate                                 : 25 b/s
  295. Count of elements                        : 406
  296. Stream size                              : 17.9 KiB (0%)
  297. Title                                    : 日本語
  298. Language                                 : Japanese
  299. Default                                  : No
  300. Forced                                   : No

  301. Text #20
  302. ID                                       : 22
  303. Format                                   : UTF-8
  304. Codec ID                                 : S_TEXT/UTF8
  305. Codec ID/Info                            : UTF-8 Plain Text
  306. Duration                                 : 1 h 35 min
  307. Bit rate                                 : 31 b/s
  308. Count of elements                        : 454
  309. Stream size                              : 22.3 KiB (0%)
  310. Title                                    : ???
  311. Language                                 : Korean
  312. Default                                  : No
  313. Forced                                   : No

  314. Text #21
  315. ID                                       : 23
  316. Format                                   : UTF-8
  317. Codec ID                                 : S_TEXT/UTF8
  318. Codec ID/Info                            : UTF-8 Plain Text
  319. Duration                                 : 1 h 35 min
  320. Bit rate                                 : 26 b/s
  321. Count of elements                        : 454
  322. Stream size                              : 18.3 KiB (0%)
  323. Title                                    : lietuvi?
  324. Language                                 : Lithuanian
  325. Default                                  : No
  326. Forced                                   : No

  327. Text #22
  328. ID                                       : 24
  329. Format                                   : UTF-8
  330. Codec ID                                 : S_TEXT/UTF8
  331. Codec ID/Info                            : UTF-8 Plain Text
  332. Duration                                 : 1 h 35 min
  333. Bit rate                                 : 27 b/s
  334. Count of elements                        : 453
  335. Stream size                              : 19.3 KiB (0%)
  336. Title                                    : latvie?u
  337. Language                                 : Latvian
  338. Default                                  : No
  339. Forced                                   : No

  340. Text #23
  341. ID                                       : 25
  342. Format                                   : UTF-8
  343. Codec ID                                 : S_TEXT/UTF8
  344. Codec ID/Info                            : UTF-8 Plain Text
  345. Duration                                 : 1 h 35 min
  346. Bit rate                                 : 33 b/s
  347. Count of elements                        : 452
  348. Stream size                              : 23.1 KiB (0%)
  349. Title                                    : Bahasa Melayu
  350. Language                                 : Malay
  351. Default                                  : No
  352. Forced                                   : No

  353. Text #24
  354. ID                                       : 26
  355. Format                                   : UTF-8
  356. Codec ID                                 : S_TEXT/UTF8
  357. Codec ID/Info                            : UTF-8 Plain Text
  358. Duration                                 : 1 h 35 min
  359. Bit rate                                 : 26 b/s
  360. Count of elements                        : 452
  361. Stream size                              : 18.5 KiB (0%)
  362. Title                                    : Nederlands
  363. Language                                 : Dutch
  364. Default                                  : No
  365. Forced                                   : No

  366. Text #25
  367. ID                                       : 27
  368. Format                                   : UTF-8
  369. Codec ID                                 : S_TEXT/UTF8
  370. Codec ID/Info                            : UTF-8 Plain Text
  371. Duration                                 : 1 h 35 min
  372. Bit rate                                 : 27 b/s
  373. Count of elements                        : 452
  374. Stream size                              : 19.3 KiB (0%)
  375. Title                                    : norsk
  376. Language                                 : Norwegian
  377. Default                                  : No
  378. Forced                                   : No

  379. Text #26
  380. ID                                       : 28
  381. Format                                   : UTF-8
  382. Codec ID                                 : S_TEXT/UTF8
  383. Codec ID/Info                            : UTF-8 Plain Text
  384. Duration                                 : 1 h 35 min
  385. Bit rate                                 : 27 b/s
  386. Count of elements                        : 452
  387. Stream size                              : 19.2 KiB (0%)
  388. Title                                    : polski
  389. Language                                 : Polish
  390. Default                                  : No
  391. Forced                                   : No

  392. Text #27
  393. ID                                       : 29
  394. Format                                   : UTF-8
  395. Codec ID                                 : S_TEXT/UTF8
  396. Codec ID/Info                            : UTF-8 Plain Text
  397. Duration                                 : 1 h 35 min
  398. Bit rate                                 : 28 b/s
  399. Count of elements                        : 452
  400. Stream size                              : 19.7 KiB (0%)
  401. Title                                    : Português (Brasil)
  402. Language                                 : Portuguese
  403. Default                                  : No
  404. Forced                                   : No

  405. Text #28
  406. ID                                       : 30
  407. Format                                   : UTF-8
  408. Codec ID                                 : S_TEXT/UTF8
  409. Codec ID/Info                            : UTF-8 Plain Text
  410. Duration                                 : 1 h 35 min
  411. Bit rate                                 : 27 b/s
  412. Count of elements                        : 452
  413. Stream size                              : 19.2 KiB (0%)
  414. Title                                    : Português
  415. Language                                 : Portuguese
  416. Default                                  : No
  417. Forced                                   : No

  418. Text #29
  419. ID                                       : 31
  420. Format                                   : UTF-8
  421. Codec ID                                 : S_TEXT/UTF8
  422. Codec ID/Info                            : UTF-8 Plain Text
  423. Duration                                 : 1 h 35 min
  424. Bit rate                                 : 45 b/s
  425. Count of elements                        : 454
  426. Stream size                              : 31.7 KiB (0%)
  427. Title                                    : Русский
  428. Language                                 : Russian
  429. Default                                  : No
  430. Forced                                   : No

  431. Text #30
  432. ID                                       : 32
  433. Format                                   : UTF-8
  434. Codec ID                                 : S_TEXT/UTF8
  435. Codec ID/Info                            : UTF-8 Plain Text
  436. Duration                                 : 1 h 35 min
  437. Bit rate                                 : 26 b/s
  438. Count of elements                        : 452
  439. Stream size                              : 18.6 KiB (0%)
  440. Title                                    : Sloven?ina
  441. Language                                 : Slovak
  442. Default                                  : No
  443. Forced                                   : No

  444. Text #31
  445. ID                                       : 33
  446. Format                                   : UTF-8
  447. Codec ID                                 : S_TEXT/UTF8
  448. Codec ID/Info                            : UTF-8 Plain Text
  449. Duration                                 : 1 h 35 min
  450. Bit rate                                 : 24 b/s
  451. Count of elements                        : 452
  452. Stream size                              : 16.8 KiB (0%)
  453. Title                                    : sloven??ina
  454. Language                                 : Slovenian
  455. Default                                  : No
  456. Forced                                   : No

  457. Text #32
  458. ID                                       : 34
  459. Format                                   : UTF-8
  460. Codec ID                                 : S_TEXT/UTF8
  461. Codec ID/Info                            : UTF-8 Plain Text
  462. Duration                                 : 1 h 35 min
  463. Bit rate                                 : 28 b/s
  464. Count of elements                        : 452
  465. Stream size                              : 20.1 KiB (0%)
  466. Title                                    : Svenska
  467. Language                                 : Swedish
  468. Default                                  : No
  469. Forced                                   : No

  470. Text #33
  471. ID                                       : 35
  472. Format                                   : UTF-8
  473. Codec ID                                 : S_TEXT/UTF8
  474. Codec ID/Info                            : UTF-8 Plain Text
  475. Duration                                 : 1 h 35 min
  476. Bit rate                                 : 87 b/s
  477. Count of elements                        : 455
  478. Stream size                              : 60.8 KiB (0%)
  479. Title                                    : ?????
  480. Language                                 : Tamil
  481. Default                                  : No
  482. Forced                                   : No

  483. Text #34
  484. ID                                       : 36
  485. Format                                   : UTF-8
  486. Codec ID                                 : S_TEXT/UTF8
  487. Codec ID/Info                            : UTF-8 Plain Text
  488. Duration                                 : 1 h 35 min
  489. Bit rate                                 : 75 b/s
  490. Count of elements                        : 454
  491. Stream size                              : 52.4 KiB (0%)
  492. Title                                    : ??????
  493. Language                                 : Telugu
  494. Default                                  : No
  495. Forced                                   : No

  496. Text #35
  497. ID                                       : 37
  498. Format                                   : UTF-8
  499. Codec ID                                 : S_TEXT/UTF8
  500. Codec ID/Info                            : UTF-8 Plain Text
  501. Duration                                 : 1 h 35 min
  502. Bit rate                                 : 72 b/s
  503. Count of elements                        : 454
  504. Stream size                              : 50.8 KiB (0%)
  505. Title                                    : ???
  506. Language                                 : Thai
  507. Default                                  : No
  508. Forced                                   : No

  509. Text #36
  510. ID                                       : 38
  511. Format                                   : UTF-8
  512. Codec ID                                 : S_TEXT/UTF8
  513. Codec ID/Info                            : UTF-8 Plain Text
  514. Duration                                 : 1 h 35 min
  515. Bit rate                                 : 29 b/s
  516. Count of elements                        : 452
  517. Stream size                              : 20.6 KiB (0%)
  518. Title                                    : Türk?e
  519. Language                                 : Turkish
  520. Default                                  : No
  521. Forced                                   : No

  522. Text #37
  523. ID                                       : 39
  524. Format                                   : UTF-8
  525. Codec ID                                 : S_TEXT/UTF8
  526. Codec ID/Info                            : UTF-8 Plain Text
  527. Duration                                 : 1 h 35 min
  528. Bit rate                                 : 44 b/s
  529. Count of elements                        : 454
  530. Stream size                              : 31.1 KiB (0%)
  531. Title                                    : укра?нська
  532. Language                                 : Ukrainian
  533. Default                                  : No
  534. Forced                                   : No

  535. Text #38
  536. ID                                       : 40
  537. Format                                   : UTF-8
  538. Codec ID                                 : S_TEXT/UTF8
  539. Codec ID/Info                            : UTF-8 Plain Text
  540. Duration                                 : 1 h 35 min
  541. Bit rate                                 : 36 b/s
  542. Count of elements                        : 452
  543. Stream size                              : 25.4 KiB (0%)
  544. Title                                    : Ti?ng Vi?t
  545. Language                                 : Vietnamese
  546. Default                                  : No
  547. Forced                                   : No

  548. Text #39
  549. ID                                       : 41
  550. Format                                   : UTF-8
  551. Codec ID                                 : S_TEXT/UTF8
  552. Codec ID/Info                            : UTF-8 Plain Text
  553. Duration                                 : 1 h 35 min
  554. Bit rate                                 : 24 b/s
  555. Count of elements                        : 454
  556. Stream size                              : 17.3 KiB (0%)
  557. Title                                    : 廣東話
  558. Language                                 : Chinese
  559. Default                                  : No
  560. Forced                                   : No

  561. Text #40
  562. ID                                       : 42
  563. Format                                   : UTF-8
  564. Codec ID                                 : S_TEXT/UTF8
  565. Codec ID/Info                            : UTF-8 Plain Text
  566. Duration                                 : 1 h 35 min
  567. Bit rate                                 : 26 b/s
  568. Count of elements                        : 454
  569. Stream size                              : 18.8 KiB (0%)
  570. Title                                    : 中文(简体)
  571. Language                                 : Chinese
  572. Default                                  : No
  573. Forced                                   : No

  574. Text #41
  575. ID                                       : 43
  576. Format                                   : UTF-8
  577. Codec ID                                 : S_TEXT/UTF8
  578. Codec ID/Info                            : UTF-8 Plain Text
  579. Duration                                 : 1 h 35 min
  580. Bit rate                                 : 25 b/s
  581. Count of elements                        : 454
  582. Stream size                              : 18.0 KiB (0%)
  583. Title                                    : 中文(繁體)
  584. Language                                 : Chinese
  585. Default                                  : No
  586. Forced                                   : No
复制代码

17603771295771691004_medium.png 大象女王 The.Elephant.Queen.2019.HDR.2160p.WEB.h265-NiXON 16.52GB-3.png 大象女王 The.Elephant.Queen.2019.HDR.2160p.WEB.h265-NiXON 16.52GB-4.png







回复

使用道具 举报

发表于 2020-3-15 00:51:58 | 显示全部楼层
楼主发贴辛苦了,谢谢楼主分享!我觉得蓝光电影网是注册对了
回复 支持 反对

使用道具 举报

发表于 2020-3-15 09:13:19 | 显示全部楼层
楼主发贴辛苦了,谢谢楼主分享!我觉得蓝光电影网是注册对了!
回复 支持 反对

使用道具 举报

 成长值: 2390

发表于 2020-3-15 09:55:38 | 显示全部楼层
谢谢楼主无私分享。
回复 支持 反对

使用道具 举报

发表于 2020-3-15 15:58:19 | 显示全部楼层

这个帖子不回对不起自己!我想我是一天也不能离开蓝光电影网
回复 支持 反对

使用道具 举报

发表于 2020-3-15 16:08:55 | 显示全部楼层

谢谢楼主无私分享。
回复 支持 反对

使用道具 举报

发表于 2020-3-16 08:51:16 | 显示全部楼层
楼主发贴辛苦了,谢谢楼主分享!我觉得蓝光电影网是注册对了
回复 支持 反对

使用道具 举报

发表于 2020-3-16 12:19:43 | 显示全部楼层

这东西我收了!谢谢楼主!蓝光电影网真好!
回复 支持 反对

使用道具 举报

发表于 2020-3-16 13:19:17 | 显示全部楼层
楼主发贴辛苦了,谢谢楼主分享!我觉得蓝光电影网是注册对了!
回复 支持 反对

使用道具 举报

发表于 2020-3-16 14:18:28 | 显示全部楼层
这样的纪录片给小朋友挺好的
回复 支持 反对

使用道具 举报

懒得打字嘛,点击右侧快捷回复 【右侧内容,后台自定义】
您需要登录后才可以回帖 登录 | 立即加入

本版积分规则

现在加入蓝光电影网,注册一个账号
上个主题 下个主题 快速回复 收藏帖子 返回列表 客服中心 搜索

手机版|小黑屋| 蓝光电影网 |网站地图 

Copyright © 2015-2019 Comsenz Inc.  Template by 蓝光电影论坛 All Rights Reserved.

Powered by 蓝光电影网 X3.4

特别声明:本站所有资源均由网上收集而来,版权归原影音公司所有,如果侵犯了你的权益,请通知我们,我们会及时删除侵权内容.

快速回复 返回顶部 返回列表