找回密码

蓝光电影网

查看: 1299|回复: 21

[10bit.HDR] 超人:红色之子/超人:苏联之子 Superman.Red.Son.2020.2160p.UHD.BluRay.X265.10bit.HDR.DTS-HD.MA.5.1-WhiteRhino 18.59GB

[复制链接]

 成长值: 25285

发表于 2020-3-15 00:23:33 | 显示全部楼层 |阅读模式
超人:红色之子/超人:苏联之子 Superman.Red.Son.2020.2160p.UHD.BluRay.X265.10bit.HDR.DTS-HD.MA.5.1-WhiteRhino 18.59GB-1.png

译  名 超人:红色之子 / 超人:苏联之子 / 超人:赤子
片  名 Superman: Red Son
年  代 2020
产  地 美国
类  别 动画
语  言 英语
上映日期 2020-02-25(美国)
IMDb评分  6.3/10 from 2635 users
IMDb链接  https://www.imdb.com/title/tt10985510
豆瓣评分 4.8/10 from 2799 users
豆瓣链接 https://movie.douban.com/subject/27668334/
片  长 85分钟
导  演 刘山姆 Sam Liu
编  剧 J·M·德马泰 J.M. DeMatteis / 马克·米勒 Mark Millar
主  演 詹森·艾萨克 Jason Isaacs
       艾米·阿克 Amy Acker
       戴德里克·巴德 Diedrich Bader
       保罗·威廉姆斯 Paul Williams
       菲尔·拉马 Phil LaMarr
       罗杰·克莱格·史密斯 Roger Craig Smith
       萨沙·罗伊茨 Sasha Roiz
       特拉维斯·威林厄姆 Travis Willingham
       雯特·艾娃·佐莉 Winter Ave Zoli
       菲尔·莫里斯 Phil Morris
       瓦内萨·马歇尔 Vanessa Marshall
       吉姆·麦司奇门 Jim Meskimen
       威廉·赛莱耶 William Salyers


标  签 DC | 动画 | 美国 | 漫画改编 | 超级英雄 | 2020 | 科幻 | 大超

简  介  

  红子动画真的来了,经典DC漫画《超人:红色之子》动画版发布首张剧照,苏联超人亮相。
  杰森·伊萨克斯(《蝙蝠侠:红影迷踪》)配音超人,“根妹”艾米·阿克配音路易斯·莱恩,戴德里克·巴德配音莱克斯·卢瑟,瓦内萨·马歇尔配音神奇女侠,罗杰·克莱格·史密斯配音蝙蝠侠。
  《红子》由刘山姆(《超人之死》《超人王朝》)执导,将于明年第一季发碟和登陆数字平台。漫画来自马克·米拉,提出:如果超人不是降落在美国小镇,而是在乌克兰,长大成为了苏联领导人,胸前的S变成镰刀和锤子,他和世界会是怎样?对社会主义、资本主义、历史和人性的探讨相当有意思。
  1. Video
  2. ID                                       : 1
  3. Format                                   : HEVC
  4. Format/Info                              : High Efficiency Video Coding
  5. Format profile                           : Main High@L4@High
  6. HDR format                               : SMPTE ST 2086, HDR10 compatible
  7. Codec ID                                 : V_MPEGH/ISO/HEVC
  8. Duration                                 : 1 h 24 min
  9. Bit rate                                 : 29.0 Mb/s
  10. Width                                    : 3 840 pixels
  11. Height                                   : 2 160 pixels
  12. Display aspect ratio                     : 16:9
  13. Frame rate mode                          : Constant
  14. Frame rate                               : 23.976 (24000/1001/189150) FPS
  15. Color space                              : YUV
  16. Chroma subsampling                       : 4:2:0 (Type 2)
  17. Bit depth                                : 10 bits
  18. Bits/(Pixel*Frame)                       : 0.146
  19. Stream size                              : 17.1 GiB (92%)
  20. Writing library                          : x265 3.3gbe2d82093:[Windows][GCC 10.0.1][64 bit] 10bit
  21. Encoding settings                        : cpuid=1111039 / frame-threads=4 / numa-pools=20 / wpp / no-pmode / no-pme / no-psnr / no-ssim / log-level=2 / input-csp=1 / input-res=3840x2160 / interlace=0 / total-frames=121264 / level-idc=51 / high-tier=1 / uhd-bd=1 / ref=4 / no-allow-non-conformance / repeat-headers / annexb / aud / hrd / info / hash=0 / no-temporal-layers / no-open-gop / min-keyint=1 / keyint=24 / gop-lookahead=0 / bframes=4 / b-adapt=2 / b-pyramid / bframe-bias=0 / rc-lookahead=25 / lookahead-slices=4 / scenecut=40 / hist-scenecut=0 / radl=0 / no-splice / no-intra-refresh / ctu=64 / min-cu-size=8 / rect / no-amp / max-tu-size=32 / tu-inter-depth=1 / tu-intra-depth=1 / limit-tu=0 / rdoq-level=2 / dynamic-rd=0.00 / no-ssim-rd / signhide / no-tskip / nr-intra=0 / nr-inter=0 / no-constrained-intra / no-strong-intra-smoothing / max-merge=3 / limit-refs=3 / limit-modes / me=3 / subme=3 / merange=57 / temporal-mvp / no-frame-dup / no-hme / weightp / no-weightb / no-analyze-src-pics / deblock=-3:-3 / no-sao / no-sao-non-deblock / rd=4 / selective-sao=0 / no-early-skip / rskip / no-fast-intra / no-tskip-fast / no-cu-lossless / no-b-intra / no-splitrd-skip / rdpenalty=0 / psy-rd=2.00 / psy-rdoq=1.00 / no-rd-refine / no-lossless / cbqpoffs=0 / crqpoffs=0 / rc=crf / crf=17.0 / qcomp=0.60 / qpstep=4 / stats-write=0 / stats-read=0 / vbv-maxrate=160000 / vbv-bufsize=160000 / vbv-init=0.9 / crf-max=0.0 / crf-min=0.0 / ipratio=1.40 / pbratio=1.30 / aq-mode=2 / aq-strength=1.00 / cutree / zone-count=0 / no-strict-cbr / qg-size=32 / no-rc-grain / qpmax=69 / qpmin=0 / no-const-vbv / sar=1 / overscan=0 / videoformat=5 / range=0 / colorprim=9 / transfer=16 / colormatrix=9 / chromaloc=1 / chromaloc-top=2 / chromaloc-bottom=2 / display-window=0 / master-display=G(8500,39850)B(6550,2300)R(35400,14600)WP(15635,16450)L(40000000,50) / cll=816,338 / min-luma=0 / max-luma=1023 / log2-max-poc-lsb=8 / vui-timing-info / vui-hrd-info / slices=1 / no-opt-qp-pps / no-opt-ref-list-length-pps / no-multi-pass-opt-rps / scenecut-bias=0.05 / hist-threshold=0.01 / no-opt-cu-delta-qp / no-aq-motion / hdr10 / hdr10-opt / no-dhdr10-opt / no-idr-recovery-sei / analysis-reuse-level=0 / analysis-save-reuse-level=0 / analysis-load-reuse-level=0 / scale-factor=0 / refine-intra=0 / refine-inter=0 / refine-mv=1 / refine-ctu-distortion=0 / no-limit-sao / ctu-info=0 / no-lowpass-dct / refine-analysis-type=0 / copy-pic=1 / max-ausize-factor=1.0 / no-dynamic-refine / no-single-sei / no-hevc-aq / no-svt / no-field / qp-adaptation-range=1.00 / no-scenecut-aware-qpconformance-window-offsets / right=0 / bottom=0
  22. Default                                  : Yes
  23. Forced                                   : No
  24. Color range                              : Limited
  25. Color primaries                          : BT.2020
  26. Transfer characteristics                 : PQ
  27. Matrix coefficients                      : BT.2020 non-constant
  28. Mastering display color primaries        : BT.2020
  29. Mastering display luminance              : min: 0.0050 cd/m2, max: 4000 cd/m2
  30. Maximum Content Light Level              : 816 cd/m2
  31. Maximum Frame-Average Light Level        : 338 cd/m2

  32. Audio
  33. ID                                       : 2
  34. Format                                   : DTS XLL
  35. Format/Info                              : Digital Theater Systems
  36. Commercial name                          : DTS-HD Master Audio
  37. Codec ID                                 : A_DTS
  38. Duration                                 : 1 h 24 min
  39. Bit rate mode                            : Variable
  40. Bit rate                                 : 2 435 kb/s
  41. Channel(s)                               : 6 channels
  42. Channel layout                           : C L R Ls Rs LFE
  43. Sampling rate                            : 48.0 kHz
  44. Frame rate                               : 93.750 FPS (512 SPF)
  45. Bit depth                                : 16 bits
  46. Compression mode                         : Lossless
  47. Stream size                              : 1.43 GiB (8%)
  48. Language                                 : English
  49. Default                                  : Yes
  50. Forced                                   : No

  51. Text #1
  52. ID                                       : 3
  53. Format                                   : PGS
  54. Muxing mode                              : zlib
  55. Codec ID                                 : S_HDMV/PGS
  56. Codec ID/Info                            : Picture based subtitle format used on BDs/HD-DVDs
  57. Duration                                 : 1 h 20 min
  58. Bit rate                                 : 31.8 kb/s
  59. Count of elements                        : 1780
  60. Stream size                              : 18.3 MiB (0%)
  61. Language                                 : English
  62. Default                                  : No
  63. Forced                                   : No

  64. Text #2
  65. ID                                       : 4
  66. Format                                   : PGS
  67. Muxing mode                              : zlib
  68. Codec ID                                 : S_HDMV/PGS
  69. Codec ID/Info                            : Picture based subtitle format used on BDs/HD-DVDs
  70. Duration                                 : 1 h 23 min
  71. Bit rate                                 : 27.9 kb/s
  72. Count of elements                        : 1632
  73. Stream size                              : 16.7 MiB (0%)
  74. Language                                 : French
  75. Default                                  : No
  76. Forced                                   : No

  77. Text #3
  78. ID                                       : 5
  79. Format                                   : PGS
  80. Muxing mode                              : zlib
  81. Codec ID                                 : S_HDMV/PGS
  82. Codec ID/Info                            : Picture based subtitle format used on BDs/HD-DVDs
  83. Duration                                 : 1 h 23 min
  84. Bit rate                                 : 30.7 kb/s
  85. Count of elements                        : 1648
  86. Stream size                              : 18.3 MiB (0%)
  87. Language                                 : Spanish
  88. Default                                  : No
  89. Forced                                   : No

  90. Menu
  91. 00:00:00.000                             : en:Chapter 01
  92. 00:08:15.453                             : en:Chapter 02
  93. 00:16:59.852                             : en:Chapter 03
  94. 00:27:19.179                             : en:Chapter 04
  95. 00:38:09.954                             : en:Chapter 05
  96. 00:48:38.374                             : en:Chapter 06
  97. 00:56:55.621                             : en:Chapter 07
  98. 01:02:34.459                             : en:Chapter 08
  99. 01:12:30.596                             : en:Chapter 09
  100. 01:21:39.978                             : en:Chapter 10
复制代码

超人:红色之子/超人:苏联之子 Superman.Red.Son.2020.2160p.UHD.BluRay.X265.10bit.HDR.DTS-HD.MA.5.1-WhiteRhino 18.59GB-2.png 超人:红色之子/超人:苏联之子 Superman.Red.Son.2020.2160p.UHD.BluRay.X265.10bit.HDR.DTS-HD.MA.5.1-WhiteRhino 18.59GB-3.png 超人:红色之子/超人:苏联之子 Superman.Red.Son.2020.2160p.UHD.BluRay.X265.10bit.HDR.DTS-HD.MA.5.1-WhiteRhino 18.59GB-4.png






回复

使用道具 举报

发表于 2020-3-15 08:57:58 | 显示全部楼层
楼主发贴辛苦了,谢谢楼主分享!我觉得蓝光电影网是注册对了!
回复 支持 反对

使用道具 举报

发表于 2020-3-15 14:28:58 | 显示全部楼层
楼主发贴辛苦了,谢谢楼主分享!我觉得蓝光电影网是注册对了!
回复 支持 反对

使用道具 举报

发表于 2020-3-15 22:09:41 | 显示全部楼层
动画????????
回复

使用道具 举报

发表于 2020-3-16 03:38:16 | 显示全部楼层
居然还有CCCP版超人 还真没见过哦
回复 支持 反对

使用道具 举报

发表于 2020-3-16 14:57:45 | 显示全部楼层
楼主发贴辛苦了,谢谢楼主分享!我觉得蓝光电影网是注册对了!
回复 支持 反对

使用道具 举报

发表于 2020-3-16 20:41:10 | 显示全部楼层

这个帖子不回对不起自己!我想我是一天也不能离开蓝光电影网
回复 支持 反对

使用道具 举报

发表于 2020-3-16 21:56:42 | 显示全部楼层

楼主太厉害了!楼主,电影应该很好看我觉得蓝光电影网真是个好地方!
回复 支持 反对

使用道具 举报

发表于 2020-3-17 09:23:25 | 显示全部楼层
电影应该很好看我觉得蓝光电影网真是不错。
回复 支持 反对

使用道具 举报

发表于 2020-3-17 10:50:23 | 显示全部楼层
楼主发贴辛苦了,谢谢楼主分享!
回复 支持 反对

使用道具 举报

懒得打字嘛,点击右侧快捷回复 【右侧内容,后台自定义】
您需要登录后才可以回帖 登录 | 立即加入

本版积分规则

现在加入蓝光电影网,注册一个账号
上个主题 下个主题 快速回复 收藏帖子 返回列表 客服中心 搜索

手机版|小黑屋| 蓝光电影网 |网站地图 

Copyright © 2015-2019 Comsenz Inc.  Template by 蓝光电影论坛 All Rights Reserved.

Powered by 蓝光电影网 X3.4

特别声明:本站所有资源均由网上收集而来,版权归原影音公司所有,如果侵犯了你的权益,请通知我们,我们会及时删除侵权内容.

快速回复 返回顶部 返回列表